osu file format v14

[General]
AudioFilename: audio.mp3
AudioLeadIn: 0
PreviewTime: 679
Countdown: 0
SampleSet: Normal
StackLeniency: 0.7
Mode: 1
LetterboxInBreaks: 0
WidescreenStoryboard: 0

[Editor]
Bookmarks: 21874,58179,87961
DistanceSpacing: 0.8
BeatDivisor: 4
GridSize: 32
TimelineZoom: 5.499998

[Metadata]
Title:DADDY ! DADDY ! DO ! feat. Suzuki Airi (TV Size)
TitleUnicode:DADDY ! DADDY ! DO ! feat. 鈴木愛理 (TV Size)
Artist:Suzuki Masayuki
ArtistUnicode:鈴木雅之
Creator:radar
Version:Oni !
Source:Kaguya-sama: Love Is War?
Tags:ultima fox idealism wants to be confessed to?: the geniuses' war of love and brains かぐや様は告らせたい?~天才たちの恋愛頭脳戦~ kaguya-sama wa kokurasetai? tensai-tachi no renai zunosen zunousen japanese groovy anime opening op season 2 水野良樹 本間昭光 mizuno yoshiki honma akimitsu j-pop pop
BeatmapID:2422427
BeatmapSetID:1161128

[Difficulty]
HPDrainRate:5
CircleSize:5
OverallDifficulty:5
ApproachRate:5
SliderMultiplier:1.4
SliderTickRate:1

[Events]
//Background and Video events
0,0,"fattestchika.jpg",0,0
//Break Periods
//Storyboard Layer 0 (Background)
//Storyboard Layer 1 (Fail)
//Storyboard Layer 2 (Pass)
//Storyboard Layer 3 (Foreground)
//Storyboard Layer 4 (Overlay)
//Storyboard Sound Samples

[TimingPoints]
-734,434.782608695652,4,1,0,75,1,0
2092,-97.5609756097561,4,1,0,75,0,0
2309,-93.2835820895522,4,1,0,75,0,0
2526,-90.9090909090909,4,1,0,75,0,1
14918,-90.9090909090909,4,1,0,75,0,0
15244,-100,4,1,0,75,0,0
57717,-97.5609756097561,4,1,0,75,0,0
57934,-93.2835820895522,4,1,0,75,0,0
58179,-90.9090909090909,4,1,0,75,0,1
70352,-90.9090909090909,4,1,0,75,0,0
71630,-88.8888888888889,4,1,0,75,0,0
71847,-85.3242320819113,4,1,0,75,0,0
72092,-83.3333333333333,4,1,0,75,0,1
87961,-83.3333333333333,4,1,0,75,0,0

[HitObjects]
96,64,787,5,12,0:0:0:0:
101,57,1222,1,4,0:0:0:0:
101,57,1657,1,12,0:0:0:0:
101,57,2092,1,4,0:0:0:0:
101,57,2309,1,4,0:0:0:0:
101,57,2526,1,12,0:0:0:0:
112,286,2961,1,0,0:0:0:0:
112,286,3179,1,8,0:0:0:0:
119,268,3287,1,8,0:0:0:0:
112,286,3396,1,0,0:0:0:0:
112,286,3613,1,0,0:0:0:0:
84,40,3831,1,12,0:0:0:0:
84,40,4048,1,12,0:0:0:0:
106,304,4265,1,0,0:0:0:0:
104,286,4700,1,0,0:0:0:0:
103,277,4918,1,8,0:0:0:0:
103,277,5135,1,0,0:0:0:0:
96,274,5244,1,8,0:0:0:0:
103,277,5352,1,0,0:0:0:0:
81,41,5570,1,12,0:0:0:0:
81,41,5787,1,12,0:0:0:0:
97,279,6005,1,0,0:0:0:0:
97,279,6439,1,0,0:0:0:0:
92,268,6657,1,8,0:0:0:0:
92,268,6874,1,0,0:0:0:0:
108,279,6983,1,0,0:0:0:0:
93,272,7092,1,8,0:0:0:0:
92,268,7309,1,8,0:0:0:0:
92,268,7418,1,8,0:0:0:0:
92,268,7526,1,0,0:0:0:0:
102,26,7744,1,12,0:0:0:0:
107,283,8179,1,8,0:0:0:0:
107,283,8396,1,8,0:0:0:0:
102,293,8613,1,0,0:0:0:0:
108,290,8831,1,8,0:0:0:0:
112,287,9048,1,0,0:0:0:0:
72,296,9265,1,8,0:0:0:0:
114,19,9483,1,4,0:0:0:0:
79,286,9918,1,0,0:0:0:0:
79,286,10135,1,8,0:0:0:0:
94,16,10352,1,4,0:0:0:0:
82,35,10787,1,12,0:0:0:0:
82,35,11222,1,4,0:0:0:0:
81,59,11657,1,12,0:0:0:0:
81,59,12092,1,4,0:0:0:0:
81,59,12526,1,12,0:0:0:0:
81,59,12961,1,12,0:0:0:0:
81,59,13396,1,4,0:0:0:0:
81,59,13831,1,4,0:0:0:0:
78,291,14265,1,0,0:0:0:0:
78,291,14483,1,8,0:0:0:0:
78,291,14700,1,0,0:0:0:0:
78,291,14809,1,0,0:0:0:0:
70,35,14918,1,12,0:0:0:0:
94,289,15244,1,0,0:0:0:0:
112,10,15352,1,12,0:0:0:0:
106,286,15570,1,0,0:0:0:0:
90,274,15787,1,8,0:0:0:0:
91,283,15896,1,8,0:0:0:0:
90,274,16005,1,0,0:0:0:0:
111,0,16222,1,12,0:0:0:0:
115,0,16439,1,4,0:0:0:0:
86,281,16874,1,0,0:0:0:0:
94,23,17092,1,12,0:0:0:0:
101,278,17309,1,0,0:0:0:0:
101,278,17418,1,0,0:0:0:0:
97,274,17526,1,8,0:0:0:0:
82,268,17744,1,0,0:0:0:0:
108,49,17961,1,12,0:0:0:0:
117,61,18179,1,4,0:0:0:0:
125,263,18613,1,0,0:0:0:0:
125,263,18722,1,0,0:0:0:0:
110,0,18831,1,12,0:0:0:0:
125,263,19048,1,8,0:0:0:0:
125,263,19157,1,8,0:0:0:0:
115,255,19265,1,0,0:0:0:0:
123,254,19483,1,0,0:0:0:0:
99,43,19700,1,12,0:0:0:0:
99,43,19918,1,4,0:0:0:0:
99,67,20352,1,4,0:0:0:0:
99,268,20570,1,8,0:0:0:0:
102,72,20787,1,4,0:0:0:0:
105,258,21222,1,8,0:0:0:0:
105,258,21439,1,8,0:0:0:0:
105,258,21657,1,0,0:0:0:0:
97,0,21874,1,12,0:0:0:0:
114,254,22092,1,0,0:0:0:0:
134,271,22309,1,8,0:0:0:0:
102,269,22526,1,0,0:0:0:0:
102,269,22635,1,0,0:0:0:0:
102,269,22744,1,8,0:0:0:0:
102,269,22961,1,0,0:0:0:0:
102,269,23179,1,8,0:0:0:0:
102,269,23287,1,8,0:0:0:0:
102,269,23396,1,0,0:0:0:0:
99,23,23613,1,12,0:0:0:0:
99,23,23939,1,4,0:0:0:0:
99,23,24265,1,12,0:0:0:0:
102,268,24700,1,0,0:0:0:0:
102,268,24918,1,8,0:0:0:0:
102,268,25135,1,0,0:0:0:0:
102,268,25244,1,0,0:0:0:0:
102,268,25352,1,8,0:0:0:0:
102,268,25570,1,0,0:0:0:0:
102,268,25787,1,8,0:0:0:0:
102,268,26005,1,8,0:0:0:0:
102,268,26113,1,8,0:0:0:0:
102,268,26222,1,0,0:0:0:0:
101,275,26439,1,0,0:0:0:0:
102,268,26657,1,8,0:0:0:0:
97,15,26874,1,4,0:0:0:0:
83,289,27309,1,0,0:0:0:0:
83,289,27526,1,8,0:0:0:0:
83,289,27744,1,0,0:0:0:0:
83,289,27852,1,0,0:0:0:0:
81,17,27961,1,12,0:0:0:0:
92,277,28396,1,8,0:0:0:0:
92,280,28613,1,0,0:0:0:0:
88,18,28831,1,12,0:0:0:0:
92,296,29048,1,0,0:0:0:0:
92,296,29157,1,0,0:0:0:0:
92,296,29265,1,8,0:0:0:0:
92,296,29483,1,0,0:0:0:0:
92,296,29592,1,8,0:0:0:0:
92,296,29700,1,0,0:0:0:0:
92,296,29918,1,8,0:0:0:0:
92,296,30135,1,0,0:0:0:0:
92,296,30244,1,8,0:0:0:0:
92,296,30352,1,0,0:0:0:0:
85,31,30570,1,12,0:0:0:0:
85,31,30896,1,4,0:0:0:0:
85,31,31222,1,12,0:0:0:0:
88,279,31657,1,0,0:0:0:0:
88,279,31874,1,8,0:0:0:0:
88,279,32092,1,8,0:0:0:0:
88,279,32200,1,8,0:0:0:0:
88,279,32309,1,0,0:0:0:0:
94,290,32526,1,0,0:0:0:0:
94,291,32744,1,8,0:0:0:0:
139,19,32961,1,4,0:0:0:0:
86,292,33396,1,8,0:0:0:0:
86,292,33613,1,8,0:0:0:0:
115,0,33831,1,4,0:0:0:0:
86,292,34265,1,0,0:0:0:0:
93,280,34483,1,8,0:0:0:0:
94,280,34700,1,0,0:0:0:0:
94,280,34809,1,8,0:0:0:0:
94,280,34918,1,0,0:0:0:0:
93,290,35135,1,8,0:0:0:0:
107,285,35352,1,0,0:0:0:0:
107,285,35461,1,0,0:0:0:0:
107,285,35570,1,0,0:0:0:0:
107,285,35679,1,0,0:0:0:0:
93,20,35787,1,12,0:0:0:0:
123,296,36005,1,0,0:0:0:0:
92,294,36222,1,8,0:0:0:0:
88,295,36439,1,8,0:0:0:0:
92,294,36548,1,0,0:0:0:0:
92,294,36657,1,8,0:0:0:0:
92,294,36874,1,0,0:0:0:0:
100,293,37092,1,8,0:0:0:0:
100,293,37309,1,0,0:0:0:0:
100,293,37418,1,0,0:0:0:0:
120,30,37526,1,12,0:0:0:0:
85,286,37852,1,0,0:0:0:0:
85,286,37961,1,8,0:0:0:0:
96,290,38179,1,8,0:0:0:0:
96,290,38396,1,0,0:0:0:0:
96,290,38613,1,0,0:0:0:0:
96,290,38722,1,0,0:0:0:0:
96,290,38831,1,8,0:0:0:0:
96,290,39048,1,8,0:0:0:0:
96,290,39157,1,8,0:0:0:0:
70,33,39265,1,4,0:0:0:0:
88,303,39592,1,0,0:0:0:0:
104,279,39700,1,8,0:0:0:0:
92,281,39918,1,8,0:0:0:0:
92,281,40135,1,0,0:0:0:0:
93,283,40352,1,8,0:0:0:0:
92,281,40461,1,0,0:0:0:0:
93,283,40570,1,8,0:0:0:0:
106,300,40787,1,0,0:0:0:0:
106,300,40896,1,0,0:0:0:0:
101,45,41005,1,12,0:0:0:0:
106,301,41331,1,0,0:0:0:0:
106,300,41439,1,8,0:0:0:0:
106,43,41657,1,4,0:0:0:0:
111,286,42092,1,8,0:0:0:0:
111,286,42200,1,0,0:0:0:0:
111,286,42309,1,8,0:0:0:0:
111,286,42526,1,0,0:0:0:0:
111,286,42635,1,0,0:0:0:0:
123,35,42744,1,12,0:0:0:0:
110,2,42961,1,4,0:0:0:0:
82,260,43179,1,8,0:0:0:0:
109,21,43396,1,12,0:0:0:0:
92,247,43831,1,0,0:0:0:0:
92,247,44048,1,8,0:0:0:0:
98,256,44265,1,0,0:0:0:0:
98,256,44374,1,0,0:0:0:0:
80,16,44483,1,12,0:0:0:0:
80,16,44700,1,4,0:0:0:0:
92,273,44918,1,8,0:0:0:0:
104,9,45135,1,12,0:0:0:0:
94,297,45570,1,0,0:0:0:0:
94,297,45679,1,0,0:0:0:0:
94,297,45787,1,8,0:0:0:0:
94,297,46005,1,0,0:0:0:0:
82,300,46113,1,0,0:0:0:0:
89,7,46222,1,12,0:0:0:0:
107,287,46439,1,0,0:0:0:0:
108,278,46657,1,8,0:0:0:0:
85,11,46874,1,4,0:0:0:0:
97,261,47092,1,8,0:0:0:0:
94,268,47309,1,0,0:0:0:0:
94,268,47418,1,0,0:0:0:0:
94,268,47526,1,8,0:0:0:0:
94,268,47744,1,0,0:0:0:0:
105,274,48179,1,0,0:0:0:0:
105,274,48396,1,8,0:0:0:0:
105,274,48613,1,0,0:0:0:0:
105,274,48722,1,0,0:0:0:0:
105,274,48831,1,8,0:0:0:0:
105,274,49048,1,0,0:0:0:0:
108,269,49265,1,8,0:0:0:0:
108,269,49374,1,8,0:0:0:0:
108,269,49483,1,0,0:0:0:0:
89,38,49700,1,12,0:0:0:0:
89,38,49918,1,4,0:0:0:0:
89,38,50135,1,12,0:0:0:0:
89,38,50352,1,12,0:0:0:0:
90,135,50787,1,4,0:0:0:0:
81,60,51439,1,12,0:0:0:0:
81,60,51657,1,12,0:0:0:0:
81,60,51874,1,4,0:0:0:0:
81,60,52092,1,12,0:0:0:0:
78,123,52526,1,4,0:0:0:0:
81,78,53179,1,12,0:0:0:0:
81,78,53396,1,4,0:0:0:0:
104,270,53613,1,8,0:0:0:0:
81,78,53831,1,4,0:0:0:0:
104,270,54048,1,8,0:0:0:0:
81,78,54265,1,4,0:0:0:0:
104,270,54483,1,8,0:0:0:0:
81,78,54700,1,12,0:0:0:0:
256,192,54918,12,0,56005,0:0:0:0:
159,240,56222,5,0,0:0:0:0:
93,19,56439,1,12,0:0:0:0:
93,19,56874,1,4,0:0:0:0:
93,19,57309,1,12,0:0:0:0:
93,19,57744,1,4,0:0:0:0:
93,19,57961,1,4,0:0:0:0:
89,47,58179,1,12,0:0:0:0:
100,294,58613,1,0,0:0:0:0:
93,280,58831,1,8,0:0:0:0:
96,277,59048,1,0,0:0:0:0:
96,277,59157,1,0,0:0:0:0:
96,277,59265,1,8,0:0:0:0:
87,23,59483,1,12,0:0:0:0:
87,23,59700,1,12,0:0:0:0:
89,285,59918,1,0,0:0:0:0:
87,293,60352,1,0,0:0:0:0:
89,290,60570,1,8,0:0:0:0:
89,285,60679,1,8,0:0:0:0:
87,293,60787,1,0,0:0:0:0:
87,293,61005,1,0,0:0:0:0:
96,41,61222,1,12,0:0:0:0:
96,41,61439,1,12,0:0:0:0:
88,283,61657,1,0,0:0:0:0:
76,292,62092,1,0,0:0:0:0:
77,291,62309,1,8,0:0:0:0:
76,292,62526,1,0,0:0:0:0:
76,292,62635,1,0,0:0:0:0:
76,292,62744,1,8,0:0:0:0:
77,291,62961,1,0,0:0:0:0:
77,291,63070,1,8,0:0:0:0:
76,292,63179,1,0,0:0:0:0:
66,35,63396,1,12,0:0:0:0:
64,292,63831,1,0,0:0:0:0:
64,292,64048,1,8,0:0:0:0:
90,267,64265,1,0,0:0:0:0:
80,292,64483,1,0,0:0:0:0:
71,291,64700,1,8,0:0:0:0:
71,291,64809,1,0,0:0:0:0:
81,277,64918,1,8,0:0:0:0:
95,15,65135,1,12,0:0:0:0:
76,290,65570,1,0,0:0:0:0:
76,290,65787,1,8,0:0:0:0:
70,0,66005,1,4,0:0:0:0:
92,287,66439,1,8,0:0:0:0:
92,287,66657,1,8,0:0:0:0:
98,38,66874,1,4,0:0:0:0:
92,287,67309,1,8,0:0:0:0:
92,287,67526,1,0,0:0:0:0:
92,287,67635,1,0,0:0:0:0:
69,18,67744,1,12,0:0:0:0:
87,51,68179,1,4,0:0:0:0:
87,63,68613,1,12,0:0:0:0:
110,263,69048,1,0,0:0:0:0:
116,260,69157,1,0,0:0:0:0:
116,250,69265,1,8,0:0:0:0:
117,251,69483,1,0,0:0:0:0:
119,251,69592,1,8,0:0:0:0:
119,251,69700,1,0,0:0:0:0:
119,251,69918,1,8,0:0:0:0:
117,251,70135,1,0,0:0:0:0:
99,23,70352,1,12,0:0:0:0:
99,23,70787,1,4,0:0:0:0:
94,45,71222,1,12,0:0:0:0:
94,45,71657,1,4,0:0:0:0:
94,45,71874,1,4,0:0:0:0:
94,45,72092,1,12,0:0:0:0:
112,262,72526,1,0,0:0:0:0:
112,262,72744,1,8,0:0:0:0:
112,262,72852,1,8,0:0:0:0:
112,262,72961,1,0,0:0:0:0:
112,262,73179,1,0,0:0:0:0:
86,11,73396,1,12,0:0:0:0:
87,18,73613,1,12,0:0:0:0:
104,285,73831,1,0,0:0:0:0:
104,285,74265,1,8,0:0:0:0:
106,279,74483,1,0,0:0:0:0:
106,279,74592,1,0,0:0:0:0:
106,279,74700,1,8,0:0:0:0:
106,278,74918,1,0,0:0:0:0:
103,56,75135,1,12,0:0:0:0:
103,56,75352,1,12,0:0:0:0:
99,276,75570,1,0,0:0:0:0:
99,276,76005,1,0,0:0:0:0:
99,276,76222,1,8,0:0:0:0:
99,276,76331,1,8,0:0:0:0:
99,276,76439,1,0,0:0:0:0:
99,276,76657,1,8,0:0:0:0:
99,276,76874,1,0,0:0:0:0:
99,276,76983,1,0,0:0:0:0:
99,276,77092,1,8,0:0:0:0:
95,31,77309,1,12,0:0:0:0:
98,251,77744,1,0,0:0:0:0:
96,260,77961,1,8,0:0:0:0:
99,269,78179,1,8,0:0:0:0:
99,269,78287,1,8,0:0:0:0:
99,269,78396,1,0,0:0:0:0:
99,292,78613,1,0,0:0:0:0:
78,49,78831,1,12,0:0:0:0:
78,49,79048,1,4,0:0:0:0:
92,11,79483,1,4,0:0:0:0:
91,309,79700,1,8,0:0:0:0:
91,1,79918,1,4,0:0:0:0:
84,51,80352,1,12,0:0:0:0:
84,51,80787,1,4,0:0:0:0:
84,51,81222,1,12,0:0:0:0:
84,51,81657,1,4,0:0:0:0:
84,51,82092,1,12,0:0:0:0:
84,51,82526,1,12,0:0:0:0:
84,51,82961,1,4,0:0:0:0:
84,51,83396,1,4,0:0:0:0:
88,294,83831,1,8,0:0:0:0:
97,290,84048,1,0,0:0:0:0:
111,272,84157,1,0,0:0:0:0:
108,273,84265,1,0,0:0:0:0:
108,273,84374,1,0,0:0:0:0:
106,18,84483,1,12,0:0:0:0:
102,274,84700,1,0,0:0:0:0:
107,269,84809,1,0,0:0:0:0:
112,32,84918,1,12,0:0:0:0:
126,17,85135,1,4,0:0:0:0:
122,60,85352,1,12,0:0:0:0:
122,60,85570,1,4,0:0:0:0:
116,78,85787,1,12,0:0:0:0:
116,78,86005,1,4,0:0:0:0:
116,78,86222,1,12,0:0:0:0:
116,78,86439,1,4,0:0:0:0:
116,78,86657,1,12,0:0:0:0:
116,78,86874,1,4,0:0:0:0:
116,78,87092,1,12,0:0:0:0:
128,77,87309,1,12,0:0:0:0:
121,81,87961,1,4,0:0:0:0:
256,192,88179,12,0,89048,0:0:0:0:
