osu file format v14

[General]
AudioFilename: audio.mp3
AudioLeadIn: 0
PreviewTime: 679
Countdown: 0
SampleSet: Normal
StackLeniency: 0.7
Mode: 1
LetterboxInBreaks: 0
WidescreenStoryboard: 1

[Editor]
Bookmarks: 21874,58179,87961
DistanceSpacing: 0.8
BeatDivisor: 4
GridSize: 32
TimelineZoom: 2.500001

[Metadata]
Title:DADDY ! DADDY ! DO ! feat. Suzuki Airi (TV Size)
TitleUnicode:DADDY ! DADDY ! DO ! feat. 鈴木愛理 (TV Size)
Artist:Suzuki Masayuki
ArtistUnicode:鈴木雅之
Creator:radar
Version:Idealism's Futsuu !
Source:Kaguya-sama: Love Is War?
Tags:ultima fox idealism wants to be confessed to?: the geniuses' war of love and brains かぐや様は告らせたい?~天才たちの恋愛頭脳戦~ kaguya-sama wa kokurasetai? tensai-tachi no renai zunosen zunousen japanese groovy anime opening op season 2 水野良樹 本間昭光 mizuno yoshiki honma akimitsu j-pop pop
BeatmapID:2422426
BeatmapSetID:1161128

[Difficulty]
HPDrainRate:7
CircleSize:5
OverallDifficulty:4
ApproachRate:5
SliderMultiplier:1.4
SliderTickRate:1

[Events]
//Background and Video events
0,0,"fattestchika.jpg",0,0
//Break Periods
//Storyboard Layer 0 (Background)
//Storyboard Layer 1 (Fail)
//Storyboard Layer 2 (Pass)
//Storyboard Layer 3 (Foreground)
//Storyboard Layer 4 (Overlay)
//Storyboard Sound Samples

[TimingPoints]
-734,434.782608695652,4,1,0,75,1,0
2526,-100,4,1,0,75,0,1
14918,-100,4,1,0,75,0,0
58179,-100,4,1,0,75,0,1
70352,-100,4,1,0,75,0,0
72092,-100,4,1,0,75,0,1
87961,-100,4,1,0,75,0,0

[HitObjects]
238,177,787,5,4,0:0:0:0:
238,177,1657,1,12,0:0:0:0:
238,177,2526,1,4,0:0:0:0:
248,183,2961,1,0,0:0:0:0:
238,177,3179,1,8,0:0:0:0:
242,180,3396,1,8,0:0:0:0:
238,177,3613,1,0,0:0:0:0:
238,177,4265,1,0,0:0:0:0:
248,183,4700,1,0,0:0:0:0:
238,177,4918,1,8,0:0:0:0:
238,177,5352,1,0,0:0:0:0:
248,178,5787,1,8,0:0:0:0:
238,177,6005,1,0,0:0:0:0:
238,177,6657,1,8,0:0:0:0:
238,177,7092,1,8,0:0:0:0:
238,177,7309,1,0,0:0:0:0:
248,183,7526,1,0,0:0:0:0:
238,177,7744,1,8,0:0:0:0:
238,177,8613,1,0,0:0:0:0:
231,212,8831,1,8,0:0:0:0:
224,188,9265,1,8,0:0:0:0:
238,177,9483,1,8,0:0:0:0:
229,173,9918,1,0,0:0:0:0:
209,177,10135,1,0,0:0:0:0:
246,180,10352,1,8,0:0:0:0:
245,176,10787,1,4,0:0:0:0:
246,180,11222,1,12,0:0:0:0:
245,176,11657,1,4,0:0:0:0:
246,180,12092,1,12,0:0:0:0:
246,185,12526,1,4,0:0:0:0:
247,187,12961,1,12,0:0:0:0:
246,185,13396,1,4,0:0:0:0:
247,187,13831,1,4,0:0:0:0:
246,191,14265,1,8,0:0:0:0:
247,187,14483,1,8,0:0:0:0:
246,191,14918,1,4,0:0:0:0:
241,189,15352,1,12,0:0:0:0:
241,189,15787,1,12,0:0:0:0:
241,189,16439,1,0,0:0:0:0:
238,189,17092,1,12,0:0:0:0:
238,189,17526,1,12,0:0:0:0:
244,187,18179,1,0,0:0:0:0:
244,187,18831,1,12,0:0:0:0:
244,187,19265,1,12,0:0:0:0:
244,187,19918,1,0,0:0:0:0:
244,185,21222,1,0,0:0:0:0:
244,185,21439,1,0,0:0:0:0:
244,185,21874,1,12,0:0:0:0:
244,185,22309,1,8,0:0:0:0:
244,185,22961,1,0,0:0:0:0:
244,185,23179,1,8,0:0:0:0:
239,187,23613,1,8,0:0:0:0:
239,187,23939,1,0,0:0:0:0:
239,187,24265,1,8,0:0:0:0:
239,187,24918,1,8,0:0:0:0:
239,187,25352,1,0,0:0:0:0:
239,187,25787,1,8,0:0:0:0:
239,187,26222,1,0,0:0:0:0:
239,187,26874,1,8,0:0:0:0:
239,187,27309,1,8,0:0:0:0:
235,189,27526,1,0,0:0:0:0:
234,189,27961,1,8,0:0:0:0:
234,189,28831,1,4,0:0:0:0:
235,195,29265,1,8,0:0:0:0:
235,195,29918,1,0,0:0:0:0:
239,190,30135,1,0,0:0:0:0:
237,199,30570,1,0,0:0:0:0:
235,199,30896,1,0,0:0:0:0:
235,199,31222,1,8,0:0:0:0:
235,199,31657,1,0,0:0:0:0:
235,199,31874,1,8,0:0:0:0:
235,199,32309,1,8,0:0:0:0:
229,191,32744,1,0,0:0:0:0:
230,191,33179,1,8,0:0:0:0:
229,191,33396,1,8,0:0:0:0:
230,191,33831,1,0,0:0:0:0:
230,191,34483,1,8,0:0:0:0:
230,191,34918,1,0,0:0:0:0:
225,189,35787,1,12,0:0:0:0:
225,189,36222,1,0,0:0:0:0:
225,189,36874,1,8,0:0:0:0:
225,189,37092,1,0,0:0:0:0:
225,189,37526,1,0,0:0:0:0:
231,184,37961,1,8,0:0:0:0:
231,184,38613,1,0,0:0:0:0:
231,184,38831,1,8,0:0:0:0:
236,175,39265,1,8,0:0:0:0:
234,175,39592,1,0,0:0:0:0:
233,179,40352,1,8,0:0:0:0:
233,179,40570,1,0,0:0:0:0:
233,179,41005,1,8,0:0:0:0:
229,188,41331,1,0,0:0:0:0:
231,179,42309,1,8,0:0:0:0:
231,179,42744,1,0,0:0:0:0:
229,171,42961,1,8,0:0:0:0:
220,156,43396,1,8,0:0:0:0:
223,162,44048,1,0,0:0:0:0:
223,162,44483,1,0,0:0:0:0:
223,162,44700,1,0,0:0:0:0:
223,162,45135,1,8,0:0:0:0:
223,162,45787,1,0,0:0:0:0:
228,159,46657,1,8,0:0:0:0:
228,159,46874,1,0,0:0:0:0:
228,159,47309,1,8,0:0:0:0:
228,159,47744,1,0,0:0:0:0:
228,159,48179,1,0,0:0:0:0:
228,159,48613,1,8,0:0:0:0:
228,159,49048,1,8,0:0:0:0:
228,159,49483,1,8,0:0:0:0:
228,159,49700,1,0,0:0:0:0:
228,159,49918,1,8,0:0:0:0:
226,154,50352,1,0,0:0:0:0:
228,159,51005,1,0,0:0:0:0:
228,159,51439,1,8,0:0:0:0:
228,159,51657,1,8,0:0:0:0:
228,159,52092,1,8,0:0:0:0:
228,159,52744,1,0,0:0:0:0:
228,159,53179,1,12,0:0:0:0:
228,159,53831,1,4,0:0:0:0:
238,162,54265,1,4,0:0:0:0:
234,157,54700,1,4,0:0:0:0:
256,192,55135,12,0,56222,0:0:0:0:
242,165,56439,5,4,0:0:0:0:
242,165,57309,1,12,0:0:0:0:
242,165,58179,1,4,0:0:0:0:
242,165,58613,1,0,0:0:0:0:
238,177,58831,1,8,0:0:0:0:
242,165,59048,1,8,0:0:0:0:
238,177,59265,1,0,0:0:0:0:
238,177,59917,1,0,0:0:0:0:
238,177,60352,1,0,0:0:0:0:
238,177,60570,1,8,0:0:0:0:
238,177,61004,1,0,0:0:0:0:
241,165,61439,1,8,0:0:0:0:
238,177,61657,1,0,0:0:0:0:
229,173,62092,1,8,0:0:0:0:
229,173,62309,1,0,0:0:0:0:
241,165,62526,1,0,0:0:0:0:
238,177,62744,1,8,0:0:0:0:
238,177,63396,1,8,0:0:0:0:
230,189,64048,1,0,0:0:0:0:
216,177,64265,1,0,0:0:0:0:
238,177,64483,1,8,0:0:0:0:
236,176,64918,1,8,0:0:0:0:
238,177,65135,1,8,0:0:0:0:
242,175,65787,1,0,0:0:0:0:
246,180,66004,1,8,0:0:0:0:
245,176,66439,1,8,0:0:0:0:
245,176,66657,1,0,0:0:0:0:
246,180,66874,1,8,0:0:0:0:
252,188,67309,1,8,0:0:0:0:
254,177,67526,1,8,0:0:0:0:
254,177,67744,1,0,0:0:0:0:
253,168,68613,1,8,0:0:0:0:
243,166,69265,1,8,0:0:0:0:
243,166,69700,1,0,0:0:0:0:
243,166,69918,1,8,0:0:0:0:
243,166,70135,1,0,0:0:0:0:
243,167,70352,1,12,0:0:0:0:
243,167,71222,1,12,0:0:0:0:
235,156,72092,1,4,0:0:0:0:
251,163,72526,1,8,0:0:0:0:
238,177,72744,1,8,0:0:0:0:
251,161,72961,1,0,0:0:0:0:
238,177,73178,1,0,0:0:0:0:
238,177,73830,1,0,0:0:0:0:
251,162,74265,1,0,0:0:0:0:
238,177,74483,1,8,0:0:0:0:
238,177,74917,1,0,0:0:0:0:
252,163,75352,1,8,0:0:0:0:
238,177,75570,1,0,0:0:0:0:
252,163,76005,1,0,0:0:0:0:
238,177,76222,1,8,0:0:0:0:
247,163,76439,1,0,0:0:0:0:
238,177,76657,1,8,0:0:0:0:
238,177,77309,1,8,0:0:0:0:
230,175,77961,1,0,0:0:0:0:
245,164,78179,1,0,0:0:0:0:
230,175,78396,1,8,0:0:0:0:
232,183,78831,1,8,0:0:0:0:
238,177,79048,1,8,0:0:0:0:
244,175,79700,1,0,0:0:0:0:
246,180,79917,1,8,0:0:0:0:
245,176,80352,1,4,0:0:0:0:
246,180,80787,1,12,0:0:0:0:
245,176,81222,1,4,0:0:0:0:
246,180,81657,1,12,0:0:0:0:
246,185,82091,1,4,0:0:0:0:
247,187,82526,1,12,0:0:0:0:
246,185,82961,1,4,0:0:0:0:
247,187,83396,1,4,0:0:0:0:
246,191,83830,1,8,0:0:0:0:
247,187,84048,1,8,0:0:0:0:
246,191,84483,1,4,0:0:0:0:
252,194,85135,1,12,0:0:0:0:
252,194,85570,1,4,0:0:0:0:
252,194,86005,1,12,0:0:0:0:
259,188,86439,1,4,0:0:0:0:
259,188,86874,1,12,0:0:0:0:
259,188,87309,1,12,0:0:0:0:
251,184,87961,1,4,0:0:0:0:
