osu file format v14

[General]
AudioFilename: audio.mp3
AudioLeadIn: 0
PreviewTime: 57694
Countdown: 0
SampleSet: Soft
StackLeniency: 0.7
Mode: 0
LetterboxInBreaks: 0
WidescreenStoryboard: 1

[Editor]
Bookmarks: 14868,21824,35737,49650,58346,72259
DistanceSpacing: 1
BeatDivisor: 4
GridSize: 8
TimelineZoom: 2.1

[Metadata]
Title:DADDY ! DADDY ! DO ! feat. Suzuki Airi (TV Size)
TitleUnicode:DADDY ! DADDY ! DO ! feat. 鈴木愛理 (TV Size)
Artist:Suzuki Masayuki
ArtistUnicode:鈴木雅之
Creator:hypercyte
Version:Yahuri-sama's Normal?
Source:Kaguya-sama: Love Is War?
Tags:hypercute wants to be confessed to?: the geniuses' war of love and brains かぐや様は告らせたい?~天才たちの恋愛頭脳戦~ yahuri fixxis black man black_man kaguya-sama wa kokurasetai? tensai-tachi no renai zunosen japanese groovy alternator anime opening op season 2 水野良樹 本間昭光 mizuno yoshiki honma akimitsu
BeatmapID:2397875
BeatmapSetID:1147361

[Difficulty]
HPDrainRate:3
CircleSize:3
OverallDifficulty:4
ApproachRate:5
SliderMultiplier:1.1
SliderTickRate:1

[Events]
//Background and Video events
Video,318,"kaguya daddy 24 rf 2.mp4"
0,0,"guyagun flip.jpg",0,0
//Break Periods
//Storyboard Layer 0 (Background)
//Storyboard Layer 1 (Fail)
//Storyboard Layer 2 (Pass)
//Storyboard Layer 3 (Foreground)
//Storyboard Layer 4 (Overlay)
//Storyboard Sound Samples

[TimingPoints]
-734,434.782608695652,4,2,4,40,1,0
787,-100,4,2,4,40,0,0
1222,-100,4,2,4,50,0,0
1657,-100,4,2,4,60,0,0
2526,-100,4,2,4,70,0,0
3831,-100,4,2,44,70,0,0
4265,-100,4,2,4,70,0,0
5570,-100,4,2,44,70,0,0
6004,-100,4,2,4,70,0,0
9265,-100,4,2,44,70,0,0
9374,-100,4,2,4,70,0,0
14918,-100,4,2,4,60,0,0
16222,-100,4,2,44,60,0,0
16331,-100,4,2,4,60,0,0
17961,-100,4,2,44,60,0,0
18070,-100,4,2,4,60,0,0
19700,-100,4,2,44,60,0,0
19809,-100,4,2,4,60,0,0
21222,-100,4,2,44,60,0,0
21874,-100,4,2,4,50,0,0
23613,-100,4,2,4,50,0,0
35787,-100,4,2,4,45,0,0
37092,-100,4,2,3,45,0,0
37200,-100,4,2,4,45,0,0
38831,-100,4,2,3,45,0,0
38939,-100,4,2,4,45,0,0
40570,-100,4,2,3,45,0,0
40679,-100,4,2,4,45,0,0
42309,-100,4,2,3,45,0,0
42418,-100,4,2,4,45,0,0
44048,-100,4,2,3,45,0,0
44157,-100,4,2,4,45,0,0
45135,-100,4,2,4,45,0,0
45787,-100,4,2,3,45,0,0
45896,-100,4,2,4,45,0,0
47526,-100,4,2,3,45,0,0
47635,-100,4,2,4,45,0,0
49265,-100,4,2,3,45,0,0
49700,-100,4,2,3,55,0,0
54918,-100,4,2,4,45,0,0
56874,-100,4,2,4,55,0,0
57309,-100,4,2,4,65,0,0
58179,-100,4,2,4,75,0,1
59483,-100,4,2,44,75,0,1
59918,-100,4,2,4,75,0,1
61222,-100,4,2,44,75,0,1
61657,-100,4,2,4,75,0,1
64918,-100,4,2,44,75,0,1
65026,-100,4,2,4,75,0,1
65135,-100,4,2,4,60,0,1
70352,-100,4,2,4,50,0,1
70787,-100,4,2,4,60,0,1
71222,-100,4,2,4,70,0,1
71983,-100,4,2,4,70,0,0
72092,-100,4,2,4,75,0,1
73396,-100,4,2,44,75,0,1
73831,-100,4,2,4,75,0,1
75135,-100,4,2,44,75,0,1
75570,-100,4,2,4,75,0,1
78831,-100,4,2,44,75,0,1
78939,-100,4,2,4,75,0,1
79048,-100,4,2,4,60,0,1
80787,-100,4,2,4,60,0,1
84483,-100,4,2,44,60,0,0
88396,-100,4,2,44,40,0,0
88505,-100,4,2,44,20,0,0
88613,-100,4,2,44,10,0,0
88722,-100,4,2,44,5,0,0

[Colours]
Combo1 : 189,165,218
Combo2 : 243,176,253
Combo3 : 242,142,157

[HitObjects]
153,122,787,5,8,0:0:0:0:
228,203,1222,1,8,0:0:0:0:
303,284,1657,2,0,P|356:296|410:283,1,110,8|8,0:0|0:3,0:0:0:0:
452,248,2309,1,8,0:1:0:0:
481,201,2526,6,0,B|459:150|459:150|470:96,1,110,14|0,0:0|0:0,0:0:0:0:
452,44,3179,1,10,0:1:0:0:
354,94,3613,1,8,0:0:0:0:
303,70,3831,2,0,L|243:75,1,55,10|10,0:0|0:1,0:0:0:0:
207,111,4265,6,0,B|196:165|196:165|218:216,1,110,14|0,0:0|0:0,0:0:0:0:
241,266,4918,1,10,0:1:0:0:
187,362,5352,1,8,0:0:0:0:
140,331,5570,2,0,L|80:336,1,55,10|10,0:0|0:1,0:0:0:0:
47,294,6005,6,0,P|59:241|46:187,1,110,10|8,0:0|0:0,0:0:0:0:
21,138,6657,1,10,0:1:0:0:
56,33,7092,2,0,L|-4:28,2,55,8|8|8,0:0|0:0|0:1,0:0:0:0:
97,68,7744,2,0,L|217:58,1,110,10|8,0:0|0:0,0:0:0:0:
247,22,8396,1,8,0:1:0:0:
329,94,8831,1,8,0:0:0:0:
310,145,9048,6,0,P|306:170|313:206,1,55,8|8,0:0|0:1,0:0:0:0:
333,249,9483,1,10,0:0:0:0:
440,224,9918,2,0,P|444:249|437:285,1,55,8|8,0:0|0:1,0:0:0:0:
417,328,10353,1,2,0:0:0:0:
311,358,10787,6,0,B|256:345|256:345|205:365,1,110,10|8,0:0|0:0,0:0:0:0:
141,275,11657,2,0,B|179:234|179:234|187:180,1,110,10|8,0:0|0:0,0:0:0:0:
297,171,12526,2,0,B|314:223|314:223|359:256,1,110,10|8,0:0|0:0,0:0:0:0:
455,308,13396,6,0,P|467:255|454:201,2,110,10|8|8,0:0|0:1|0:0,0:0:0:0:
414,345,14483,2,0,L|354:350,1,55,8|8,0:1|0:0,0:0:0:0:
307,370,14918,5,4,0:0:0:0:
257,272,15352,1,10,0:1:0:0:
206,174,15787,1,10,0:0:0:0:
206,174,16005,2,0,L|211:114,1,55,8|10,0:0|0:1,0:0:0:0:
176,76,16439,6,0,P|124:59|69:67,1,110,8|8,0:0|0:0,0:0:0:0:
30,105,17092,1,10,0:1:0:0:
63,214,17526,1,10,0:0:0:0:
63,214,17744,2,0,L|58:274,1,55,8|10,0:0|0:1,0:0:0:0:
91,313,18179,6,0,P|142:329|197:321,1,110,8|8,0:0|0:0,0:0:0:0:
239,286,18831,1,10,0:1:0:0:
342,337,19265,1,10,0:0:0:0:
342,337,19483,2,0,L|402:342,1,55,8|10,0:0|0:1,0:0:0:0:
445,316,19918,6,0,B|464:266|464:266|451:211,1,110,8|8,0:0|0:0,0:0:0:0:
436,158,20570,1,8,0:1:0:0:
420,104,20787,2,0,B|370:84|370:84|315:97,1,110,8|10,0:0|0:0,0:0:0:0:
263,77,21439,1,10,0:1:0:0:
182,152,21874,5,6,0:0:0:0:
182,152,22092,2,0,L|177:212,1,55,0|8,0:0|0:1,0:0:0:0:
165,316,22744,1,8,0:0:0:0:
57,292,23179,1,8,0:1:0:0:
57,292,23396,1,8,0:0:0:0:
57,292,23613,6,0,L|49:199,2,82.5,10|10|10,0:0|0:0|0:0,0:0:0:0:
165,316,24700,1,8,0:0:0:0:
165,316,24918,2,0,L|225:311,1,55,8|0,0:1|0:1,0:0:0:0:
262,276,25352,6,0,P|315:268|367:286,1,110,10|8,0:0|0:1,0:0:0:0:
459,348,26222,2,0,P|476:295|467:241,1,110,8|8,0:0|0:1,0:0:0:0:
432,199,26874,2,0,L|422:79,1,110,10|8,0:0|0:0,0:0:0:0:
444,38,27526,1,8,0:1:0:0:
340,0,27961,1,8,0:0:0:0:
255,70,28396,2,0,L|260:130,1,55,8|8,0:1|0:0,0:0:0:0:
294,167,28831,5,14,0:0:0:0:
294,167,29048,2,0,L|289:227,1,55,0|8,0:0|0:1,0:0:0:0:
251,325,29700,1,8,0:0:0:0:
152,306,30135,1,8,0:1:0:0:
152,306,30352,1,8,0:0:0:0:
152,306,30570,6,0,P|111:315|59:314,2,82.5,10|10|10,0:0|0:0|0:0,0:0:0:0:
226,225,31657,1,8,0:0:0:0:
226,225,31875,2,0,L|221:165,1,55,8|0,0:1|0:1,0:0:0:0:
189,125,32309,6,0,L|199:5,1,110,10|8,0:0|0:1,0:0:0:0:
300,57,33179,2,0,L|295:111,2,55,0|8|8,0:0|0:0|0:1,0:0:0:0:
338,17,33831,2,0,P|391:8|443:25,1,110,10|8,0:0|0:0,0:0:0:0:
480,67,34483,1,8,0:1:0:0:
455,177,34917,1,8,0:0:0:0:
455,177,35135,2,0,L|460:237,1,55,8|8,0:3|0:3,0:0:0:0:
404,327,35787,5,14,0:0:0:0:
404,327,36005,2,0,L|344:322,1,55,0|8,0:0|0:1,0:0:0:0:
305,288,36439,2,0,P|252:279|200:296,1,110,8|8,0:0|0:0,0:0:0:0:
163,338,37092,1,10,0:1:0:0:
74,273,37526,5,10,0:0:0:0:
74,273,37744,2,0,L|69:213,1,55,0|8,0:0|0:1,0:0:0:0:
35,174,38178,2,0,P|26:121|43:69,1,110,8|8,0:0|0:0,0:0:0:0:
85,32,38831,1,10,0:1:0:0:
183,79,39265,5,10,0:0:0:0:
183,79,39483,2,0,L|243:74,1,55,0|8,0:0|0:1,0:0:0:0:
282,40,39918,2,0,L|402:50,1,110,8|8,0:0|0:0,0:0:0:0:
429,89,40570,1,10,0:1:0:0:
467,192,41005,6,0,P|414:183|362:200,1,110,10|8,0:0|0:1,0:0:0:0:
329,244,41657,2,0,P|276:235|224:252,1,110,8|8,0:0|0:0,0:0:0:0:
186,293,42309,1,10,0:1:0:0:
105,367,42744,5,14,0:0:0:0:
105,367,42962,2,0,L|45:362,1,55,0|8,0:0|0:1,0:0:0:0:
11,323,43396,2,0,P|2:270|19:218,1,110,8|8,0:0|0:0,0:0:0:0:
58,179,44048,1,10,0:1:0:0:
162,138,44483,5,10,0:0:0:0:
162,138,44701,2,0,L|167:198,1,55,0|8,0:0|0:1,0:0:0:0:
206,232,45135,2,0,P|259:241|311:224,1,110,8|8,0:0|0:0,0:0:0:0:
350,185,45787,1,10,0:1:0:0:
413,95,46222,6,0,L|293:85,1,110,12|8,0:0|0:1,0:0:0:0:
260,52,46874,2,0,L|140:62,1,110,8|0,0:0|0:0,0:0:0:0:
114,103,47526,1,10,0:1:0:0:
114,103,47744,2,0,P|123:156|106:208,1,110,8|8,0:0|0:0,0:0:0:0:
45,301,48613,2,0,P|97:318|151:309,1,110,0|8,0:0|0:0,0:0:0:0:
198,281,49265,1,10,0:1:0:0:
302,315,49700,6,0,P|295:341|296:368,2,55,14|0|10,0:0|0:0|0:1,0:0:0:0:
334,271,50352,1,10,0:0:0:0:
293,169,50787,2,0,L|173:159,1,110,8|0,0:0|0:0,0:0:0:0:
136,131,51439,6,0,P|142:104|141:77,2,55,10|0|10,0:1|0:0|0:1,0:0:0:0:
83,147,52091,1,10,0:0:0:0:
16,234,52526,2,0,L|26:354,1,110,8|0,0:0|0:0,0:0:0:0:
64,382,53179,5,10,0:1:0:0:
64,382,53396,1,8,0:0:0:0:
159,327,53831,2,0,L|219:332,1,55,8|10,0:0|0:1,0:0:0:0:
264,352,54265,2,0,L|324:347,1,55,8|10,0:0|0:1,0:0:0:0:
361,312,54700,6,0,B|364:289|389:264|389:264|442:209|425:133|356:174|356:174|305:111|263:177|294:247,1,385,12|8,0:0|0:1,0:0:0:0:
256,287,56439,5,8,0:0:0:0:
161,230,56874,1,8,0:0:0:0:
66,173,57309,2,0,P|58:118|75:66,1,110,8|8,0:0|0:3,0:0:0:0:
119,34,57961,1,8,0:1:0:0:
174,31,58179,6,0,B|200:35|223:52|223:52|250:39|276:40,1,110,14|0,0:0|0:0,0:0:0:0:
330,53,58832,1,10,0:1:0:0:
289,155,59266,1,8,0:0:0:0:
313,206,59484,2,0,L|308:266,1,55,10|10,0:0|0:1,0:0:0:0:
338,306,59918,6,0,B|364:306|390:293|390:293|413:310|440:315,1,110,10|0,0:0|0:0,0:0:0:0:
490,289,60571,1,10,0:1:0:0:
460,183,61005,1,8,0:0:0:0:
491,136,61223,2,0,L|486:76,1,55,10|10,0:0|0:1,0:0:0:0:
448,40,61658,6,0,P|395:28|341:41,1,110,10|8,0:0|0:0,0:0:0:0:
292,66,62310,1,10,0:1:0:0:
188,102,62745,2,0,L|183:42,2,55,8|8|8,0:0|0:0|0:1,0:0:0:0:
223,143,63397,2,0,L|213:263,1,110,10|8,0:0|0:0,0:0:0:0:
177,293,64049,1,8,0:1:0:0:
68,310,64484,1,8,0:0:0:0:
50,259,64701,6,0,P|46:234|53:198,1,55,8|8,0:0|0:1,0:0:0:0:
73,155,65136,1,10,0:0:0:0:
47,48,65571,2,0,P|72:44|108:51,1,55,8|8,0:0|0:1,0:0:0:0:
151,71,66006,1,2,0:0:0:0:
258,45,66439,6,0,P|262:70|255:106,1,55,8|8,0:0|0:1,0:0:0:0:
235,149,66874,1,10,0:0:0:0:
261,256,67309,2,0,P|236:260|200:253,1,55,8|8,0:0|0:1,0:0:0:0:
157,233,67744,2,0,P|103:225|50:243,1,110,10|8,0:0|0:0,0:0:0:0:
32,294,68396,1,8,0:1:0:0:
61,340,68613,6,0,P|114:347|167:329,1,110,10|8,0:0|0:0,0:0:0:0:
186,279,69265,1,10,0:1:0:0:
292,306,69700,2,0,L|287:366,2,55,8|8|8,0:0|0:0|0:1,0:0:0:0:
325,262,70352,6,0,L|334:152,1,110,10|8,0:0|0:0,0:0:0:0:
380,121,71005,1,8,0:1:0:0:
424,152,71222,2,0,L|433:261,1,110,8|8,0:0|0:0,0:0:0:0:
458,310,71874,1,8,0:1:0:0:
440,362,72092,6,0,B|412:363|385:350|385:350|362:367|336:371,1,110,12|0,0:0|0:0,0:0:0:0:
284,351,72745,1,10,0:1:0:0:
310,244,73179,1,8,0:0:0:0:
273,202,73397,2,0,L|268:142,1,55,10|10,0:0|0:1,0:0:0:0:
230,107,73831,6,0,B|204:107|178:120|178:120|155:103|128:98,1,110,10|0,0:0|0:0,0:0:0:0:
80,127,74484,1,10,0:1:0:0:
16,216,74918,1,8,0:0:0:0:
63,247,75136,2,0,L|123:242,1,55,10|10,0:0|0:1,0:0:0:0:
164,271,75571,6,0,P|217:263|270:281,1,110,10|8,0:0|0:0,0:0:0:0:
305,323,76223,1,10,0:1:0:0:
409,287,76658,2,0,L|414:347,2,55,8|8|8,0:0|0:0|0:1,0:0:0:0:
438,240,77310,2,0,L|428:120,1,110,10|8,0:0|0:0,0:0:0:0:
455,82,77962,1,8,0:1:0:0:
365,18,78397,1,8,0:0:0:0:
314,0,78613,6,0,P|288:-1|253:8,1,55,8|8,0:0|0:1,0:0:0:0:
213,34,79048,1,10,0:0:0:0:
177,138,79483,2,0,P|202:136|237:146,1,55,8|8,0:0|0:1,0:0:0:0:
278,172,79918,1,2,0:0:0:0:
386,189,80352,6,0,B|381:215|364:237|364:237|377:265|377:293,1,110,10|8,0:0|0:0,0:0:0:0:
277,339,81222,2,0,B|256:322|245:296|245:296|215:294|191:279,1,110,10|8,0:0|0:0,0:0:0:0:
203,170,82092,2,0,B|227:160|255:163|255:163|272:138|297:125,1,110,10|8,0:0|0:0,0:0:0:0:
394,74,82961,6,0,P|405:127|393:180,2,110,10|8|8,0:0|0:1|0:0,0:0:0:0:
349,40,84048,2,0,L|289:35,1,55,8|8,0:1|0:0,0:0:0:0:
242,15,84483,6,0,P|187:7|136:24,1,110,12|10,0:0|0:1,0:0:0:0:
63,107,85352,2,0,L|3:102,2,55,10|10|10,0:1|0:0|0:1,0:0:0:0:
99,211,86222,2,0,L|39:216,2,55,10|10|10,0:1|0:0|0:1,0:0:0:0:
146,238,86874,1,10,0:0:0:0:
238,177,87309,2,0,P|292:169|343:186,1,110,14|0,0:0|0:0,0:0:0:0:
382,225,87961,6,0,P|421:299|469:221,1,192.5,10|0,0:1|0:0,0:0:0:0:
