osu file format v14

[General]
AudioFilename: audio.mp3
AudioLeadIn: 0
PreviewTime: 57694
Countdown: 0
SampleSet: Soft
StackLeniency: 0.7
Mode: 0
LetterboxInBreaks: 0
WidescreenStoryboard: 0

[Editor]
Bookmarks: 14868,21824,35737,49650,58346,72259
DistanceSpacing: 0.8
BeatDivisor: 8
GridSize: 32
TimelineZoom: 2.1

[Metadata]
Title:DADDY ! DADDY ! DO ! feat. Suzuki Airi (TV Size)
TitleUnicode:DADDY ! DADDY ! DO ! feat. 鈴木愛理 (TV Size)
Artist:Suzuki Masayuki
ArtistUnicode:鈴木雅之
Creator:hypercyte
Version:Confession?
Source:Kaguya-sama: Love Is War?
Tags:hypercute wants to be confessed to?: the geniuses' war of love and brains かぐや様は告らせたい?~天才たちの恋愛頭脳戦~ yahuri fixxis black man black_man kaguya-sama wa kokurasetai? tensai-tachi no renai zunosen japanese groovy alternator anime opening op season 2 水野良樹 本間昭光 mizuno yoshiki honma akimitsu
BeatmapID:2395803
BeatmapSetID:1147361

[Difficulty]
HPDrainRate:6
CircleSize:4.4
OverallDifficulty:8
ApproachRate:9.2
SliderMultiplier:2.6
SliderTickRate:1

[Events]
//Background and Video events
Video,318,"kaguya daddy 24 rf 2.mp4"
0,0,"guyagun flip.jpg",0,0
//Break Periods
//Storyboard Layer 0 (Background)
//Storyboard Layer 1 (Fail)
//Storyboard Layer 2 (Pass)
//Storyboard Layer 3 (Foreground)
//Storyboard Layer 4 (Overlay)
//Storyboard Sound Samples

[TimingPoints]
-734,434.782608695652,4,2,4,40,1,0
787,-227.272727272727,4,2,4,40,0,0
1113,-227.272727272727,4,2,4,5,0,0
1222,-156.25,4,2,4,50,0,0
1548,-156.25,4,2,4,5,0,0
1657,-119.047619047619,4,2,4,60,0,0
1983,-119.047619047619,4,2,4,5,0,0
2092,-119.047619047619,4,2,4,60,0,0
2200,-119.047619047619,4,2,4,5,0,0
2309,-96.1538461538461,4,2,4,60,0,0
2418,-96.1538461538461,4,2,4,5,0,0
2526,-100,4,2,4,70,0,1
2961,-133.333333333333,4,2,4,70,0,1
3179,-133.333333333333,4,2,4,70,0,1
3831,-100,4,2,44,70,0,1
4265,-133.333333333333,4,2,4,70,0,1
4700,-100,4,2,4,70,0,1
5570,-100,4,2,44,70,0,1
6004,-100,4,2,4,70,0,1
6005,-133.333333333333,4,2,4,70,0,1
7744,-100,4,2,4,70,0,1
8179,-133.333333333333,4,2,4,70,0,1
8396,-100,4,2,4,70,0,1
8613,-83.3333333333333,4,2,4,70,0,1
8831,-71.4285714285714,4,2,4,70,0,1
9265,-100,4,2,44,70,0,1
9374,-100,4,2,4,70,0,1
9918,-133.333333333333,4,2,4,70,0,1
10787,-90.9090909090909,4,2,4,70,0,1
11113,-90.9090909090909,4,2,4,5,0,1
11222,-181.818181818181,4,2,4,70,0,1
11657,-90.9090909090909,4,2,4,70,0,1
11983,-90.9090909090909,4,2,4,5,0,1
12092,-181.818181818181,4,2,4,70,0,1
12526,-83.3333333333333,4,2,4,70,0,1
12852,-83.3333333333333,4,2,4,5,0,1
12961,-133.333333333333,4,2,4,70,0,1
13287,-133.333333333333,4,2,4,5,0,1
13396,-166.666666666667,4,2,4,70,0,1
13831,-133.333333333333,4,2,4,70,0,1
14157,-133.333333333333,4,2,4,5,0,1
14265,-133.333333333333,4,2,4,70,0,1
14918,-153.846153846153,4,2,4,60,0,0
15352,-105.263157894737,4,2,4,60,0,0
16222,-105.263157894737,4,2,44,60,0,0
16331,-105.263157894737,4,2,4,60,0,0
16439,-153.846153846153,4,2,4,60,0,0
17092,-105.263157894737,4,2,4,60,0,0
17961,-105.263157894737,4,2,44,60,0,0
18070,-105.263157894737,4,2,4,60,0,0
18179,-153.846153846153,4,2,4,60,0,0
18831,-105.263157894737,4,2,4,60,0,0
19700,-105.263157894737,4,2,44,60,0,0
19809,-105.263157894737,4,2,4,60,0,0
19918,-153.846153846154,4,2,4,60,0,0
20787,-133.333333333333,4,2,4,60,0,0
21222,-153.846153846154,4,2,44,60,0,0
21439,-117.647058823529,4,2,44,60,0,0
21657,-95.2380952380952,4,2,44,60,0,0
21874,-133.333333333333,4,2,4,50,0,0
23613,-100,4,2,4,50,0,0
24700,-133.333333333333,4,2,4,50,0,0
26874,-100,4,2,4,50,0,0
27961,-111.111111111111,4,2,4,50,0,0
28831,-133.333333333333,4,2,4,50,0,0
30570,-100,4,2,4,50,0,0
31657,-133.333333333333,4,2,4,50,0,0
32092,-100,4,2,4,50,0,0
32309,-133.333333333333,4,2,4,50,0,0
32961,-100,4,2,4,50,0,0
33179,-133.333333333333,4,2,4,50,0,0
35787,-153.846153846153,4,2,4,45,0,0
37092,-153.846153846153,4,2,3,45,0,0
37200,-153.846153846153,4,2,4,45,0,0
38831,-153.846153846153,4,2,3,45,0,0
38939,-153.846153846153,4,2,4,45,0,0
40570,-153.846153846153,4,2,3,45,0,0
40679,-153.846153846153,4,2,4,45,0,0
41005,-117.647058823529,4,2,4,45,0,0
41439,-133.333333333333,4,2,4,45,0,0
41657,-117.647058823529,4,2,4,45,0,0
42309,-133.333333333333,4,2,3,45,0,0
42418,-133.333333333333,4,2,4,45,0,0
43396,-117.647058823529,4,2,4,45,0,0
43831,-133.333333333333,4,2,4,45,0,0
44048,-133.333333333333,4,2,3,45,0,0
44157,-133.333333333333,4,2,4,45,0,0
45135,-117.647058823529,4,2,4,45,0,0
45787,-117.647058823529,4,2,3,45,0,0
45896,-117.647058823529,4,2,4,45,0,0
46222,-153.846153846153,4,2,4,45,0,0
47526,-153.846153846153,4,2,3,45,0,0
47635,-153.846153846153,4,2,4,45,0,0
47744,-133.333333333333,4,2,4,45,0,0
48179,-153.846153846153,4,2,4,45,0,0
48613,-181.818181818181,4,2,4,45,0,0
49048,-227.272727272727,4,2,4,45,0,0
49483,-133.333333333333,4,2,4,45,0,0
49700,-100,4,2,3,55,0,0
49809,-100,4,2,3,5,0,0
49918,-100,4,2,3,55,0,0
50026,-100,4,2,3,5,0,0
50135,-100,4,2,3,55,0,0
50244,-100,4,2,3,5,0,0
50352,-100,4,2,3,55,0,0
50461,-100,4,2,3,5,0,0
50570,-100,4,2,3,55,0,0
50787,-153.846153846153,4,2,3,55,0,0
51385,-153.846153846153,4,2,3,5,0,0
51439,-100,4,2,3,55,0,0
51548,-100,4,2,3,5,0,0
51657,-100,4,2,3,55,0,0
51765,-100,4,2,3,5,0,0
51874,-100,4,2,3,55,0,0
51983,-100,4,2,3,5,0,0
52092,-100,4,2,3,55,0,0
52200,-100,4,2,3,5,0,0
52309,-100,4,2,3,55,0,0
52526,-153.846153846153,4,2,3,55,0,0
53124,-153.846153846153,4,2,3,5,0,0
53179,-100,4,2,3,55,0,0
54700,-227.272727272727,4,2,3,55,0,0
54918,-227.272727272727,4,2,4,45,0,0
55679,-227.272727272727,4,2,4,5,0,0
55787,-135.135135135135,4,2,4,45,0,0
56439,-133.333333333334,4,2,4,45,0,0
56765,-133.333333333334,4,2,4,5,0,0
56874,-117.647058823529,4,2,4,55,0,0
57200,-117.647058823529,4,2,4,5,0,0
57309,-90.9090909090909,4,2,4,65,0,0
57635,-90.9090909090909,4,2,4,5,0,0
57744,-90.9090909090909,4,2,4,65,0,0
57852,-90.9090909090909,4,2,4,5,0,0
57961,-76.9230769230769,4,2,4,65,0,0
58070,-76.9230769230769,4,2,4,5,0,0
58179,-90.9090909090909,4,2,4,75,0,1
58613,-133.333333333333,4,2,4,75,0,1
59483,-100,4,2,44,75,0,1
59918,-133.333333333333,4,2,4,75,0,1
60570,-111.111111111111,4,2,4,75,0,1
61222,-100,4,2,44,75,0,1
61657,-133.333333333333,4,2,4,75,0,1
62744,-111.111111111111,4,2,4,75,0,1
63396,-90.9090909090909,4,2,4,75,0,1
63831,-133.333333333333,4,2,4,75,0,1
64048,-100,4,2,4,75,0,1
64265,-83.3333333333333,4,2,4,75,0,1
64483,-111.111111111111,4,2,4,75,0,1
64918,-111.111111111111,4,2,44,75,0,1
65026,-111.111111111111,4,2,4,75,0,1
65135,-100,4,2,4,60,0,1
65570,-133.333333333333,4,2,4,60,0,1
66874,-100,4,2,4,60,0,1
67309,-133.333333333333,4,2,4,60,0,1
67744,-100,4,2,4,60,0,1
68179,-125,4,2,4,60,0,1
68613,-100,4,2,4,60,0,1
69048,-133.333333333333,4,2,4,60,0,1
69700,-100,4,2,4,60,0,1
70352,-117.647058823529,4,2,4,50,0,1
70679,-117.647058823529,4,2,4,5,0,1
70787,-105.263157894737,4,2,4,60,0,1
71113,-105.263157894737,4,2,4,5,0,1
71222,-86.9565217391304,4,2,4,70,0,1
71548,-86.9565217391304,4,2,4,5,0,1
71657,-100,4,2,4,70,0,1
71765,-100,4,2,4,5,0,1
71874,-83.3333333333333,4,2,4,70,0,1
71983,-83.3333333333333,4,2,4,5,0,0
72092,-90.9090909090909,4,2,4,75,0,1
72526,-117.096018735363,4,2,4,75,0,1
73179,-90.9090909090909,4,2,4,75,0,1
73396,-90.9090909090909,4,2,44,75,0,1
73831,-117.647058823529,4,2,4,75,0,1
74265,-105.263157894737,4,2,4,75,0,1
74918,-100,4,2,4,75,0,1
75135,-100,4,2,44,75,0,1
75570,-117.647058823529,4,2,4,75,0,1
77309,-90.9090909090909,4,2,4,75,0,1
78179,-133.333333333333,4,2,4,75,0,1
78396,-100,4,2,4,75,0,1
78831,-100,4,2,44,75,0,1
78939,-100,4,2,4,75,0,1
79048,-90.9090909090909,4,2,4,60,0,1
79483,-111.111111111111,4,2,4,60,0,1
80135,-185.185185185185,4,2,4,60,0,1
80352,-100,4,2,4,60,0,1
80679,-100,4,2,4,5,0,1
80787,-100,4,2,4,60,0,1
80896,-100,4,2,4,5,0,1
81005,-100,4,2,4,60,0,1
81548,-100,4,2,4,5,0,1
81657,-100,4,2,4,60,0,1
81765,-100,4,2,4,5,0,1
81874,-100,4,2,4,60,0,1
82418,-100,4,2,4,5,0,1
82526,-133.333333333333,4,2,4,60,0,1
82852,-133.333333333333,4,2,4,5,0,1
82961,-153.846153846153,4,2,44,60,0,1
83070,-153.846153846153,4,2,4,60,0,1
83287,-153.846153846153,4,2,4,5,0,1
83396,-181.818181818182,4,2,4,60,0,1
83831,-133.333333333333,4,2,4,60,0,1
84483,-90.9090909090909,4,2,44,60,0,0
87309,-227.272727272727,4,2,44,60,0,0
87907,-227.272727272727,4,2,44,5,0,0
87961,-166.666666666667,4,2,44,60,0,0
88722,-166.666666666667,4,2,44,5,0,0

[Colours]
Combo1 : 189,165,218
Combo2 : 243,176,253
Combo3 : 242,142,157

[HitObjects]
264,260,787,6,0,P|217:246|216:196,1,85.8000026184083,8|0,0:0|0:0,0:0:0:0:
289,260,1222,2,0,B|308:279|307:301|307:301|258:394,1,124.8,8|0,0:0|0:0,0:0:0:0:
296,168,1657,2,0,B|308:129|351:124|373:148|423:130|421:70,1,163.799995001221,8|0,0:0|0:0,0:0:0:0:
420,85,2092,6,0,P|408:112|433:144,1,54.5999983337403,8|0,0:3|0:0,0:0:0:0:
240,0,2309,2,0,P|265:28|268:72,1,67.5999995874024,8|0,0:1|0:0,0:0:0:0:
176,259,2526,6,0,B|125:286|83:245|108:220|84:169|23:180,1,195,14|0,0:0|0:0,0:0:0:0:
23,179,2961,2,0,P|49:213|79:213,1,48.750001859665,8|0,0:0|0:0,0:0:0:0:
236,188,3179,2,0,P|273:251|256:296,1,97.50000371933,10|0,0:1|0:0,0:0:0:0:
97,49,3613,1,10,0:0:0:0:
114,57,3831,6,0,B|142:36|142:36|196:49,1,65,10|0,0:1|0:0,0:0:0:0:
193,115,4048,2,0,B|165:136|165:136|111:123,1,65,10|0,0:1|0:0,0:0:0:0:
314,57,4265,6,0,B|357:42|386:83|368:101|400:137|441:118,1,146.250005578995,10|0,0:0|0:0,0:0:0:0:
430,122,4700,2,0,P|457:88|445:58,1,65,8|0,0:0|0:0,0:0:0:0:
382,272,4918,1,10,0:1:0:0:
292,188,5135,1,0,0:0:0:0:
130,348,5352,1,10,0:0:0:0:
118,338,5570,6,0,B|95:315|95:315|118:278,1,65,10|0,0:0|0:0,0:0:0:0:
198,279,5787,2,0,B|221:302|221:302|198:339,1,65,10|0,0:1|0:0,0:0:0:0:
132,171,6005,6,0,P|138:98|186:24,1,146.250005578995,10|0,0:0|0:0,0:0:0:0:
173,35,6439,2,0,P|184:76|180:88,1,48.750001859665,8|0,0:0|0:0,0:0:0:0:
340,273,6657,1,10,0:1:0:0:
437,219,6874,5,2,0:3:0:0:
437,219,6983,1,2,0:3:0:0:
437,219,7092,2,0,P|415:205|416:164,1,48.750001859665,10|0,0:0|0:0,0:0:0:0:
428,55,7309,2,0,P|427:80|391:100,1,48.750001859665,8|0,0:0|0:0,0:0:0:0:
286,146,7526,2,0,P|308:133|343:154,1,48.750001859665,8|0,0:1|0:0,0:0:0:0:
238,323,7744,6,0,P|195:243|89:240,1,195,10|0,0:0|0:0,0:0:0:0:
99,234,8179,2,0,P|111:269|136:283,1,48.750001859665,8|0,0:0|0:0,0:0:0:0:
257,337,8396,6,0,B|285:325|285:325|298:324|298:324|327:313,1,65,10|0,0:1|0:0,0:0:0:0:
433,260,8613,2,0,B|403:247|403:247|389:246|389:246|358:234,1,77.999997619629,2|0,0:0|0:0,0:0:0:0:
223,148,8831,2,0,B|259:132|259:132|275:131|275:131|313:117,1,90.9999972229005,10|0,0:0|0:0,0:0:0:0:
464,53,9048,1,8,0:0:0:0:
480,63,9265,2,0,B|498:96|498:96|477:138,1,65,10|0,0:1|0:0,0:0:0:0:
275,247,9483,6,0,P|155:216|73:205,1,195,10|0,0:0|0:0,0:0:0:0:
84,206,9918,2,0,P|71:247|92:263,1,48.750001859665,8|0,0:0|0:0,0:0:0:0:
2,285,10135,2,0,P|31:317|56:306,1,48.750001859665,8|0,0:1|0:0,0:0:0:0:
228,301,10352,6,0,B|269:308|269:308|327:354|327:354|373:358,1,146.250005578995,2|0,0:0|0:0,0:0:0:0:
233,318,10787,6,0,B|301:317|342:266|308:250|349:197|417:194,1,214.500006546021,10|0,0:0|0:0,0:0:0:0:
169,252,11222,2,0,B|133:260|133:260|151:293,1,71.5000021820069,10|0,0:0|0:0,0:0:0:0:
397,211,11657,6,0,B|329:210|288:159|322:143|281:90|213:87,1,214.500006546021,10|0,0:0|0:0,0:0:0:0:
461,145,12092,2,0,B|497:153|497:153|479:186,1,71.5000021820069,10|0,0:0|0:0,0:0:0:0:
230,69,12526,6,0,B|187:86|187:86|116:213|116:213|64:229,1,233.999992858887,10|0,0:0|0:0,0:0:0:0:
106,66,12961,2,0,B|140:76|140:76|175:151|175:151|213:162,1,146.250005578995,14|0,0:0|0:0,0:0:0:0:
302,173,13396,2,0,B|283:178|283:178|263:220|263:220|242:226,1,77.999997619629,10|0,0:0|0:0,0:0:0:0:
142,369,13831,6,0,P|201:341|303:333,1,146.250005578995,10|0,0:1|0:0,0:0:0:0:
281,331,14265,2,0,P|245:364|227:369,1,48.750001859665,10|0,0:0|0:0,0:0:0:0:
87,202,14483,2,0,B|94:177|94:177|111:198,1,48.750001859665,10|0,0:1|0:0,0:0:0:0:
27,281,14700,2,0,P|5:262|1:231,1,48.750001859665,2|0,0:0|0:0,0:0:0:0:
148,92,14918,6,0,B|185:92|200:120|187:143|212:167|247:167,1,126.749994197846,12|0,0:0|0:0,0:0:0:0:
254,166,15352,2,0,P|270:107|302:36,1,123.499996702194,10|2,0:1|0:3,0:0:0:0:
415,26,15679,1,2,0:3:0:0:
373,92,15787,2,0,P|400:62|442:61,1,61.7499983510972,10|0,0:2|0:0,0:0:0:0:
508,182,16005,2,0,P|481:152|439:151,1,61.7499983510972,10|0,0:0|0:0,0:0:0:0:
359,307,16222,1,10,0:1:0:0:
346,316,16439,6,0,P|320:243|268:199,1,126.749994197846,8|0,0:0|0:0,0:0:0:0:
271,205,16874,1,8,0:0:0:0:
60,348,17092,6,0,B|108:362|143:316|127:297|149:246|212:260,1,185.249995053291,10|2,0:1|0:3,0:0:0:0:
33,282,17526,2,0,B|19:309|19:309|52:342,1,61.7499983510972,10|0,0:2|0:0,0:0:0:0:
228,323,17744,2,0,B|242:296|242:296|209:263,1,61.7499983510972,10|0,0:0|0:0,0:0:0:0:
91,109,17961,2,0,B|92:72|92:72|115:106,1,61.7499983510972,10|0,0:1|0:0,0:0:0:0:
228,159,18179,6,0,B|270:161|297:139|284:128|310:108|345:112,1,126.749994197846,8|0,0:0|0:0,0:0:0:0:
353,121,18613,1,10,0:0:0:0:
476,315,18831,6,0,P|446:236|348:234,1,185.249995053291,8|2,0:1|0:3,0:0:0:0:
348,239,19265,2,0,P|364:279|383:292,1,61.7499983510972,10|0,0:2|0:0,0:0:0:0:
503,167,19483,2,0,P|517:140|512:110,1,61.7499983510972,10|0,0:0|0:0,0:0:0:0:
401,29,19700,2,0,B|404:-5|404:-5|440:27,1,61.7499983510972,10|0,0:1|0:0,0:0:0:0:
211,263,19918,6,0,B|175:277|138:253|157:240|119:213|83:225,1,126.749994197846,8|0,0:0|0:0,0:0:0:0:
98,303,20352,2,0,B|133:317|170:293|151:280|189:253|225:265,1,126.749994197846,8|0,0:0|0:0,0:0:0:0:
267,122,20787,2,0,P|254:75|171:12,1,146.250005578995,10|0,0:0|0:0,0:0:0:0:
181,14,21222,6,0,P|195:50|213:62,1,42.2499980659486,10|0,0:0|0:0,0:0:0:0:
278,138,21439,2,0,P|308:111|333:102,1,55.2500010538101,10|0,0:1|0:0,0:0:0:0:
413,1,21657,2,0,P|452:34|470:36,1,68.2499979171754,0|0,0:0|0:0,0:0:0:0:
387,213,21874,6,0,B|349:217|326:249|349:268|327:306|286:304,1,146.250005578995,14|0,0:0|0:0,0:0:0:0:
287,304,22309,2,0,P|248:264|256:221,1,97.50000371933,8|2,0:1|0:3,0:0:0:0:
273,213,22635,1,2,0:3:0:0:
273,213,22744,1,8,0:0:0:0:
434,310,22961,5,10,0:0:0:0:
150,356,23179,1,8,0:1:0:0:
108,330,23287,1,8,0:1:0:0:
112,281,23396,1,8,0:1:0:0:
357,101,23613,6,0,B|387:82|387:82|356:213,1,130,14|0,0:0|0:0,0:0:0:0:
362,266,23939,1,10,0:0:0:0:
343,185,24048,1,8,0:1:0:0:
112,281,24265,2,0,B|167:281|187:230|163:213|189:147|259:159,1,195,10|0,0:0|0:0,0:0:0:0:
241,157,24700,5,8,0:0:0:0:
362,266,24918,1,10,0:1:0:0:
462,165,25135,5,2,0:3:0:0:
462,165,25244,1,2,0:3:0:0:
462,165,25352,2,0,P|444:92|442:6,1,146.250005578995,10|0,0:0|0:0,0:0:0:0:
440,21,25787,2,0,P|452:74|397:87,1,97.50000371933,10|2,0:1|0:3,0:0:0:0:
287,122,26113,1,2,0:3:0:0:
266,108,26222,2,0,P|263:83|280:53,1,48.750001859665,10|0,0:0|0:0,0:0:0:0:
351,181,26439,2,0,P|354:206|337:236,1,48.750001859665,8|0,0:0|0:0,0:0:0:0:
257,251,26657,1,8,0:1:0:0:
121,74,26874,6,0,B|101:148|101:148|114:188|114:188|93:262,1,195,14|0,0:0|0:0,0:0:0:0:
93,261,27309,2,0,P|61:233|73:204,1,65,8|0,0:0|0:0,0:0:0:0:
186,358,27526,2,0,P|195:332|239:311,1,65,8|0,0:1|0:0,0:0:0:0:
452,184,27744,2,0,P|448:222|430:241,1,65,8|0,0:0|0:0,0:0:0:0:
200,96,27961,5,10,0:0:0:0:
298,36,28179,1,0,0:0:0:0:
63,61,28396,2,0,B|90:65|90:65|100:70|100:70|131:75,1,58.4999982147217,10|0,0:0|0:0,0:0:0:0:
200,96,28613,2,0,B|172:100|172:100|162:105|162:105|131:110,1,58.4999982147217,8|0,0:0|0:0,0:0:0:0:
60,292,28831,6,0,P|60:250|148:216,1,146.250005578995,14|0,0:0|0:0,0:0:0:0:
49,299,29265,2,0,P|30:240|7:214,1,97.50000371933,8|8,0:1|0:0,0:0:0:0:
156,220,29592,1,8,0:0:0:0:
156,220,29700,2,0,P|180:181|191:173,1,48.750001859665,8|0,0:0|0:0,0:0:0:0:
323,252,29918,5,10,0:0:0:0:
429,132,30135,1,10,0:1:0:0:
384,110,30244,1,8,0:1:0:0:
347,141,30352,1,8,0:1:0:0:
85,93,30570,6,0,B|94:107|117:112|117:112|224:89,1,130,14|0,0:0|0:0,0:0:0:0:
287,44,30896,1,10,0:0:0:0:
236,110,31005,1,8,0:1:0:0:
366,310,31222,2,0,P|371:239|431:129,1,195,10|0,0:0|0:0,0:0:0:0:
445,130,31657,5,8,0:0:0:0:
472,263,31874,1,8,0:1:0:0:
218,226,32092,6,0,B|249:214|249:214|296:235,1,65,14|0,0:0|0:0,0:0:0:0:
356,334,32309,2,0,P|299:355|250:290,1,146.250005578995,2|0,0:0|0:0,0:0:0:0:
296,149,32744,1,10,0:1:0:0:
91,75,32961,6,0,B|76:106|76:106|105:125,1,65,12|0,0:0|0:0,0:0:0:0:
264,52,33179,2,0,P|216:61|170:77,2,97.50000371933,2|8|8,0:0|0:0|0:1,0:0:0:0:
444,242,33831,6,0,B|395:256|359:208|382:185|354:134|292:149,1,195.00000743866,10|8,0:0|0:0,0:0:0:0:
120,270,34483,2,0,P|142:255|149:225,1,48.750001859665,10|0,0:1|0:0,0:0:0:0:
81,193,34700,2,0,P|59:208|52:238,1,48.750001859665,8|0,0:0|0:0,0:0:0:0:
194,350,34918,6,0,P|252:330|302:321,1,97.50000371933,10|10,0:0|0:3,0:0:0:0:
463,206,35352,1,8,0:3:0:0:
453,168,35461,1,8,0:3:0:0:
422,143,35570,1,8,0:3:0:0:
383,137,35679,1,8,0:3:0:0:
349,156,35787,6,0,P|410:151|426:82,1,126.749994197846,14|0,0:0|0:0,0:0:0:0:
430,95,36222,2,0,P|400:78|384:84,1,42.2499980659486,8|0,0:1|0:0,0:0:0:0:
189,47,36439,1,2,0:3:0:0:
189,47,36548,1,2,0:3:0:0:
189,47,36657,2,0,P|209:78|216:100,1,42.2499980659486,8|0,0:0|0:0,0:0:0:0:
148,171,36874,5,2,0:0:0:0:
213,324,37092,1,10,0:1:0:0:
274,214,37309,1,2,0:0:0:0:
198,337,37526,6,0,B|165:341|141:317|157:301|133:270|97:274,1,126.749994197846,10|0,0:0|0:0,0:0:0:0:
98,274,37961,2,0,P|77:306|78:323,1,42.2499980659486,8|0,0:1|0:0,0:0:0:0:
299,329,38179,1,2,0:3:0:0:
299,329,38287,1,2,0:3:0:0:
299,329,38396,2,0,L|356:314,1,42.2499980659486,8|0,0:0|0:0,0:0:0:0:
421,294,38613,5,10,0:0:0:0:
263,138,38831,2,0,B|249:196|249:196|253:212|253:212|239:262,1,126.749994197846,10|0,0:1|0:0,0:0:0:0:
210,71,39265,6,0,B|268:44|268:44|324:78,1,126.749994197846,10|2,0:0|0:0,0:0:0:0:
469,254,39700,2,0,P|477:231|466:203,1,42.2499980659486,8|0,0:1|0:0,0:0:0:0:
444,126,39918,1,2,0:3:0:0:
444,126,40026,1,2,0:3:0:0:
444,126,40135,2,0,P|395:149|393:178,1,84.4999961318971,8|2,0:0|0:0,0:0:0:0:
244,324,40570,5,10,0:1:0:0:
104,203,40787,2,0,P|103:170|114:153,1,42.2499980659486,2|0,0:0|0:0,0:0:0:0:
196,72,41005,6,0,P|171:158|106:162,1,165.75000316143,10|0,0:0|0:0,0:0:0:0:
47,91,41439,2,0,P|77:71|97:73,1,48.750001859665,8|0,0:1|0:0,0:0:0:0:
244,207,41657,6,0,B|287:213|314:179|293:158|321:114|378:124,1,165.75000316143,12|0,0:0|0:0,0:0:0:0:
404,61,42092,2,0,P|409:100|392:119,1,55.2500010538101,10|0,0:0|0:0,0:0:0:0:
220,263,42309,2,0,P|215:224|232:205,1,48.750001859665,10|0,0:1|0:0,0:0:0:0:
257,44,42526,5,8,0:0:0:0:
257,44,42635,1,8,0:0:0:0:
257,44,42744,2,0,P|231:77|207:82,1,48.750001859665,10|0,0:0|0:0,0:0:0:0:
34,146,42961,2,0,B|25:122|25:122|48:120,1,48.750001859665,10|0,0:0|0:0,0:0:0:0:
110,171,43179,1,8,0:1:0:0:
346,297,43396,6,0,P|411:267|504:244,1,165.75000316143,10|0,0:0|0:0,0:0:0:0:
323,302,43831,2,0,P|299:275|303:248,1,48.750001859665,10|0,0:0|0:0,0:0:0:0:
370,113,44048,1,10,0:1:0:0:
512,232,44265,1,2,0:0:0:0:
235,181,44483,6,0,L|166:165,1,48.750001859665,10|0,0:0|0:0,0:0:0:0:
50,241,44700,2,0,B|83:222|85:178|85:178|86:222|132:243,1,146.250005578995,10|0,0:0|0:0,0:0:0:0:
304,73,45135,6,0,B|258:68|238:110|255:131|231:177|180:169,1,165.75000316143,14|0,0:0|0:0,0:0:0:0:
331,81,45570,2,0,P|345:121|335:142,1,55.2500010538101,10|0,0:0|0:0,0:0:0:0:
159,158,45787,2,0,P|156:130|169:107,1,55.2500010538101,10|0,0:1|0:0,0:0:0:0:
287,252,46005,5,8,0:0:0:0:
287,252,46113,1,8,0:0:0:0:
287,252,46222,2,0,P|338:227|414:215,1,126.749994197846,8|0,0:0|0:0,0:0:0:0:
421,219,46657,1,10,0:1:0:0:
183,312,46874,6,0,P|168:294|165:268,1,42.2499980659486,8|0,0:0|0:0,0:0:0:0:
234,210,47092,2,0,P|249:228|252:254,1,42.2499980659486,2|0,0:0|0:0,0:0:0:0:
102,367,47309,2,0,L|15:354,1,84.4999961318971,2|10,0:0|0:1,0:0:0:0:
34,134,47744,6,0,B|76:133|102:169|78:184|100:216|141:216,1,146.250005578995,10|0,0:0|0:0,0:0:0:0:
183,312,48179,2,0,B|222:312|246:279|224:265|244:235|282:235,1,126.749994197846,10|0,0:0|0:0,0:0:0:0:
299,166,48613,2,0,B|331:165|351:193|332:204|349:229|381:229,1,107.25000327301,2|0,0:0|0:0,0:0:0:0:
397,229,49048,2,0,P|418:215|422:201,1,28.6000008728028,2|0,0:0|0:0,0:0:0:0:
366,89,49265,5,8,0:1:0:0:
364,57,49374,1,8,0:1:0:0:
383,31,49483,2,0,L|437:38,1,48.750001859665,8|0,0:1|0:0,0:0:0:0:
188,133,49700,6,0,B|164:143|164:143|152:152|152:152|130:161,1,65,10|0,0:0|0:0,0:0:0:0:
397,229,49918,2,0,B|421:239|421:239|433:248|433:248|455:257,1,65,8|0,0:0|0:0,0:0:0:0:
208,263,50135,2,0,B|184:273|184:273|172:282|172:282|150:291,1,65,10|0,0:1|0:0,0:0:0:0:
366,344,50352,2,0,B|390:354|390:354|402:363|402:363|424:372,1,65,8|0,0:0|0:0,0:0:0:0:
269,96,50570,5,10,0:1:0:0:
273,100,50787,2,0,B|242:160|274:212|309:187|343:258|296:313,1,232.374989362717,8|0,0:0|0:0,0:0:0:0:
298,310,51439,6,0,B|267:298|267:298|251:297|251:297|222:288,1,65,10|0,0:0|0:0,0:0:0:0:
42,231,51657,2,0,B|72:219|72:219|88:218|88:218|117:209,1,65,8|0,0:0|0:0,0:0:0:0:
273,100,51874,2,0,B|242:88|242:88|226:87|226:87|197:78,1,65,10|0,0:1|0:0,0:0:0:0:
32,33,52092,2,0,B|62:21|62:21|78:20|78:20|107:11,1,65,8|0,0:0|0:0,0:0:0:0:
185,293,52309,5,10,0:1:0:0:
185,293,52526,2,0,B|154:232|186:180|221:205|255:134|208:79,1,232.374989362717,8|0,0:0|0:0,0:0:0:0:
210,82,53179,6,0,B|182:68|182:68|146:102,1,65,10|0,0:1|0:0,0:0:0:0:
185,293,53396,2,0,B|213:307|213:307|249:273,1,65,8|0,0:0|0:0,0:0:0:0:
380,98,53613,1,10,0:1:0:0:
380,98,53831,6,0,P|398:148|382:167,1,65,8|0,0:0|0:0,0:0:0:0:
255,261,54048,1,10,0:1:0:0:
101,152,54265,6,0,B|88:184|88:184|113:234,1,65,8|0,0:0|0:0,0:0:0:0:
255,261,54483,2,0,B|268:229|268:229|243:179,1,65,10|0,0:1|0:0,0:0:0:0:
169,3,54700,6,0,B|243:-24|294:42|252:64|305:128|385:95,1,257.400007855225,8|0,0:0|0:0,0:0:0:0:
379,97,55787,6,0,B|346:71|301:94|321:118|291:152|249:133,1,144.300003522949,0|0,0:0|0:0,0:0:0:0:
130,59,56222,1,8,0:1:0:0:
180,321,56439,6,0,B|249:299|249:299|279:309|279:309|236:325,1,146.250005578995,8|0,0:0|0:0,0:0:0:0:
148,337,56874,2,0,B|122:334|110:313|110:313|142:187,1,165.75000316143,8|0,0:0|0:0,0:0:0:0:
263,163,57309,2,0,B|199:179|169:111|210:98|167:31|110:54,1,214.500006546021,10|0,0:3|0:0,0:0:0:0:
111,54,57744,6,0,P|96:95|112:125,1,71.5000021820069,10|0,0:3|0:0,0:0:0:0:
271,236,57961,2,0,P|283:193|257:159,1,84.4999961318971,10|0,0:3|0:0,0:0:0:0:
10,353,58179,6,0,B|66:382|112:337|85:309|111:253|178:265,1,214.500006546021,14|0,0:0|0:0,0:0:0:0:
177,265,58613,2,0,P|151:298|149:314,1,48.750001859665,8|0,0:0|0:0,0:0:0:0:
368,373,58831,2,0,P|346:322|347:280,1,97.50000371933,10|2,0:1|0:0,0:0:0:0:
438,85,59265,1,10,0:0:0:0:
426,71,59483,6,0,P|391:67|379:95,1,65,10|0,0:1|0:0,0:0:0:0:
419,177,59700,2,0,P|454:181|466:153,1,65,10|0,0:1|0:0,0:0:0:0:
310,28,59918,6,0,B|249:40|249:40|220:52|220:52|151:65,1,146.250005578995,10|0,0:0|0:0,0:0:0:0:
168,61,60352,2,0,P|164:110|173:124,1,48.750001859665,8|0,0:0|0:0,0:0:0:0:
274,233,60570,2,0,P|232:197|215:200,1,58.4999982147217,10|0,0:1|0:0,0:0:0:0:
85,206,60787,2,0,L|147:190,1,58.4999982147217,2|0,0:0|0:0,0:0:0:0:
373,124,61005,1,10,0:0:0:0:
395,124,61222,6,0,B|410:155|410:155|397:191,1,65,10|0,0:0|0:0,0:0:0:0:
299,182,61439,2,0,B|284:151|284:151|297:115,1,65,10|0,0:1|0:0,0:0:0:0:
133,347,61657,6,0,P|199:304|268:302,1,146.250005578995,10|0,0:0|0:0,0:0:0:0:
264,301,62092,2,0,P|271:327|259:349,1,48.750001859665,8|0,0:0|0:0,0:0:0:0:
168,177,62309,2,0,L|149:119,1,48.750001859665,10|0,0:1|0:0,0:0:0:0:
241,20,62526,5,2,0:3:0:0:
241,20,62635,1,2,0:3:0:0:
241,20,62744,2,0,L|224:80,1,58.4999982147217,10|0,0:0|0:0,0:0:0:0:
152,192,62961,2,0,L|137:136,1,58.4999982147217,10|0,0:0|0:0,0:0:0:0:
352,89,63179,2,0,B|382:93|382:93|370:121,1,58.4999982147217,10|0,0:1|0:0,0:0:0:0:
200,357,63396,6,0,B|255:384|301:339|274:311|316:259|383:282,1,214.500006546021,10|0,0:0|0:0,0:0:0:0:
402,212,63831,2,0,P|405:246|389:261,1,48.750001859665,8|0,0:0|0:0,0:0:0:0:
183,354,64048,6,0,P|172:310|191:284,1,65,10|0,0:1|0:0,0:0:0:0:
295,179,64265,2,0,P|262:210|230:207,1,77.999997619629,2|0,0:0|0:0,0:0:0:0:
20,155,64483,2,0,P|120:172|129:238,1,175.499994644165,10|2,0:0|0:0,0:0:0:0:
0,139,64918,2,0,B|-11:111|-11:111|17:90,1,58.4999982147217,10|0,0:1|0:0,0:0:0:0:
232,207,65135,6,0,P|315:162|420:143,1,195,10|0,0:0|0:0,0:0:0:0:
413,143,65570,2,0,P|427:180|415:202,1,48.750001859665,10|0,0:0|0:0,0:0:0:0:
368,275,65787,2,0,P|354:238|366:216,1,48.750001859665,10|0,0:1|0:0,0:0:0:0:
391,46,66005,1,2,0:3:0:0:
391,46,66113,1,2,0:3:0:0:
391,46,66222,2,0,P|375:10|363:4,1,48.750001859665,8|0,0:0|0:0,0:0:0:0:
214,85,66439,6,0,B|237:79|237:79|249:74|249:74|275:68,1,48.750001859665,10|0,0:0|0:0,0:0:0:0:
414,143,66657,2,0,B|391:137|391:137|379:132|379:132|367:129,1,48.750001859665,10|0,0:1|0:0,0:0:0:0:
110,292,66874,6,0,B|155:313|198:271|173:245|197:192|260:204,1,195,14|0,0:0|0:0,0:0:0:0:
259,203,67309,2,0,P|274:238|265:256,1,48.750001859665,8|0,0:0|0:0,0:0:0:0:
211,339,67526,2,0,P|196:304|205:286,1,48.750001859665,8|0,0:1|0:0,0:0:0:0:
431,226,67744,6,0,B|397:263|341:241|354:207|311:169|257:204,1,195,10|0,0:0|0:0,0:0:0:0:
258,201,68179,6,0,B|277:238|326:233|323:203|366:181|401:220,1,156,8|0,0:0|0:0,0:0:0:0:
225,78,68613,6,0,B|203:61|176:69|176:69|99:128|99:128|71:131|49:119,1,195,14|0,0:0|0:0,0:0:0:0:
54,121,69048,1,8,0:0:0:0:
258,201,69265,2,0,L|321:225,1,48.750001859665,10|0,0:1|0:0,0:0:0:0:
122,259,69483,5,2,0:3:0:0:
122,259,69592,1,2,0:3:0:0:
122,259,69700,2,0,L|58:283,1,65,10|0,0:0|0:0,0:0:0:0:
229,347,69918,2,0,P|241:306|220:278,1,65,10|0,0:0|0:0,0:0:0:0:
141,109,70135,2,0,P|129:150|150:178,1,65,10|0,0:1|0:0,0:0:0:0:
376,196,70352,6,0,B|422:183|415:130|415:130|369:105|340:142,1,165.75000316143,10|0,0:0|0:0,0:0:0:0:
369,216,70787,2,0,B|293:202|293:202|255:178|255:178|192:167,1,185.249995053291,8|0,0:0|0:0,0:0:0:0:
29,240,71222,2,0,B|92:236|111:173|72:161|84:93|156:80,1,224.250004277229,8|0,0:0|0:0,0:0:0:0:
153,81,71657,6,0,P|177:122|169:150,1,65,10|0,0:0|0:0,0:0:0:0:
29,240,71874,2,0,P|5:199|13:171,1,77.999997619629,10|0,0:1|0:0,0:0:0:0:
240,11,72092,6,0,B|302:3|332:62|296:81|319:146|392:146,1,214.500006546021,14|0,0:0|0:0,0:0:0:0:
379,145,72526,2,0,P|409:121|409:90,1,55.5100013298142,8|0,0:0|0:0,0:0:0:0:
213,22,72744,2,0,P|227:64|229:97,1,55.5100013298142,10|0,0:1|0:0,0:0:0:0:
170,175,72961,2,0,P|140:151|140:120,1,55.5100013298142,2|0,0:0|0:0,0:0:0:0:
379,145,73179,6,0,B|400:174|400:174|388:210,1,71.5000021820069,10|0,0:0|0:0,0:0:0:0:
201,334,73396,2,0,B|180:305|180:305|192:269,1,71.5000021820069,10|0,0:1|0:0,0:0:0:0:
390,144,73613,2,0,B|411:173|411:173|399:209,1,71.5000021820069,10|0,0:1|0:0,0:0:0:0:
210,48,73831,6,0,B|158:50|132:85|148:104|116:137|62:133,1,165.75000316143,10|0,0:0|0:0,0:0:0:0:
76,133,74265,2,0,P|52:96|59:74,1,61.7499983510972,8|0,0:0|0:0,0:0:0:0:
210,48,74483,2,0,P|234:85|227:107,1,61.7499983510972,10|0,0:1|0:0,0:0:0:0:
198,224,74700,2,0,P|174:187|181:165,1,61.7499983510972,2|0,0:0|0:0,0:0:0:0:
442,134,74918,6,0,B|410:142|410:142|400:150|400:150|373:157,1,65,10|0,0:0|0:0,0:0:0:0:
178,302,75135,2,0,B|210:310|210:310|220:318|220:318|247:325,1,65,10|0,0:0|0:0,0:0:0:0:
333,370,75352,2,0,B|323:338|323:338|325:325|325:325|318:298,1,65,10|0,0:1|0:0,0:0:0:0:
96,227,75570,6,0,P|34:259|58:342,1,165.75000316143,10|0,0:0|0:0,0:0:0:0:
112,233,76005,2,0,P|125:274|146:284,1,55.2500010538101,8|0,0:0|0:0,0:0:0:0:
219,154,76222,2,0,P|176:144|157:157,1,55.2500010538101,10|0,0:1|0:0,0:0:0:0:
232,281,76439,2,0,P|261:249|259:226,1,55.2500010538101,2|0,0:0|0:0,0:0:0:0:
306,82,76657,6,0,L|319:143,1,55.2500010538101,10|0,0:0|0:0,0:0:0:0:
384,299,76874,2,0,L|395:244,1,55.2500010538101,10|0,0:0|0:0,0:0:0:0:
454,86,77092,2,0,L|467:147,1,55.2500010538101,10|0,0:1|0:0,0:0:0:0:
232,281,77309,6,0,B|170:294|133:244|171:214|129:160|61:183,1,214.500006546021,10|0,0:0|0:0,0:0:0:0:
68,180,77744,2,0,P|63:234|81:246,1,71.5000021820069,8|0,0:0|0:0,0:0:0:0:
249,167,77961,2,0,L|322:134,1,71.5000021820069,8|0,0:1|0:0,0:0:0:0:
444,276,78179,5,2,0:3:0:0:
444,276,78287,1,2,0:3:0:0:
444,276,78396,2,0,P|421:240|440:205,1,65,10|0,0:0|0:0,0:0:0:0:
332,82,78613,2,0,P|334:113|313:137,1,65,10|0,0:0|0:0,0:0:0:0:
178,285,78831,2,0,B|152:264|152:264|181:242,1,65,10|0,0:1|0:0,0:0:0:0:
178,37,79048,6,0,P|104:29|71:149,1,214.500006546021,10|0,0:0|0:0,0:0:0:0:
67,143,79483,2,0,P|105:141|126:113,1,58.4999982147217,10|0,0:0|0:0,0:0:0:0:
205,45,79700,2,0,P|227:75|219:109,1,58.4999982147217,10|0,0:1|0:0,0:0:0:0:
285,267,79918,5,10,0:3:0:0:
285,267,80026,1,2,0:3:0:0:
285,267,80135,2,0,L|295:233,1,35.1000008569336,8|0,0:0|0:0,0:0:0:0:
317,44,80352,6,0,B|374:26|417:68|397:93|430:137|480:129,1,195,10|0,0:0|0:0,0:0:0:0:
474,129,80787,2,0,P|499:98|489:71,1,65,14|0,0:1|0:0,0:0:0:0:
195,340,81222,6,0,B|138:358|95:316|115:291|82:247|32:255,1,195,10|0,0:0|0:0,0:0:0:0:
37,254,81657,2,0,P|13:286|23:313,1,65,14|0,0:0|0:0,0:0:0:0:
319,353,82092,6,0,P|298:240|293:142,1,195,10|0,0:0|0:0,0:0:0:0:
293,160,82526,6,0,P|300:197|209:198,1,146.250005578995,14|0,0:0|0:0,0:0:0:0:
216,213,82961,2,0,B|256:213|274:245|254:253|273:282|313:281,1,126.749994197846,14|0,0:0|0:0,0:0:0:0:
293,160,83396,2,0,P|300:93|318:49,1,107.25000327301,14|0,0:0|0:0,0:0:0:0:
314,56,83831,6,0,P|341:87|338:101,1,48.750001859665,10|0,0:0|0:0,0:0:0:0:
293,160,84048,2,0,P|266:129|269:115,1,48.750001859665,10|0,0:0|0:0,0:0:0:0:
194,34,84265,2,0,P|161:23|145:33,1,48.750001859665,0|0,0:0|0:0,0:0:0:0:
131,233,84483,6,0,B|159:182|159:182|163:85|163:85|193:34,1,214.500006546021,10|0,0:1|0:0,0:0:0:0:
102,304,84918,2,0,B|67:316|67:316|65:278,1,71.5000021820069,10|0,0:1|0:0,0:0:0:0:
131,233,85135,2,0,P|166:250|181:292,1,71.5000021820069,8|0,0:0|0:0,0:0:0:0:
346,341,85352,5,10,0:1:0:0:
349,343,85570,2,0,B|364:309|364:309|335:275,1,71.5000021820069,8|0,0:0|0:0,0:0:0:0:
160,157,85787,5,10,0:1:0:0:
160,157,86005,2,0,B|190:150|190:150|205:152|205:152|240:144,1,71.5000021820069,8|0,0:0|0:0,0:0:0:0:
411,93,86222,5,10,0:1:0:0:
411,93,86439,2,0,P|437:129|429:155,1,71.5000021820069,8|0,0:0|0:0,0:0:0:0:
242,346,86657,5,10,0:1:0:0:
242,346,86874,2,0,B|213:340|213:340|201:334|201:334|168:328,1,71.5000021820069,8|0,0:0|0:0,0:0:0:0:
41,287,87092,2,0,B|69:281|69:281|81:275|81:275|115:269,1,71.5000021820069,10|0,0:1|0:0,0:0:0:0:
266,339,87309,6,0,P|290:284|218:236,1,157.300004800415,8|0,0:1|0:0,0:0:0:0:
221,235,87961,6,0,B|287:289|349:233|333:201|393:143|464:198,1,272.999991668701,8|0,0:1|0:0,0:0:0:0:
