osu file format v14

[General]
AudioFilename: audio.mp3
AudioLeadIn: 0
PreviewTime: 57533
Countdown: 0
SampleSet: Normal
StackLeniency: 0.7
Mode: 1
LetterboxInBreaks: 0
WidescreenStoryboard: 0

[Editor]
Bookmarks: 23346,37259,59868
DistanceSpacing: 4
BeatDivisor: 4
GridSize: 32
TimelineZoom: 4.199998

[Metadata]
Title:DADDY ! DADDY ! DO ! feat. Suzuki Airi (TV Size)
TitleUnicode:DADDY ! DADDY ! DO ! feat. 鈴木愛理 (TV Size)
Artist:Suzuki Masayuki
ArtistUnicode:鈴木雅之
Creator:Cychloryn
Version:Oni
Source:Kaguya-sama: Love Is War?
Tags:hivie wants to be confessed to?: the geniuses' war of love and brains かぐや様は告らせたい?~天才たちの恋愛頭脳戦~ kaguya-sama wa kokurasetai? tensai-tachi no renai zunosen zunousen japanese groovy anime opening op season 2 水野良樹 本間昭光 mizuno yoshiki honma akimitsu j-pop pop jpop
BeatmapID:2402601
BeatmapSetID:1150947

[Difficulty]
HPDrainRate:5
CircleSize:2
OverallDifficulty:5
ApproachRate:10
SliderMultiplier:1.4
SliderTickRate:1

[Events]
//Background and Video events
0,0,"anime.jpg",0,50
//Break Periods
//Storyboard Layer 0 (Background)
//Storyboard Layer 1 (Fail)
//Storyboard Layer 2 (Pass)
//Storyboard Layer 3 (Foreground)
//Storyboard Layer 4 (Overlay)
//Storyboard Sound Samples

[TimingPoints]
-726,434.782608695652,4,1,0,70,1,0
2098,-98.0392156862745,4,1,0,70,0,0
2315,-95.2380952380952,4,1,0,70,0,0
2532,-90.9090909090909,4,1,0,85,0,0
2534,-90.9090909090909,4,1,0,85,0,1
2752,434.782608695652,4,1,0,85,1,1
2752,-95.2380952380952,4,1,0,85,0,1
10793,-93.4579439252336,4,1,0,85,0,1
10902,-95.2380952380952,4,1,0,85,0,1
11010,-97.0873786407767,4,1,0,85,0,1
11228,-91.743119266055,4,1,0,85,0,1
11445,-95.2380952380952,4,1,0,85,0,1
11663,-93.4579439252336,4,1,0,85,0,1
11771,-95.2380952380952,4,1,0,85,0,1
11880,-97.0873786407767,4,1,0,85,0,1
12097,-91.743119266055,4,1,0,85,0,1
12315,-95.2380952380952,4,1,0,85,0,1
12532,-93.4579439252336,4,1,0,85,0,1
12641,-95.2380952380952,4,1,0,85,0,1
12749,-97.0873786407767,4,1,0,85,0,1
12967,-91.743119266055,4,1,0,85,0,1
13184,-95.2380952380952,4,1,0,85,0,1
13402,-91.743119266055,4,1,0,85,0,1
13619,-93.4579439252336,4,1,0,85,0,1
13836,-95.2380952380952,4,1,0,85,0,1
14271,-97.0873786407767,4,1,0,85,0,1
14489,-98.0392156862745,4,1,0,85,0,1
14706,-99.009900990099,4,1,0,85,0,1
14925,434.782608695652,4,1,0,70,1,0
23618,-94.3396226415094,4,1,0,70,0,0
23944,-96.1538461538461,4,1,0,70,0,0
24053,-98.0392156862745,4,1,0,70,0,0
24270,-94.3396226415094,4,1,0,70,0,0
24379,-100,4,1,0,70,0,0
30575,-94.3396226415094,4,1,0,70,0,0
30901,-96.1538461538461,4,1,0,70,0,0
31009,-98.0392156862745,4,1,0,70,0,0
31227,-94.3396226415094,4,1,0,70,0,0
31336,-100,4,1,0,70,0,0
49270,-99.009900990099,4,1,0,70,0,0
49379,-98.0392156862745,4,1,0,70,0,0
49488,-97.0873786407767,4,1,0,70,0,0
49705,-95.2380952380952,4,1,0,70,0,0
56444,-100,4,1,0,70,0,0
56662,-99.009900990099,4,1,0,70,0,0
56879,-98.0392156862745,4,1,0,70,0,0
57096,-97.0873786407767,4,1,0,70,0,0
57314,-96.1538461538461,4,1,0,70,0,0
57749,-94.3396226415094,4,1,0,70,0,0
57966,-90.9090909090909,4,1,0,70,0,0
58183,-86.9565217391304,4,1,0,85,0,0
58185,-86.9565217391304,4,1,0,85,0,1
58403,434.782608695652,4,1,0,85,1,1
58403,-90.9090909090909,4,1,0,85,0,1
66661,-89.2857142857143,4,1,0,85,0,1
66879,-86.9565217391304,4,1,0,85,0,1
67096,-90.9090909090909,4,1,0,85,0,1
67531,-89.2857142857143,4,1,0,85,0,1
67748,-86.9565217391304,4,1,0,85,0,1
67966,-90.9090909090909,4,1,0,85,0,1
68401,-89.2857142857143,4,1,0,85,0,1
68618,-86.9565217391304,4,1,0,85,0,1
68835,-90.9090909090909,4,1,0,85,0,1
69922,-91.743119266055,4,1,0,85,0,1
70031,-92.5925925925926,4,1,0,85,0,1
70140,-93.4579439252336,4,1,0,85,0,1
70357,-95.2380952380952,4,1,0,80,0,1
70359,-95.2380952380952,4,1,0,80,0,0
71661,-94.3396226415094,4,1,0,80,0,0
71879,-90.9090909090909,4,1,0,80,0,0
72096,-86.9565217391304,4,1,0,85,0,0
72098,-86.9565217391304,4,1,0,85,0,1
72314,-90.9090909090909,4,1,0,85,0,1
80357,-88.4955752212389,4,1,0,85,0,1
80466,-90.0900900900901,4,1,0,85,0,1
80574,-91.743119266055,4,1,0,85,0,1
80792,-86.9565217391304,4,1,0,85,0,1
81009,-90.9090909090909,4,1,0,85,0,1
81227,-88.4955752212389,4,1,0,85,0,1
81335,-90.0900900900901,4,1,0,85,0,1
81444,-91.743119266055,4,1,0,85,0,1
81661,-86.9565217391304,4,1,0,85,0,1
81879,-90.9090909090909,4,1,0,85,0,1
82096,-88.4955752212389,4,1,0,85,0,1
82205,-90.0900900900901,4,1,0,85,0,1
82314,-91.743119266055,4,1,0,85,0,1
82531,-86.9565217391304,4,1,0,85,0,1
82748,-90.9090909090909,4,1,0,85,0,1
82966,-87.719298245614,4,1,0,85,0,1
83183,-89.2857142857143,4,1,0,85,0,1
83401,-90.9090909090909,4,1,0,85,0,1
83835,-92.5925925925926,4,1,0,85,0,1
83944,-91.743119266055,4,1,0,85,0,1
84053,-90.9090909090909,4,1,0,85,0,1
84161,-90.0900900900901,4,1,0,85,0,1
84270,-89.2857142857143,4,1,0,85,0,1
84489,434.782608695652,4,1,0,90,1,1
84489,-86.9565217391304,4,1,0,90,0,1
87967,-86.9565217391304,4,1,0,90,0,0

[HitObjects]
256,192,795,5,8,0:0:0:0:
256,192,1013,1,0,0:0:0:0:
256,192,1230,1,8,0:0:0:0:
256,192,1447,1,0,0:0:0:0:
256,192,1665,1,8,0:0:0:0:
256,192,2100,1,0,0:0:0:0:
256,192,2317,1,0,0:0:0:0:
256,192,2534,1,12,0:0:0:0:
256,192,2969,1,0,0:0:0:0:
256,192,3186,1,8,0:0:0:0:
256,192,3404,1,8,0:0:0:0:
256,192,3621,1,0,0:0:0:0:
256,192,3838,1,8,0:0:0:0:
256,192,3947,1,8,0:0:0:0:
256,192,4056,1,0,0:0:0:0:
256,192,4273,1,8,0:0:0:0:
256,192,4708,1,0,0:0:0:0:
256,192,4925,1,8,0:0:0:0:
256,192,5143,1,8,0:0:0:0:
256,192,5360,1,0,0:0:0:0:
256,192,5578,1,0,0:0:0:0:
256,192,5686,1,8,0:0:0:0:
256,192,5795,1,0,0:0:0:0:
256,192,6012,1,8,0:0:0:0:
256,192,6447,1,0,0:0:0:0:
256,192,6665,1,8,0:0:0:0:
256,192,6882,1,0,0:0:0:0:
256,192,6991,1,0,0:0:0:0:
256,192,7099,1,8,0:0:0:0:
256,192,7317,1,8,0:0:0:0:
256,192,7534,1,0,0:0:0:0:
256,192,7751,1,8,0:0:0:0:
256,192,8186,1,0,0:0:0:0:
256,192,8404,1,8,0:0:0:0:
256,192,8621,1,0,0:0:0:0:
256,192,8730,1,8,0:0:0:0:
256,192,8838,1,0,0:0:0:0:
256,192,8947,1,0,0:0:0:0:
256,192,9056,1,8,0:0:0:0:
256,192,9273,1,0,0:0:0:0:
256,192,9491,1,8,0:0:0:0:
256,192,9925,1,0,0:0:0:0:
256,192,10143,1,0,0:0:0:0:
256,192,10360,1,8,0:0:0:0:
256,192,10578,1,0,0:0:0:0:
256,192,10795,1,8,0:0:0:0:
256,192,10904,1,8,0:0:0:0:
256,192,11012,1,0,0:0:0:0:
256,192,11230,1,8,0:0:0:0:
256,192,11665,1,8,0:0:0:0:
256,192,11773,1,8,0:0:0:0:
256,192,11882,1,0,0:0:0:0:
256,192,12099,1,8,0:0:0:0:
256,192,12534,1,8,0:0:0:0:
256,192,12643,1,0,0:0:0:0:
256,192,12751,1,0,0:0:0:0:
256,192,12969,1,8,0:0:0:0:
256,192,13404,1,8,0:0:0:0:
256,192,13621,1,0,0:0:0:0:
256,192,13838,1,8,0:0:0:0:
256,192,14273,1,0,0:0:0:0:
256,192,14491,1,8,0:0:0:0:
256,192,14708,1,8,0:0:0:0:
256,192,14925,1,4,0:0:0:0:
256,192,15142,1,0,0:0:0:0:
256,192,15359,1,8,0:0:0:0:
256,192,15577,1,0,0:0:0:0:
256,192,15685,1,0,0:0:0:0:
256,192,15794,1,8,0:0:0:0:
256,192,16011,1,8,0:0:0:0:
256,192,16229,1,0,0:0:0:0:
256,192,16446,1,8,0:0:0:0:
256,192,16881,1,0,0:0:0:0:
256,192,17098,1,8,0:0:0:0:
256,192,17316,1,0,0:0:0:0:
256,192,17425,1,8,0:0:0:0:
256,192,17533,1,0,0:0:0:0:
256,192,17751,1,8,0:0:0:0:
256,192,17968,1,8,0:0:0:0:
256,192,18185,1,0,0:0:0:0:
256,192,18620,1,0,0:0:0:0:
256,192,18838,1,8,0:0:0:0:
256,192,19055,1,8,0:0:0:0:
256,192,19164,1,8,0:0:0:0:
256,192,19272,1,0,0:0:0:0:
256,192,19490,1,8,0:0:0:0:
256,192,19707,1,0,0:0:0:0:
256,192,19925,1,8,0:0:0:0:
256,192,20359,1,0,0:0:0:0:
256,192,20577,1,8,0:0:0:0:
256,192,20794,1,0,0:0:0:0:
256,192,21229,1,0,0:0:0:0:
256,192,21338,1,0,0:0:0:0:
256,192,21446,1,8,0:0:0:0:
256,192,21555,1,0,0:0:0:0:
256,192,21664,1,8,0:0:0:0:
256,192,21881,1,0,0:0:0:0:
256,192,22098,1,0,0:0:0:0:
256,192,22316,1,8,0:0:0:0:
256,192,22533,1,0,0:0:0:0:
256,192,22642,1,8,0:0:0:0:
256,192,22751,1,0,0:0:0:0:
256,192,22968,1,8,0:0:0:0:
256,192,23185,1,0,0:0:0:0:
256,192,23294,1,0,0:0:0:0:
256,192,23403,1,0,0:0:0:0:
256,192,23620,1,12,0:0:0:0:
256,192,23946,1,8,0:0:0:0:
256,192,24055,1,0,0:0:0:0:
256,192,24272,1,12,0:0:0:0:
256,192,24707,1,0,0:0:0:0:
256,192,24924,1,8,0:0:0:0:
256,192,25142,1,0,0:0:0:0:
256,192,25251,1,0,0:0:0:0:
256,192,25359,1,8,0:0:0:0:
256,192,25577,1,0,0:0:0:0:
256,192,25794,1,8,0:0:0:0:
256,192,26011,1,8,0:0:0:0:
256,192,26120,1,8,0:0:0:0:
256,192,26229,1,0,0:0:0:0:
256,192,26446,1,0,0:0:0:0:
256,192,26664,1,8,0:0:0:0:
256,192,26881,1,0,0:0:0:0:
256,192,27316,1,0,0:0:0:0:
256,192,27533,1,8,0:0:0:0:
256,192,27751,1,0,0:0:0:0:
256,192,27859,1,0,0:0:0:0:
256,192,27968,1,8,0:0:0:0:
256,192,28185,1,0,0:0:0:0:
256,192,28403,1,8,0:0:0:0:
256,192,28620,1,8,0:0:0:0:
256,192,28838,1,0,0:0:0:0:
256,192,29272,1,8,0:0:0:0:
256,192,29490,1,0,0:0:0:0:
256,192,29598,1,8,0:0:0:0:
256,192,29707,1,0,0:0:0:0:
256,192,29924,1,8,0:0:0:0:
256,192,30142,1,8,0:0:0:0:
256,192,30251,1,8,0:0:0:0:
256,192,30359,1,0,0:0:0:0:
256,192,30577,1,12,0:0:0:0:
256,192,30903,1,8,0:0:0:0:
256,192,31011,1,0,0:0:0:0:
256,192,31229,1,12,0:0:0:0:
256,192,31664,1,0,0:0:0:0:
256,192,31881,1,8,0:0:0:0:
256,192,32098,1,0,0:0:0:0:
256,192,32207,1,0,0:0:0:0:
256,192,32316,1,8,0:0:0:0:
256,192,32533,1,0,0:0:0:0:
256,192,32751,1,8,0:0:0:0:
256,192,32968,1,0,0:0:0:0:
256,192,33403,1,0,0:0:0:0:
256,192,33511,1,8,0:0:0:0:
256,192,33620,1,8,0:0:0:0:
256,192,33838,1,0,0:0:0:0:
256,192,34272,1,0,0:0:0:0:
256,192,34490,1,8,0:0:0:0:
256,192,34598,1,0,0:0:0:0:
256,192,34707,1,8,0:0:0:0:
256,192,34924,1,0,0:0:0:0:
256,192,35142,1,8,0:0:0:0:
256,192,35251,1,8,0:0:0:0:
256,192,35359,1,0,0:0:0:0:
256,192,35468,1,8,0:0:0:0:
256,192,35577,1,0,0:0:0:0:
256,192,35794,1,8,0:0:0:0:
256,192,36011,1,0,0:0:0:0:
256,192,36446,1,0,0:0:0:0:
256,192,36555,1,0,0:0:0:0:
256,192,36664,1,8,0:0:0:0:
256,192,36881,1,0,0:0:0:0:
256,192,37098,1,0,0:0:0:0:
256,192,37316,1,8,0:0:0:0:
256,192,37533,1,8,0:0:0:0:
256,192,37751,1,0,0:0:0:0:
256,192,37859,1,8,0:0:0:0:
256,192,37968,1,0,0:0:0:0:
256,192,38185,1,8,0:0:0:0:
256,192,38620,1,0,0:0:0:0:
256,192,38838,1,8,0:0:0:0:
256,192,39055,1,0,0:0:0:0:
256,192,39164,1,0,0:0:0:0:
256,192,39272,1,8,0:0:0:0:
256,192,39490,1,8,0:0:0:0:
256,192,39707,1,0,0:0:0:0:
256,192,39924,1,8,0:0:0:0:
256,192,40359,1,8,0:0:0:0:
256,192,40577,1,0,0:0:0:0:
256,192,40794,1,8,0:0:0:0:
256,192,40903,1,8,0:0:0:0:
256,192,41011,1,0,0:0:0:0:
256,192,41229,1,0,0:0:0:0:
256,192,41338,1,8,0:0:0:0:
256,192,41446,1,0,0:0:0:0:
256,192,41664,1,8,0:0:0:0:
256,192,42098,1,0,0:0:0:0:
256,192,42316,1,8,0:0:0:0:
256,192,42424,1,8,0:0:0:0:
256,192,42533,1,0,0:0:0:0:
256,192,42642,1,0,0:0:0:0:
256,192,42751,1,8,0:0:0:0:
256,192,42968,1,8,0:0:0:0:
256,192,43185,1,0,0:0:0:0:
256,192,43403,1,8,0:0:0:0:
256,192,43838,1,8,0:0:0:0:
256,192,44055,1,0,0:0:0:0:
256,192,44272,1,0,0:0:0:0:
256,192,44490,1,8,0:0:0:0:
256,192,44707,1,8,0:0:0:0:
256,192,44816,1,8,0:0:0:0:
256,192,44924,1,0,0:0:0:0:
256,192,45142,1,8,0:0:0:0:
256,192,45577,1,0,0:0:0:0:
256,192,45794,1,8,0:0:0:0:
256,192,46011,1,8,0:0:0:0:
256,192,46229,1,0,0:0:0:0:
256,192,46664,1,8,0:0:0:0:
256,192,46881,1,8,0:0:0:0:
256,192,46990,1,8,0:0:0:0:
256,192,47098,1,0,0:0:0:0:
256,192,47316,1,8,0:0:0:0:
256,192,47533,1,0,0:0:0:0:
256,192,47751,1,8,0:0:0:0:
256,192,48185,1,0,0:0:0:0:
256,192,48403,1,8,0:0:0:0:
256,192,48620,1,0,0:0:0:0:
256,192,48729,1,8,0:0:0:0:
256,192,48838,1,0,0:0:0:0:
256,192,48946,1,8,0:0:0:0:
256,192,49055,1,0,0:0:0:0:
256,192,49272,1,8,0:0:0:0:
256,192,49381,1,8,0:0:0:0:
256,192,49490,1,0,0:0:0:0:
256,192,49707,1,8,0:0:0:0:
256,192,49924,1,8,0:0:0:0:
256,192,50142,1,0,0:0:0:0:
256,192,50359,1,8,0:0:0:0:
256,192,50794,1,0,0:0:0:0:
256,192,50903,1,0,0:0:0:0:
256,192,51011,1,8,0:0:0:0:
256,192,51229,1,0,0:0:0:0:
256,192,51446,1,8,0:0:0:0:
256,192,51664,1,8,0:0:0:0:
256,192,51881,1,0,0:0:0:0:
256,192,52098,1,8,0:0:0:0:
256,192,52533,1,0,0:0:0:0:
256,192,52751,1,8,0:0:0:0:
256,192,52968,1,0,0:0:0:0:
256,192,53077,1,0,0:0:0:0:
256,192,53185,1,8,0:0:0:0:
256,192,53403,1,8,0:0:0:0:
256,192,53620,1,0,0:0:0:0:
256,192,53838,1,8,0:0:0:0:
256,192,54272,1,8,0:0:0:0:
256,192,54490,1,0,0:0:0:0:
256,192,54707,1,12,0:0:0:0:
256,192,54924,12,0,56229,0:0:0:0:
256,192,56446,5,8,0:0:0:0:
256,192,56664,1,0,0:0:0:0:
256,192,56881,1,8,0:0:0:0:
256,192,57098,1,0,0:0:0:0:
256,192,57316,1,8,0:0:0:0:
256,192,57751,1,0,0:0:0:0:
256,192,57968,1,0,0:0:0:0:
256,192,58185,1,12,0:0:0:0:
256,192,58620,1,8,0:0:0:0:
256,192,58837,1,0,0:0:0:0:
256,192,59055,1,8,0:0:0:0:
256,192,59163,1,8,0:0:0:0:
256,192,59272,1,0,0:0:0:0:
256,192,59489,1,8,0:0:0:0:
256,192,59598,1,0,0:0:0:0:
256,192,59707,1,8,0:0:0:0:
256,192,59924,1,0,0:0:0:0:
256,192,60359,1,0,0:0:0:0:
256,192,60576,1,8,0:0:0:0:
256,192,60794,1,8,0:0:0:0:
256,192,60903,1,8,0:0:0:0:
256,192,61011,1,0,0:0:0:0:
256,192,61229,1,8,0:0:0:0:
256,192,61337,1,0,0:0:0:0:
256,192,61446,1,8,0:0:0:0:
256,192,61663,1,0,0:0:0:0:
256,192,62098,1,0,0:0:0:0:
256,192,62316,1,8,0:0:0:0:
256,192,62533,1,0,0:0:0:0:
256,192,62642,1,8,0:0:0:0:
256,192,62750,1,0,0:0:0:0:
256,192,62859,1,0,0:0:0:0:
256,192,62968,1,8,0:0:0:0:
256,192,63185,1,0,0:0:0:0:
256,192,63403,1,8,0:0:0:0:
256,192,63837,1,8,0:0:0:0:
256,192,64055,1,0,0:0:0:0:
256,192,64163,1,0,0:0:0:0:
256,192,64272,1,8,0:0:0:0:
256,192,64381,1,0,0:0:0:0:
256,192,64489,1,8,0:0:0:0:
256,192,64707,1,8,0:0:0:0:
256,192,64924,1,0,0:0:0:0:
256,192,65142,1,8,0:0:0:0:
256,192,65576,1,8,0:0:0:0:
256,192,65794,1,0,0:0:0:0:
256,192,66011,1,8,0:0:0:0:
256,192,66120,1,8,0:0:0:0:
256,192,66229,1,0,0:0:0:0:
256,192,66446,1,8,0:0:0:0:
256,192,66663,1,8,0:0:0:0:
256,192,66881,1,4,0:0:0:0:
256,192,67316,1,8,0:0:0:0:
256,192,67533,1,0,0:0:0:0:
256,192,67750,1,4,0:0:0:0:
256,192,68185,1,8,0:0:0:0:
256,192,68403,1,0,0:0:0:0:
256,192,68620,1,12,0:0:0:0:
256,192,69055,1,0,0:0:0:0:
256,192,69272,1,8,0:0:0:0:
256,192,69489,1,0,0:0:0:0:
256,192,69598,1,0,0:0:0:0:
256,192,69707,1,8,0:0:0:0:
256,192,69924,1,8,0:0:0:0:
256,192,70033,1,8,0:0:0:0:
256,192,70142,1,0,0:0:0:0:
256,192,70359,1,8,0:0:0:0:
256,192,70576,1,0,0:0:0:0:
256,192,70794,1,8,0:0:0:0:
256,192,71011,1,0,0:0:0:0:
256,192,71229,1,8,0:0:0:0:
256,192,71663,1,0,0:0:0:0:
256,192,71881,1,0,0:0:0:0:
256,192,72098,1,12,0:0:0:0:
256,192,72533,1,8,0:0:0:0:
256,192,72750,1,0,0:0:0:0:
256,192,72968,1,8,0:0:0:0:
256,192,73076,1,8,0:0:0:0:
256,192,73185,1,0,0:0:0:0:
256,192,73403,1,8,0:0:0:0:
256,192,73511,1,0,0:0:0:0:
256,192,73620,1,8,0:0:0:0:
256,192,73837,1,0,0:0:0:0:
256,192,74272,1,0,0:0:0:0:
256,192,74489,1,8,0:0:0:0:
256,192,74707,1,8,0:0:0:0:
256,192,74816,1,8,0:0:0:0:
256,192,74924,1,0,0:0:0:0:
256,192,75142,1,8,0:0:0:0:
256,192,75250,1,0,0:0:0:0:
256,192,75359,1,8,0:0:0:0:
256,192,75576,1,0,0:0:0:0:
256,192,76011,1,0,0:0:0:0:
256,192,76229,1,8,0:0:0:0:
256,192,76446,1,0,0:0:0:0:
256,192,76555,1,0,0:0:0:0:
256,192,76663,1,8,0:0:0:0:
256,192,76881,1,8,0:0:0:0:
256,192,76989,1,8,0:0:0:0:
256,192,77098,1,0,0:0:0:0:
256,192,77207,1,0,0:0:0:0:
256,192,77316,1,8,0:0:0:0:
256,192,77750,1,0,0:0:0:0:
256,192,77968,1,8,0:0:0:0:
256,192,78185,1,0,0:0:0:0:
256,192,78294,1,8,0:0:0:0:
256,192,78403,1,0,0:0:0:0:
256,192,78511,1,0,0:0:0:0:
256,192,78620,1,8,0:0:0:0:
256,192,78837,1,0,0:0:0:0:
256,192,79055,1,8,0:0:0:0:
256,192,79489,1,8,0:0:0:0:
256,192,79707,1,0,0:0:0:0:
256,192,79816,1,0,0:0:0:0:
256,192,79924,1,8,0:0:0:0:
256,192,80142,1,0,0:0:0:0:
256,192,80359,1,8,0:0:0:0:
256,192,80468,1,8,0:0:0:0:
256,192,80576,1,0,0:0:0:0:
256,192,80794,1,8,0:0:0:0:
256,192,81229,1,8,0:0:0:0:
256,192,81337,1,8,0:0:0:0:
256,192,81446,1,0,0:0:0:0:
256,192,81663,1,8,0:0:0:0:
256,192,82098,1,8,0:0:0:0:
256,192,82207,1,0,0:0:0:0:
256,192,82316,1,0,0:0:0:0:
256,192,82533,1,8,0:0:0:0:
256,192,82968,1,8,0:0:0:0:
256,192,83185,1,0,0:0:0:0:
256,192,83403,1,8,0:0:0:0:
256,192,83837,1,0,0:0:0:0:
256,192,83946,1,0,0:0:0:0:
256,192,84055,1,8,0:0:0:0:
256,192,84163,1,8,0:0:0:0:
256,192,84272,1,0,0:0:0:0:
256,192,84489,1,12,0:0:0:0:
256,192,84706,1,0,0:0:0:0:
256,192,84815,1,0,0:0:0:0:
256,192,84923,1,8,0:0:0:0:
256,192,85141,1,8,0:0:0:0:
256,192,85249,1,8,0:0:0:0:
256,192,85358,1,0,0:0:0:0:
256,192,85575,1,8,0:0:0:0:
256,192,85793,1,0,0:0:0:0:
256,192,86010,1,8,0:0:0:0:
256,192,86119,1,8,0:0:0:0:
256,192,86228,1,0,0:0:0:0:
256,192,86445,1,8,0:0:0:0:
256,192,86662,1,0,0:0:0:0:
256,192,86880,1,8,0:0:0:0:
256,192,86989,1,8,0:0:0:0:
256,192,87097,1,0,0:0:0:0:
256,192,87315,1,12,0:0:0:0:
256,192,87967,1,4,0:0:0:0:
