osu file format v14

[General]
AudioFilename: audio.mp3
AudioLeadIn: 0
PreviewTime: 76982
Countdown: 0
SampleSet: Soft
StackLeniency: 0.7
Mode: 0
LetterboxInBreaks: 0
WidescreenStoryboard: 1

[Editor]
Bookmarks: 2982,22982,33648,54982,77648,99982
DistanceSpacing: 1
BeatDivisor: 2
GridSize: 4
TimelineZoom: 1.000001

[Metadata]
Title:tears BREAKER (short ver.)
TitleUnicode:tears BREAKER (short ver.)
Artist:Suzuki Konomi
ArtistUnicode:鈴木 このみ
Creator:Vanillas
Version:Normal
Source:アンジュ・ヴィエルジュ~第二風紀委員ガールズバトル~
Tags:Ange Vierge Sega Kadokawa erusha rinsukir
BeatmapID:911664
BeatmapSetID:421445

[Difficulty]
HPDrainRate:3.5
CircleSize:3.5
OverallDifficulty:4
ApproachRate:5
SliderMultiplier:1
SliderTickRate:1

[Events]
//Background and Video events
Video,0,"vid.flv"
0,0,"Ange_Vierge.png",0,0
//Break Periods
2,25848,32328
//Storyboard Layer 0 (Background)
//Storyboard Layer 1 (Fail)
//Storyboard Layer 2 (Pass)
//Storyboard Layer 3 (Foreground)
//Storyboard Sound Samples

[TimingPoints]
315,333.333333333333,4,2,1,50,1,0
33648,-100,4,2,1,60,0,0
54982,-100,4,2,1,50,0,0
77648,-100,4,2,1,80,0,1
97982,-100,4,2,1,60,0,1
98482,-100,4,2,1,40,0,1
98982,-100,4,2,1,30,0,1
99482,-100,4,2,1,20,0,1
99981,-100,4,2,1,20,0,0

[Colours]
Combo1 : 0,255,0
Combo2 : 0,147,255
Combo3 : 189,0,95
Combo4 : 242,24,0
Combo5 : 255,192,0
SliderBorder : 255,255,255

[HitObjects]
68,61,2648,5,2,0:0:0:0:
102,152,2982,2,0,P|155:200|286:178,1,200,8|0,0:0|0:0,0:0:0:0:
254,88,3982,1,2,0:0:0:0:
351,97,4315,2,0,P|420:167|425:204,1,100,2|0,0:0|0:0,0:0:0:0:
438,211,4815,1,2,0:0:0:0:
345,328,5315,5,2,0:0:0:0:
251,361,5648,2,0,P|261:273|296:246,1,100,2|0,0:0|0:0,0:0:0:0:
355,222,6315,2,0,P|286:170|233:179,1,100,2|0,0:0|0:0,0:0:0:0:
184,128,6982,2,0,L|117:333,1,200,2|0,0:0|0:0,0:0:0:0:
219,295,7981,6,0,P|246:304|273:319,1,50
313,326,8315,2,0,B|366:336|366:336|329:247|332:165,1,200,2|0,0:0|0:0,0:0:0:0:
232,200,9315,1,0,0:0:0:0:
185,111,9648,2,0,L|109:197,2,100,2|0|2,0:0|0:0|0:0,0:0:0:0:
282,121,10648,5,2,0:0:0:0:
310,24,10982,2,0,P|361:56|377:103,1,100,2|0,0:0|0:0,0:0:0:0:
463,139,11648,2,0,P|423:184|368:189,1,100,2|0,0:0|0:0,0:0:0:0:
286,183,12314,2,0,L|162:161,2,100,2|0|8,0:0|0:0|3:0,0:0:0:0:
289,283,13315,5,0,0:0:0:0:
261,379,13648,2,0,P|215:358|187:318,1,100,2|0,0:0|0:0,0:0:0:0:
88,299,14315,2,0,P|104:252|146:226,1,100,2|0,0:0|0:0,0:0:0:0:
193,138,14982,2,0,P|228:172|242:226,2,100,2|0|8,0:0|0:0|3:0,0:0:0:0:
95,115,15982,5,0,0:0:0:0:
36,195,16315,2,0,L|54:310,1,100,2|0,0:0|0:0,0:0:0:0:
123,362,16981,2,0,P|177:348|233:355,1,100,2|0,0:0|0:0,0:0:0:0:
273,266,17648,2,0,P|270:169|355:167,1,200,2|8,0:0|3:0,0:0:0:0:
376,262,18648,5,0,0:0:0:0:
458,319,18982,2,0,P|505:251|501:130,1,200,2|0,0:0|0:0,0:0:0:0:
450,52,19982,2,0,P|407:46|349:82,1,100,2|0,0:0|0:0,0:0:0:0:
266,111,20648,2,0,L|298:199,2,50,0|0|8,0:0|0:0|3:0,0:0:0:0:
175,153,21315,5,0,0:0:0:0:
104,223,21648,2,0,P|154:255|194:250,1,100,2|0,0:0|0:0,0:0:0:0:
285,287,22315,2,0,B|287:268|294:224|259:182,1,100,2|0,0:0|0:0,0:0:0:0:
256,192,22982,12,0,25648,0:0:0:0:
278,147,33648,5,4,0:0:0:0:
363,94,33982,2,0,P|331:56|282:48,1,100
190,85,34648,1,0,0:0:0:0:
190,85,34815,2,0,L|139:262,1,150,0|8,0:0|0:0,0:0:0:0:
210,307,35648,1,0,0:0:0:0:
304,338,35981,6,0,P|341:337|373:326,1,50
396,308,36315,2,0,P|352:240|313:233,1,100,4|0,0:0|0:0,0:0:0:0:
239,252,36982,2,0,P|251:185|287:150,1,100
302,123,37481,2,0,P|297:80|185:62,1,150,8|0,0:0|0:0,0:0:0:0:
115,85,38314,1,8,0:0:0:0:
57,166,38648,6,0,P|53:201|48:226,1,50
42,265,38982,2,0,P|47:315|87:371,1,100,4|0,0:0|0:0,0:0:0:0:
142,286,39648,1,0,0:0:0:0:
181,193,39982,1,0,0:0:0:0:
221,164,40148,2,0,P|301:189|330:282,1,150
250,302,40981,1,0,0:0:0:0:
153,274,41315,6,0,L|90:238,1,50
68,220,41648,2,0,P|33:185|39:120,1,100,8|0,3:0|0:0,0:0:0:0:
34,86,42148,2,0,P|92:49|185:82,1,150,8|0,3:0|0:0,0:0:0:0:
204,100,42815,2,0,P|264:159|359:162,1,150,8|0,3:0|0:0,0:0:0:0:
425,169,43648,6,0,P|416:217|348:266,1,100
358,350,44314,2,0,P|310:330|284:280,1,100,4|0,0:0|0:0,0:0:0:0:
209,266,44982,2,0,P|246:217|301:211,1,100
331,209,45482,1,0,0:0:0:0:
380,209,45648,2,0,P|447:138|353:105,1,200,2|0,0:0|0:0,0:0:0:0:
283,92,46648,5,0,0:0:0:0:
213,164,46982,2,0,P|161:90|127:87,1,100,8|0,3:0|0:0,0:0:0:0:
116,179,47648,2,0,P|130:225|170:253,1,100
220,259,48148,2,0,P|300:235|388:263,1,150,2|0,0:0|0:0,0:0:0:0:
435,318,48981,2,0,P|459:274|459:218,1,100,2|0,0:0|0:0,0:0:0:0:
453,127,49648,6,0,P|424:80|379:61,1,100,4|0,0:0|0:0,0:0:0:0:
285,50,50315,1,0,0:0:0:0:
315,144,50648,1,0,0:0:0:0:
375,223,50982,2,0,P|281:239|217:138,1,200,10|0,0:0|0:0,0:0:0:0:
271,75,51981,5,0,0:0:0:0:
222,62,52148,1,0,0:0:0:0:
172,68,52315,2,0,P|127:116|120:158,1,100,8|0,3:0|0:0,0:0:0:0:
116,197,52814,2,0,P|125:251|75:309,1,100,8|0,3:0|0:0,0:0:0:0:
21,345,53482,2,0,P|88:388|175:349,1,150,8|0,3:0|0:0,0:0:0:0:
229,307,54315,2,2,L|249:219,2,50
324,275,54982,6,0,P|426:283|482:210,1,200,4|0,0:0|1:0,0:0:0:0:
449,117,55981,1,0,0:0:0:0:
385,193,56314,2,0,P|283:185|227:258,1,200,8|0,2:0|1:0,0:0:0:0:
78,57,57648,6,0,L|114:185,1,100,8|0,0:0|0:0,0:0:0:0:
135,249,58314,1,0,1:0:0:0:
215,188,58648,1,0,0:0:0:0:
275,108,58982,2,0,P|313:188|255:278,1,200,8|0,0:0|1:0,0:0:0:0:
68,213,60315,6,0,P|119:177|172:189,1,100,4|0,0:0|0:0,0:0:0:0:
142,279,60982,1,0,1:0:0:0:
234,240,61315,1,0,0:0:0:0:
274,331,61648,2,0,P|336:258|297:160,1,200,8|0,0:0|1:0,0:0:0:0:
208,142,62648,1,0,0:0:0:0:
226,240,62982,6,0,P|128:194|132:83,1,200,4|0,0:0|1:0,0:0:0:0:
163,22,63982,1,0,0:0:0:0:
229,95,64314,1,8,0:0:0:0:
289,175,64648,2,0,P|315:239|297:295,1,100,0|0,0:0|1:0,0:0:0:0:
271,359,65314,1,0,0:0:0:0:
173,337,65648,6,0,L|98:236,1,100,4|8,0:0|0:0,0:0:0:0:
103,157,66315,1,0,1:0:0:0:
192,113,66648,1,0,0:0:0:0:
224,207,66982,2,0,P|268:175|288:115,1,100,8|0,0:0|0:0,0:0:0:0:
380,168,67648,1,0,1:0:0:0:
325,251,67982,1,0,0:0:0:0:
423,268,68315,6,0,P|395:324|323:344,1,100,4|0,0:0|3:0,0:0:0:0:
325,251,68982,2,0,P|353:195|425:175,1,100
431,160,69482,1,0,0:0:0:0:
478,146,69648,2,0,P|510:102|398:50,1,200,8|0,0:0|0:0,0:0:0:0:
327,78,70648,1,0,0:0:0:0:
336,175,70982,6,0,P|304:213|257:226,1,100,4|0,0:0|0:0,0:0:0:0:
167,180,71648,2,0,P|198:141|246:129,1,100,0|0,1:0|0:0,0:0:0:0:
252,29,72315,2,0,P|308:57|332:113,1,100,8|0,0:0|0:0,0:0:0:0:
337,187,72982,1,0,1:0:0:0:
424,138,73315,1,0,0:0:0:0:
495,207,73648,6,0,P|435:255|387:255,1,100,4|0,0:0|0:0,0:0:0:0:
365,345,74315,2,0,P|316:271|329:233,1,100,0|0,1:0|0:0,0:0:0:0:
336,167,74982,1,8,0:0:0:0:
254,108,75315,1,0,0:0:0:0:
204,194,75648,2,2,L|121:171,2,50
252,207,76148,1,0,0:0:0:0:
135,74,77315,5,0,0:0:0:0:
135,74,77482,1,0,0:0:0:0:
135,74,77648,2,0,P|183:138|183:194,1,100,8|0,3:0|1:0,0:0:0:0:
110,221,78315,2,0,P|170:257|222:245,1,100,8|0,0:0|1:0,0:0:0:0:
280,198,78981,1,0,0:0:0:0:
227,112,79315,2,0,L|195:32,2,50,0|0|8,1:0|0:0|0:0,0:0:0:0:
130,139,79982,1,0,1:0:0:0:
96,233,80315,6,0,P|116:278|168:298,1,100,4|0,0:0|1:0,0:0:0:0:
186,201,80981,2,0,P|234:220|262:277,1,100,8|0,0:0|1:0,0:0:0:0:
283,303,81482,1,0,0:0:0:0:
308,345,81648,2,0,P|372:357|380:229,1,200,8|0,0:0|1:0,0:0:0:0:
370,155,82648,5,0,0:0:0:0:
370,155,82815,1,0,0:0:0:0:
370,155,82982,2,0,P|318:91|262:79,1,100,8|0,3:0|1:0,0:0:0:0:
232,15,83648,2,0,P|200:67|208:119,1,100,8|0,0:0|1:0,0:0:0:0:
252,190,84315,1,0,0:0:0:0:
161,190,84648,2,0,L|93:170,2,50,0|0|8,1:0|0:0|0:0,0:0:0:0:
163,290,85315,1,0,1:0:0:0:
108,373,85648,6,0,P|64:317|64:281,1,100,8|0,3:0|1:0,0:0:0:0:
61,190,86315,1,8,0:0:0:0:
108,102,86648,1,0,1:0:0:0:
108,102,86815,1,0,0:0:0:0:
108,102,86982,2,2,L|224:83,2,100,8|2|2,3:0|0:0|0:0,0:0:0:0:
172,178,87981,1,0,1:0:0:0:
200,279,88314,6,0,P|242:253|265:210,1,100,8|0,3:0|1:0,0:0:0:0:
250,111,88982,2,0,P|299:111|338:140,1,100,8|0,0:0|1:0,0:0:0:0:
369,235,89648,2,0,P|425:187|437:139,1,100,0|0,0:0|1:0,0:0:0:0:
449,116,90148,1,0,0:0:0:0:
435,68,90314,1,8,0:0:0:0:
338,96,90648,5,0,1:0:0:0:
338,96,90815,1,0,0:0:0:0:
338,96,90982,2,0,P|266:64|210:72,1,100,8|0,0:0|1:0,0:0:0:0:
150,36,91648,2,0,P|145:84|171:126,1,100,8|0,0:0|1:0,0:0:0:0:
203,165,92148,1,0,0:0:0:0:
243,195,92315,2,2,P|285:220|320:269,2,100
228,294,93315,1,0,1:0:0:0:
143,346,93648,6,0,P|130:299|137:250,1,100,8|0,3:0|1:0,0:0:0:0:
59,187,94314,2,0,P|101:153|160:157,1,100,8|0,0:0|1:0,0:0:0:0:
242,176,94982,1,8,0:0:0:0:
168,243,95315,2,0,P|206:272|274:259,1,100,0|0,1:0|0:0,0:0:0:0:
348,231,95982,1,0,1:0:0:0:
411,153,96315,6,0,P|361:129|294:145,1,100,8|0,3:0|1:0,0:0:0:0:
235,190,96982,2,0,P|219:137|229:92,1,100,8|0,0:0|1:0,0:0:0:0:
256,192,97648,12,0,99982,0:0:0:0:
