osu file format v14

[General]
AudioFilename: audio.mp3
AudioLeadIn: 0
PreviewTime: 62933
Countdown: 0
SampleSet: Normal
StackLeniency: 0.7
Mode: 1
LetterboxInBreaks: 0
WidescreenStoryboard: 1

[Editor]
Bookmarks: 8447,18825,29203,39582,54987,62933,100555,110933,121311,131690,142068,152446,162825,180987,196555,202879,244555
DistanceSpacing: 2.2
BeatDivisor: 2
GridSize: 32
TimelineZoom: 1.199999

[Metadata]
Title:Zenbu Kimi ga Ita kara Shittanda
TitleUnicode:全部君がいたから知ったんだ
Artist:Suzuki Konomi
ArtistUnicode:鈴木このみ
Creator:Zhuosh
Version:Kantan
Source:天華百剣 -斬-
Tags:catzertm hellfly _hellfly_ japanese jrock rock j-rock pop jpop j-pop tenka hyakken -zan- video game lead konomin
BeatmapID:4413711
BeatmapSetID:1933820

[Difficulty]
HPDrainRate:8
CircleSize:4
OverallDifficulty:3
ApproachRate:10
SliderMultiplier:1.4
SliderTickRate:1

[Events]
//Background and Video events
0,0,"bg.jpg",0,30
//Break Periods
2,180987,190890
//Storyboard Layer 0 (Background)
//Storyboard Layer 1 (Fail)
//Storyboard Layer 2 (Pass)
//Storyboard Layer 3 (Foreground)
//Storyboard Layer 4 (Overlay)
//Storyboard Sound Samples

[TimingPoints]
2079,800,4,1,0,40,1,0
4479,827.586206896552,4,1,0,40,1,8
4892,710.059171597633,4,1,0,40,1,8
5247,800,4,1,0,40,1,0
8447,324.324324324324,4,1,0,70,1,0
62284,-100,4,1,0,100,0,0
62933,-100,4,1,0,90,0,1
78501,-100,4,1,0,90,0,0
83690,-100,4,1,0,90,0,1
88717,-100,4,1,0,90,0,0
94068,-100,4,1,0,90,0,1
99095,-100,4,1,0,90,0,0
100636,-100,4,1,0,70,0,0
109798,-100,4,1,0,100,0,0
110933,-100,4,1,0,70,0,0
131690,-100,4,1,0,80,0,1
136879,-100,4,1,0,80,0,0
177744,-100,4,1,0,100,0,0
178311,-100,4,1,0,60,0,0
180987,-100,4,1,0,50,0,0
191365,-100,4,1,0,60,0,0
196555,-100,4,1,0,70,0,0
202879,-100,4,1,0,100,0,0
204338,-100,4,1,0,90,0,1
217311,-100,4,1,0,90,0,0
222501,-100,4,1,0,90,0,1
227528,-100,4,1,0,90,0,0
238068,-100,4,1,0,100,0,1
243095,-100,4,1,0,100,0,0
252338,-100,4,1,0,80,0,1
254771,-100,4,1,0,80,0,0

[HitObjects]
294,159,8447,5,4,0:0:0:0:
294,159,9744,1,12,0:0:0:0:
294,159,11041,1,4,0:0:0:0:
348,154,11528,1,0,0:0:0:0:
289,151,12014,1,0,0:0:0:0:
306,169,12338,1,12,0:0:0:0:
306,169,12987,1,8,0:0:0:0:
306,169,13636,1,4,0:0:0:0:
249,127,14284,1,8,0:0:0:0:
322,133,14933,1,0,0:0:0:0:
261,122,15257,1,0,0:0:0:0:
261,122,15582,1,8,0:0:0:0:
322,133,15906,1,0,0:0:0:0:
322,133,16230,1,12,0:0:0:0:
237,137,16879,1,8,0:0:0:0:
322,133,17203,1,8,0:0:0:0:
322,133,17528,1,4,0:0:0:0:
301,145,18176,1,12,0:0:0:0:
301,145,18825,1,4,0:0:0:0:
208,144,19798,1,0,0:0:0:0:
284,133,20446,1,8,0:0:0:0:
284,133,20771,1,0,0:0:0:0:
304,144,21419,1,0,0:0:0:0:
283,129,21744,1,8,0:0:0:0:
283,129,22392,1,0,0:0:0:0:
278,137,23041,1,8,0:0:0:0:
296,139,23690,1,0,0:0:0:0:
278,137,24014,1,8,0:0:0:0:
277,140,24338,1,0,0:0:0:0:
272,142,24987,1,0,0:0:0:0:
273,131,25311,1,8,0:0:0:0:
304,144,25960,1,0,0:0:0:0:
208,144,26609,1,8,0:0:0:0:
273,134,27582,1,0,0:0:0:0:
290,150,27906,1,12,0:0:0:0:
290,150,28392,1,12,0:0:0:0:
290,150,29203,1,4,0:0:0:0:
334,113,29528,1,8,0:0:0:0:
271,124,30014,1,8,0:0:0:0:
316,112,30338,1,0,0:0:0:0:
307,110,30825,1,8,0:0:0:0:
270,107,31149,1,0,0:0:0:0:
267,158,31636,1,0,0:0:0:0:
280,122,32122,1,8,0:0:0:0:
284,130,32609,1,8,0:0:0:0:
280,122,32933,1,0,0:0:0:0:
211,130,33419,1,8,0:0:0:0:
279,129,34068,1,0,0:0:0:0:
279,129,34392,1,8,0:0:0:0:
279,129,34717,1,0,0:0:0:0:
219,146,35528,1,8,0:0:0:0:
258,110,36014,1,0,0:0:0:0:
258,110,36338,1,8,0:0:0:0:
208,122,36663,1,8,0:0:0:0:
258,110,36987,1,0,0:0:0:0:
258,110,37636,1,8,0:0:0:0:
258,110,38284,1,0,0:0:0:0:
258,110,38609,1,12,0:0:0:0:
258,110,39257,1,12,0:0:0:0:
258,110,39582,1,4,0:0:0:0:
246,127,40555,1,8,0:0:0:0:
246,127,40879,1,0,0:0:0:0:
246,127,41852,1,8,0:0:0:0:
246,127,42176,1,0,0:0:0:0:
246,127,42663,1,0,0:0:0:0:
246,127,43149,1,8,0:0:0:0:
246,127,43474,1,0,0:0:0:0:
246,127,43798,1,12,0:0:0:0:
246,127,44446,1,12,0:0:0:0:
246,127,44771,1,4,0:0:0:0:
246,127,45744,1,8,0:0:0:0:
246,127,46068,1,0,0:0:0:0:
246,127,47041,1,0,0:0:0:0:
251,131,47365,1,8,0:0:0:0:
251,131,47852,1,8,0:0:0:0:
251,131,48338,1,0,0:0:0:0:
263,120,48663,1,8,0:0:0:0:
253,123,49311,1,0,0:0:0:0:
270,128,49636,1,8,0:0:0:0:
253,123,49960,1,0,0:0:0:0:
253,123,50284,1,0,0:0:0:0:
253,123,50771,1,8,0:0:0:0:
253,123,51095,1,4,0:0:0:0:
218,102,51744,1,8,0:0:0:0:
228,105,52555,1,0,0:0:0:0:
229,104,52879,1,8,0:0:0:0:
229,104,53365,1,8,0:0:0:0:
228,105,53690,1,4,0:0:0:0:
229,104,54338,1,0,0:0:0:0:
253,130,54663,1,0,0:0:0:0:
229,104,54987,1,12,0:0:0:0:
179,159,57419,1,12,0:0:0:0:
179,159,57744,1,0,0:0:0:0:
273,122,58230,1,8,0:0:0:0:
273,122,58555,1,0,0:0:0:0:
273,122,58879,1,8,0:0:0:0:
229,107,59365,1,0,0:0:0:0:
273,122,59690,1,8,0:0:0:0:
273,122,60338,1,8,0:0:0:0:
273,122,60825,1,8,0:0:0:0:
273,122,61311,1,8,0:0:0:0:
261,162,62284,1,4,0:0:0:0:
312,168,62933,1,12,0:0:0:0:
312,168,63257,1,0,0:0:0:0:
312,168,63582,1,8,0:0:0:0:
312,168,64068,1,8,0:0:0:0:
312,168,64555,1,0,0:0:0:0:
312,168,64879,1,8,0:0:0:0:
312,168,65203,1,8,0:0:0:0:
312,168,65528,1,0,0:0:0:0:
306,174,66176,1,8,0:0:0:0:
306,174,66501,1,8,0:0:0:0:
306,174,66825,1,0,0:0:0:0:
306,174,67149,1,0,0:0:0:0:
306,174,67474,1,8,0:0:0:0:
248,162,68122,1,12,0:0:0:0:
334,144,68771,1,0,0:0:0:0:
249,126,69095,1,0,0:0:0:0:
249,126,69419,1,8,0:0:0:0:
249,126,70068,1,8,0:0:0:0:
334,144,70717,1,4,0:0:0:0:
334,144,71041,1,4,0:0:0:0:
334,144,71365,1,12,0:0:0:0:
244,150,71690,1,12,0:0:0:0:
334,144,72014,1,0,0:0:0:0:
334,144,73311,1,4,0:0:0:0:
296,137,73636,1,8,0:0:0:0:
296,137,73960,1,0,0:0:0:0:
296,137,74446,1,8,0:0:0:0:
261,158,74933,1,8,0:0:0:0:
261,158,75257,1,0,0:0:0:0:
261,158,75582,1,8,0:0:0:0:
282,151,75906,1,8,0:0:0:0:
307,144,76555,1,0,0:0:0:0:
235,122,76879,1,8,0:0:0:0:
235,122,77203,1,4,0:0:0:0:
215,86,77852,1,8,0:0:0:0:
215,86,78176,1,8,0:0:0:0:
222,115,78501,1,4,0:0:0:0:
221,133,79798,1,8,0:0:0:0:
221,133,80446,1,0,0:0:0:0:
221,133,80771,1,8,0:0:0:0:
221,133,81095,1,4,0:0:0:0:
279,162,81582,1,8,0:0:0:0:
263,154,82068,1,8,0:0:0:0:
241,153,82392,1,0,0:0:0:0:
245,153,83041,1,0,0:0:0:0:
300,183,83365,1,0,0:0:0:0:
307,197,83690,1,12,0:0:0:0:
315,189,84338,1,8,0:0:0:0:
315,189,84663,1,0,0:0:0:0:
315,189,84987,1,12,0:0:0:0:
304,190,85636,1,8,0:0:0:0:
254,163,85960,1,8,0:0:0:0:
298,175,86284,1,12,0:0:0:0:
298,175,86933,1,8,0:0:0:0:
298,175,87257,1,0,0:0:0:0:
298,175,87582,1,12,0:0:0:0:
298,175,88230,1,8,0:0:0:0:
298,175,88717,1,4,0:0:0:0:
257,120,89528,1,8,0:0:0:0:
257,120,90501,1,0,0:0:0:0:
232,136,90825,1,8,0:0:0:0:
232,136,91311,1,4,0:0:0:0:
270,122,91798,1,0,0:0:0:0:
322,134,92122,1,8,0:0:0:0:
322,134,92446,1,8,0:0:0:0:
322,134,92771,1,0,0:0:0:0:
197,141,93419,1,8,0:0:0:0:
322,134,93744,1,0,0:0:0:0:
322,134,94068,1,8,0:0:0:0:
255,117,94717,1,8,0:0:0:0:
261,109,95365,1,8,0:0:0:0:
261,109,95690,1,0,0:0:0:0:
261,109,96014,1,8,0:0:0:0:
261,109,96338,1,8,0:0:0:0:
306,138,96663,1,0,0:0:0:0:
306,138,97311,1,8,0:0:0:0:
306,138,97636,1,8,0:0:0:0:
306,138,97960,1,0,0:0:0:0:
327,125,98609,1,0,0:0:0:0:
327,125,99095,1,12,0:0:0:0:
227,110,100230,1,8,0:0:0:0:
227,110,100555,1,4,0:0:0:0:
286,148,101203,1,0,0:0:0:0:
299,152,101690,1,12,0:0:0:0:
299,152,102176,1,0,0:0:0:0:
299,152,102501,1,8,0:0:0:0:
299,152,102825,1,8,0:0:0:0:
299,152,103149,1,0,0:0:0:0:
299,152,103798,1,8,0:0:0:0:
299,152,104284,1,12,0:0:0:0:
299,152,104771,1,0,0:0:0:0:
299,152,105095,1,8,0:0:0:0:
299,152,105419,1,8,0:0:0:0:
299,152,105744,1,4,0:0:0:0:
263,110,106392,1,8,0:0:0:0:
203,122,106717,1,8,0:0:0:0:
215,127,107041,1,0,0:0:0:0:
193,140,107528,1,8,0:0:0:0:
277,145,108014,1,0,0:0:0:0:
277,145,108338,1,8,0:0:0:0:
265,136,108825,1,8,0:0:0:0:
265,136,109149,1,0,0:0:0:0:
265,136,109474,1,0,0:0:0:0:
225,143,109798,1,12,0:0:0:0:
225,143,110284,1,12,0:0:0:0:
234,139,110933,1,0,0:0:0:0:
257,161,111419,1,8,0:0:0:0:
257,161,111744,1,8,0:0:0:0:
237,198,112068,1,0,0:0:0:0:
233,168,113203,1,8,0:0:0:0:
250,152,113528,1,0,0:0:0:0:
257,149,114014,1,8,0:0:0:0:
257,149,114338,1,8,0:0:0:0:
257,149,114663,1,0,0:0:0:0:
239,127,115311,1,0,0:0:0:0:
239,127,115798,1,8,0:0:0:0:
266,152,116122,1,4,0:0:0:0:
345,173,116771,1,0,0:0:0:0:
310,176,117419,1,8,0:0:0:0:
310,176,117744,1,0,0:0:0:0:
310,176,118068,1,8,0:0:0:0:
310,176,118392,1,8,0:0:0:0:
310,176,118717,1,0,0:0:0:0:
319,134,119365,1,8,0:0:0:0:
295,163,119690,1,0,0:0:0:0:
295,163,120014,1,12,0:0:0:0:
256,135,121311,1,0,0:0:0:0:
256,135,121960,1,8,0:0:0:0:
296,152,122609,1,0,0:0:0:0:
296,152,123257,1,0,0:0:0:0:
296,152,123906,1,8,0:0:0:0:
296,152,124230,1,0,0:0:0:0:
296,152,124555,1,8,0:0:0:0:
330,157,125203,1,0,0:0:0:0:
330,157,125852,1,8,0:0:0:0:
330,157,126176,1,8,0:0:0:0:
330,157,126501,1,0,0:0:0:0:
298,164,127636,1,4,0:0:0:0:
285,171,128122,1,8,0:0:0:0:
285,171,128771,1,8,0:0:0:0:
285,171,129095,1,4,0:0:0:0:
278,170,129744,1,8,0:0:0:0:
285,171,130068,1,8,0:0:0:0:
285,171,130392,1,4,0:0:0:0:
288,147,131041,1,8,0:0:0:0:
288,147,131365,1,0,0:0:0:0:
285,171,131690,1,12,0:0:0:0:
316,152,132338,1,8,0:0:0:0:
325,187,132825,1,8,0:0:0:0:
325,187,133311,1,0,0:0:0:0:
325,187,133636,1,8,0:0:0:0:
325,187,133960,1,8,0:0:0:0:
340,226,134284,1,0,0:0:0:0:
264,115,134933,1,8,0:0:0:0:
340,226,135419,1,8,0:0:0:0:
340,226,135906,1,0,0:0:0:0:
340,226,136230,1,8,0:0:0:0:
340,226,136555,1,8,0:0:0:0:
340,226,136879,1,0,0:0:0:0:
327,139,137528,1,8,0:0:0:0:
327,139,138176,1,0,0:0:0:0:
247,128,138501,1,8,0:0:0:0:
327,139,139474,1,0,0:0:0:0:
251,136,139798,1,8,0:0:0:0:
275,141,140122,1,0,0:0:0:0:
309,123,140771,1,8,0:0:0:0:
309,123,141419,1,8,0:0:0:0:
309,123,141744,1,8,0:0:0:0:
309,123,142068,1,4,0:0:0:0:
240,128,142392,1,8,0:0:0:0:
280,151,143041,1,8,0:0:0:0:
280,151,143365,1,0,0:0:0:0:
222,139,143690,1,0,0:0:0:0:
222,139,144014,1,8,0:0:0:0:
231,146,144663,1,8,0:0:0:0:
222,139,144987,1,8,0:0:0:0:
222,139,145311,1,8,0:0:0:0:
222,139,145798,1,0,0:0:0:0:
222,139,146284,1,8,0:0:0:0:
281,167,147257,1,12,0:0:0:0:
299,147,147744,1,12,0:0:0:0:
299,147,148230,1,0,0:0:0:0:
299,147,148717,1,12,0:0:0:0:
299,147,149203,1,8,0:0:0:0:
299,146,149528,1,0,0:0:0:0:
299,147,149852,1,12,0:0:0:0:
342,143,150338,1,12,0:0:0:0:
342,143,150825,1,12,0:0:0:0:
252,138,151798,1,8,0:0:0:0:
345,117,152122,1,8,0:0:0:0:
345,117,152446,1,4,0:0:0:0:
244,121,152771,1,8,0:0:0:0:
349,156,153419,1,8,0:0:0:0:
349,156,153744,1,0,0:0:0:0:
349,156,154068,1,8,0:0:0:0:
349,156,154717,1,8,0:0:0:0:
302,174,155041,1,0,0:0:0:0:
285,144,155690,1,8,0:0:0:0:
285,144,156014,1,8,0:0:0:0:
285,144,156338,1,0,0:0:0:0:
278,134,156663,1,12,0:0:0:0:
278,134,157311,1,12,0:0:0:0:
278,134,157636,1,4,0:0:0:0:
266,110,158609,1,8,0:0:0:0:
266,110,158933,1,0,0:0:0:0:
272,124,159257,1,8,0:0:0:0:
272,124,159906,1,8,0:0:0:0:
238,148,160230,1,0,0:0:0:0:
238,148,160879,1,8,0:0:0:0:
238,148,161203,1,8,0:0:0:0:
216,115,161528,1,0,0:0:0:0:
216,115,162176,1,8,0:0:0:0:
216,115,162501,1,0,0:0:0:0:
216,115,162825,1,8,0:0:0:0:
216,115,163149,1,8,0:0:0:0:
216,115,163636,1,0,0:0:0:0:
216,115,163960,1,12,0:0:0:0:
216,115,164609,1,0,0:0:0:0:
216,115,165419,1,0,0:0:0:0:
216,115,165744,1,8,0:0:0:0:
216,115,166230,1,8,0:0:0:0:
216,115,166555,1,4,0:0:0:0:
216,115,167690,1,0,0:0:0:0:
216,115,168014,1,8,0:0:0:0:
216,115,168501,1,8,0:0:0:0:
216,115,168987,1,8,0:0:0:0:
216,115,169474,1,8,0:0:0:0:
216,115,169960,1,0,0:0:0:0:
216,115,170609,1,8,0:0:0:0:
216,115,171095,1,0,0:0:0:0:
216,115,171419,1,0,0:0:0:0:
216,115,171744,1,8,0:0:0:0:
216,115,172230,1,0,0:0:0:0:
216,115,172555,1,8,0:0:0:0:
216,115,172879,1,8,0:0:0:0:
216,115,173203,1,4,0:0:0:0:
216,115,173690,1,4,0:0:0:0:
216,115,174176,1,4,0:0:0:0:
204,108,174825,1,8,0:0:0:0:
221,121,175149,1,8,0:0:0:0:
216,115,175474,1,8,0:0:0:0:
216,115,175798,1,4,0:0:0:0:
194,99,176284,1,4,0:0:0:0:
213,101,176771,1,4,0:0:0:0:
269,134,177419,1,0,0:0:0:0:
233,143,177744,1,12,0:0:0:0:
233,143,178068,1,12,0:0:0:0:
284,139,191365,5,4,0:0:0:0:
208,144,192014,1,8,0:0:0:0:
208,144,192663,1,0,0:0:0:0:
208,144,193311,1,8,0:0:0:0:
208,144,193636,1,0,0:0:0:0:
304,144,193960,1,8,0:0:0:0:
304,144,194609,1,0,0:0:0:0:
304,144,195257,1,8,0:0:0:0:
208,144,196230,1,0,0:0:0:0:
301,173,196555,1,12,0:0:0:0:
301,173,197203,1,0,0:0:0:0:
296,168,197852,1,0,0:0:0:0:
266,130,198176,1,0,0:0:0:0:
296,168,198501,1,8,0:0:0:0:
296,168,198825,1,8,0:0:0:0:
296,168,199149,1,4,0:0:0:0:
296,168,199798,1,8,0:0:0:0:
296,168,200446,1,8,0:0:0:0:
253,149,200771,1,0,0:0:0:0:
296,168,201095,1,8,0:0:0:0:
296,168,201419,1,8,0:0:0:0:
296,168,201744,1,0,0:0:0:0:
296,168,202879,1,12,0:0:0:0:
312,168,203365,1,12,0:0:0:0:
205,162,203690,1,4,0:0:0:0:
194,153,204014,1,4,0:0:0:0:
312,168,204338,1,12,0:0:0:0:
306,174,204987,1,8,0:0:0:0:
306,174,205312,1,8,0:0:0:0:
306,174,205636,1,0,0:0:0:0:
306,174,205960,1,0,0:0:0:0:
306,174,206285,1,8,0:0:0:0:
248,162,206933,1,12,0:0:0:0:
334,144,207582,1,0,0:0:0:0:
249,126,207906,1,0,0:0:0:0:
249,126,208230,1,8,0:0:0:0:
249,126,208879,1,8,0:0:0:0:
334,144,209528,1,4,0:0:0:0:
334,144,209852,1,4,0:0:0:0:
334,144,210176,1,12,0:0:0:0:
244,150,210501,1,12,0:0:0:0:
334,144,210825,1,0,0:0:0:0:
334,144,212122,1,4,0:0:0:0:
296,137,212447,1,8,0:0:0:0:
296,137,212771,1,0,0:0:0:0:
296,137,213257,1,8,0:0:0:0:
261,158,213744,1,8,0:0:0:0:
261,158,214068,1,0,0:0:0:0:
261,158,214393,1,8,0:0:0:0:
282,151,214717,1,8,0:0:0:0:
307,144,215366,1,0,0:0:0:0:
235,122,215690,1,8,0:0:0:0:
235,122,216014,1,4,0:0:0:0:
215,86,216663,1,8,0:0:0:0:
215,86,216987,1,8,0:0:0:0:
222,115,217312,1,4,0:0:0:0:
221,133,218609,1,8,0:0:0:0:
221,133,219257,1,0,0:0:0:0:
221,133,219582,1,8,0:0:0:0:
221,133,219906,1,4,0:0:0:0:
279,162,220393,1,8,0:0:0:0:
263,154,220879,1,8,0:0:0:0:
241,153,221203,1,0,0:0:0:0:
245,153,221852,1,0,0:0:0:0:
300,183,222176,1,0,0:0:0:0:
307,197,222501,1,12,0:0:0:0:
315,189,223149,1,8,0:0:0:0:
315,189,223474,1,0,0:0:0:0:
315,189,223798,1,12,0:0:0:0:
304,190,224447,1,8,0:0:0:0:
254,163,224771,1,8,0:0:0:0:
298,175,225095,1,12,0:0:0:0:
298,175,225744,1,8,0:0:0:0:
298,175,226068,1,0,0:0:0:0:
298,175,226393,1,12,0:0:0:0:
298,175,227041,1,8,0:0:0:0:
298,175,227528,1,4,0:0:0:0:
257,120,228339,1,8,0:0:0:0:
257,120,229312,1,0,0:0:0:0:
232,136,229636,1,8,0:0:0:0:
232,136,230122,1,4,0:0:0:0:
270,122,230609,1,0,0:0:0:0:
322,134,230933,1,8,0:0:0:0:
322,134,231257,1,8,0:0:0:0:
322,134,231582,1,0,0:0:0:0:
197,141,232230,1,8,0:0:0:0:
322,134,232555,1,0,0:0:0:0:
322,134,232879,1,8,0:0:0:0:
248,154,233528,1,8,0:0:0:0:
248,154,234176,1,0,0:0:0:0:
251,158,234825,1,8,0:0:0:0:
251,158,235149,1,0,0:0:0:0:
324,120,235474,1,12,0:0:0:0:
317,120,236122,1,8,0:0:0:0:
269,136,236446,1,8,0:0:0:0:
317,120,236771,1,0,0:0:0:0:
317,121,237419,1,0,0:0:0:0:
317,120,237744,1,0,0:0:0:0:
317,121,238068,1,12,0:0:0:0:
269,134,238392,1,0,0:0:0:0:
263,130,238717,1,8,0:0:0:0:
263,130,239365,1,8,0:0:0:0:
263,130,239690,1,8,0:0:0:0:
263,130,240014,1,0,0:0:0:0:
263,135,240663,1,8,0:0:0:0:
263,135,240987,1,8,0:0:0:0:
263,135,241311,1,0,0:0:0:0:
262,140,241636,1,0,0:0:0:0:
262,140,241960,1,8,0:0:0:0:
262,140,242609,1,0,0:0:0:0:
267,145,243095,1,8,0:0:0:0:
237,173,244230,1,8,0:0:0:0:
227,110,244555,1,4,0:0:0:0:
286,148,245203,1,0,0:0:0:0:
299,152,245690,1,12,0:0:0:0:
299,152,246176,1,0,0:0:0:0:
299,152,246501,1,8,0:0:0:0:
299,152,246825,1,8,0:0:0:0:
299,152,247149,1,0,0:0:0:0:
299,152,247798,1,8,0:0:0:0:
299,152,248284,1,12,0:0:0:0:
299,152,248771,1,0,0:0:0:0:
299,152,249095,1,8,0:0:0:0:
299,152,249419,1,8,0:0:0:0:
299,152,249744,1,4,0:0:0:0:
263,110,250392,1,8,0:0:0:0:
203,122,250879,1,12,0:0:0:0:
193,140,251528,1,0,0:0:0:0:
277,145,252014,1,8,0:0:0:0:
277,145,252338,1,4,0:0:0:0:
265,136,252825,1,8,0:0:0:0:
237,134,253311,1,8,0:0:0:0:
225,143,253798,1,8,0:0:0:0:
237,132,254284,1,0,0:0:0:0:
254,135,254609,1,8,0:0:0:0:
