osu file format v14

[General]
AudioFilename: audio.mp3
AudioLeadIn: 0
PreviewTime: 62933
Countdown: 0
SampleSet: Normal
StackLeniency: 0.7
Mode: 1
LetterboxInBreaks: 0
WidescreenStoryboard: 1

[Editor]
Bookmarks: 8447,18825,29203,39582,54987,62933,100555,110933,121311,131690,142068,152446,162825,180987,196555,202879,244555
DistanceSpacing: 2.2
BeatDivisor: 4
GridSize: 4
TimelineZoom: 1.999999

[Metadata]
Title:Zenbu Kimi ga Ita kara Shittanda
TitleUnicode:全部君がいたから知ったんだ
Artist:Suzuki Konomi
ArtistUnicode:鈴木このみ
Creator:Zhuosh
Version:Catzer's Muzukashii
Source:天華百剣 -斬-
Tags:catzertm hellfly _hellfly_ japanese jrock rock j-rock pop jpop j-pop tenka hyakken -zan- video game lead konomin
BeatmapID:4288805
BeatmapSetID:1933820

[Difficulty]
HPDrainRate:6
CircleSize:4
OverallDifficulty:5.5
ApproachRate:10
SliderMultiplier:1.4
SliderTickRate:1

[Events]
//Background and Video events
0,0,"bg.jpg",0,30
//Break Periods
2,181187,190915
//Storyboard Layer 0 (Background)
//Storyboard Layer 1 (Fail)
//Storyboard Layer 2 (Pass)
//Storyboard Layer 3 (Foreground)
//Storyboard Layer 4 (Overlay)
//Storyboard Sound Samples

[TimingPoints]
2079,800,4,1,0,40,1,0
4479,827.586206896552,4,1,0,40,1,8
4892,710.059171597633,4,1,0,40,1,8
5247,800,4,1,0,40,1,0
8447,324.324324324324,4,1,0,80,1,0
62933,-100,4,1,0,90,0,1
78501,-100,4,1,0,90,0,0
83690,-100,4,1,0,90,0,1
88717,-100,4,1,0,90,0,0
94068,-100,4,1,0,90,0,1
99095,-100,4,1,0,90,0,0
131690,-100,4,1,0,80,0,1
136879,-100,4,1,0,80,0,0
204338,-100,4,1,0,90,0,1
217311,-100,4,1,0,90,0,0
222501,-100,4,1,0,90,0,1
227528,-100,4,1,0,90,0,0
238068,-100,4,1,0,100,0,1
243095,-100,4,1,0,100,0,0

[HitObjects]
69,103,8447,5,12,0:0:0:0:
121,161,9744,1,4,0:0:0:0:
146,154,11041,1,4,0:0:0:0:
84,163,11528,1,8,0:0:0:0:
251,204,12014,1,0,0:0:0:0:
251,204,12338,1,12,0:0:0:0:
32,145,12987,1,0,0:0:0:0:
32,145,13311,1,8,0:0:0:0:
30,133,13636,1,0,0:0:0:0:
294,91,13960,1,8,0:0:0:0:
191,133,14122,1,8,0:0:0:0:
252,75,14284,1,0,0:0:0:0:
218,106,14446,1,8,0:0:0:0:
163,96,14609,1,0,0:0:0:0:
184,133,14771,1,0,0:0:0:0:
170,165,15095,1,0,0:0:0:0:
170,165,15257,1,0,0:0:0:0:
170,165,15419,1,8,0:0:0:0:
84,99,15744,1,8,0:0:0:0:
283,119,15906,1,0,0:0:0:0:
283,119,15987,1,0,0:0:0:0:
170,165,16068,1,0,0:0:0:0:
170,165,16230,1,12,0:0:0:0:
148,94,16555,1,8,0:0:0:0:
148,94,16717,1,0,0:0:0:0:
298,220,16879,1,0,0:0:0:0:
298,220,17041,1,8,0:0:0:0:
226,169,17122,1,8,0:0:0:0:
226,169,17203,1,8,0:0:0:0:
226,169,17365,1,0,0:0:0:0:
226,169,17528,1,12,0:0:0:0:
133,91,18176,1,4,0:0:0:0:
98,100,18825,1,4,0:0:0:0:
98,100,19149,1,8,0:0:0:0:
229,145,19474,1,0,0:0:0:0:
167,129,20122,1,0,0:0:0:0:
260,182,20284,1,8,0:0:0:0:
260,182,20446,1,0,0:0:0:0:
149,157,20771,1,0,0:0:0:0:
149,157,20933,1,8,0:0:0:0:
149,157,21095,1,0,0:0:0:0:
149,157,21257,1,0,0:0:0:0:
57,144,21582,1,8,0:0:0:0:
57,144,21744,1,0,0:0:0:0:
29,142,22068,1,0,0:0:0:0:
189,142,22717,1,8,0:0:0:0:
189,142,23041,1,0,0:0:0:0:
189,142,23203,1,0,0:0:0:0:
189,142,23365,1,8,0:0:0:0:
171,163,23528,1,8,0:0:0:0:
171,163,23690,1,0,0:0:0:0:
171,163,23852,1,8,0:0:0:0:
258,190,24176,1,8,0:0:0:0:
258,190,24338,1,0,0:0:0:0:
180,140,24987,1,8,0:0:0:0:
182,149,25149,1,0,0:0:0:0:
146,85,25311,1,0,0:0:0:0:
92,82,25474,1,8,0:0:0:0:
236,140,25636,1,0,0:0:0:0:
132,137,25960,1,0,0:0:0:0:
132,137,26122,1,8,0:0:0:0:
46,127,26446,1,8,0:0:0:0:
96,125,26609,1,0,0:0:0:0:
125,248,26933,1,0,0:0:0:0:
67,259,27095,1,8,0:0:0:0:
67,259,27419,1,0,0:0:0:0:
67,259,27582,1,8,0:0:0:0:
67,259,27744,1,0,0:0:0:0:
67,259,27906,1,8,0:0:0:0:
70,153,28068,1,8,0:0:0:0:
70,153,28230,1,0,0:0:0:0:
70,153,28392,1,8,0:0:0:0:
97,167,28717,1,8,0:0:0:0:
97,167,28879,1,0,0:0:0:0:
97,167,29041,1,0,0:0:0:0:
97,167,29203,1,12,0:0:0:0:
254,170,29528,1,8,0:0:0:0:
226,189,29852,1,0,0:0:0:0:
226,189,30014,1,8,0:0:0:0:
226,189,30338,1,0,0:0:0:0:
192,250,30825,1,8,0:0:0:0:
165,78,31149,1,8,0:0:0:0:
165,78,31311,1,0,0:0:0:0:
165,78,31474,1,8,0:0:0:0:
219,31,31636,1,8,0:0:0:0:
148,122,31798,1,0,0:0:0:0:
86,243,32122,1,8,0:0:0:0:
105,238,32446,1,0,0:0:0:0:
105,238,32609,1,8,0:0:0:0:
105,238,32933,1,0,0:0:0:0:
340,118,33419,1,8,0:0:0:0:
180,135,33744,1,8,0:0:0:0:
180,135,33906,1,0,0:0:0:0:
180,135,34068,1,8,0:0:0:0:
146,112,34230,1,0,0:0:0:0:
211,83,34392,1,0,0:0:0:0:
166,168,34555,1,0,0:0:0:0:
166,168,34717,1,8,0:0:0:0:
173,193,34879,1,0,0:0:0:0:
173,193,35041,1,8,0:0:0:0:
131,250,35203,1,0,0:0:0:0:
131,250,35284,1,0,0:0:0:0:
131,250,35365,1,0,0:0:0:0:
219,133,35528,1,8,0:0:0:0:
130,174,35852,1,0,0:0:0:0:
175,141,36014,1,8,0:0:0:0:
140,205,36338,1,8,0:0:0:0:
140,205,36501,1,8,0:0:0:0:
221,151,36663,1,0,0:0:0:0:
221,151,36825,1,8,0:0:0:0:
221,151,36987,1,0,0:0:0:0:
198,211,37311,1,8,0:0:0:0:
104,126,37474,1,0,0:0:0:0:
157,298,37636,1,8,0:0:0:0:
75,146,37960,1,8,0:0:0:0:
75,146,38122,1,0,0:0:0:0:
136,171,38284,1,0,0:0:0:0:
146,200,38609,1,8,0:0:0:0:
148,190,38852,1,0,0:0:0:0:
148,190,38933,1,0,0:0:0:0:
148,190,39095,1,0,0:0:0:0:
148,190,39257,1,8,0:0:0:0:
162,19,39419,1,0,0:0:0:0:
168,40,39582,1,12,0:0:0:0:
50,193,40068,1,0,0:0:0:0:
50,193,40392,1,0,0:0:0:0:
50,193,40555,1,8,0:0:0:0:
188,161,40879,1,0,0:0:0:0:
139,289,41203,1,0,0:0:0:0:
176,163,41528,1,8,0:0:0:0:
182,94,41690,1,0,0:0:0:0:
188,79,41852,1,8,0:0:0:0:
104,160,42176,1,0,0:0:0:0:
104,160,42663,1,0,0:0:0:0:
104,160,42987,1,0,0:0:0:0:
104,160,43149,1,8,0:0:0:0:
134,298,43474,1,0,0:0:0:0:
178,230,43636,1,0,0:0:0:0:
178,230,43798,1,8,0:0:0:0:
165,234,43960,1,8,0:0:0:0:
165,234,44122,1,0,0:0:0:0:
161,175,44284,1,0,0:0:0:0:
161,175,44446,1,8,0:0:0:0:
169,165,44609,1,0,0:0:0:0:
212,122,44771,1,12,0:0:0:0:
153,161,45257,1,0,0:0:0:0:
153,161,45582,1,0,0:0:0:0:
212,131,45744,1,8,0:0:0:0:
190,179,46068,1,0,0:0:0:0:
215,227,46392,1,8,0:0:0:0:
215,227,46717,1,8,0:0:0:0:
215,227,46879,1,0,0:0:0:0:
215,227,47041,1,8,0:0:0:0:
178,282,47365,1,0,0:0:0:0:
186,255,47690,1,0,0:0:0:0:
195,241,47852,1,8,0:0:0:0:
195,241,48014,1,0,0:0:0:0:
198,240,48176,1,0,0:0:0:0:
198,240,48338,1,8,0:0:0:0:
198,240,48663,1,0,0:0:0:0:
198,250,48825,1,8,0:0:0:0:
198,250,48987,1,0,0:0:0:0:
194,229,49311,1,8,0:0:0:0:
161,122,49474,1,8,0:0:0:0:
161,122,49555,1,8,0:0:0:0:
161,122,49636,1,8,0:0:0:0:
161,122,49798,1,0,0:0:0:0:
150,149,49960,1,0,0:0:0:0:
150,149,50122,1,8,0:0:0:0:
137,174,50284,1,0,0:0:0:0:
135,198,50609,1,0,0:0:0:0:
135,198,50771,1,8,0:0:0:0:
92,177,51095,1,4,0:0:0:0:
110,131,51419,1,8,0:0:0:0:
110,131,51582,1,8,0:0:0:0:
122,176,51744,1,0,0:0:0:0:
180,228,52392,1,0,0:0:0:0:
180,228,52555,1,8,0:0:0:0:
180,228,52636,1,8,0:0:0:0:
180,228,52717,1,8,0:0:0:0:
180,228,52879,1,8,0:0:0:0:
180,228,53041,1,0,0:0:0:0:
180,228,53203,1,0,0:0:0:0:
160,129,53365,1,8,0:0:0:0:
250,162,53690,1,12,0:0:0:0:
161,166,54014,1,0,0:0:0:0:
161,166,54176,1,8,0:0:0:0:
145,102,54338,1,0,0:0:0:0:
147,184,54501,1,0,0:0:0:0:
78,158,54663,1,8,0:0:0:0:
78,158,54825,1,8,0:0:0:0:
78,158,54987,1,4,0:0:0:0:
114,199,57419,1,12,0:0:0:0:
114,199,57744,1,0,0:0:0:0:
339,253,58068,1,0,0:0:0:0:
211,125,58230,1,8,0:0:0:0:
211,125,58311,1,8,0:0:0:0:
211,125,58392,1,8,0:0:0:0:
211,125,58555,1,0,0:0:0:0:
164,124,58717,1,0,0:0:0:0:
164,124,58879,1,8,0:0:0:0:
134,72,59203,1,0,0:0:0:0:
134,72,59365,1,8,0:0:0:0:
143,182,59528,1,0,0:0:0:0:
143,182,59690,1,8,0:0:0:0:
143,182,59933,1,8,0:0:0:0:
143,182,60014,1,0,0:0:0:0:
107,131,60176,1,0,0:0:0:0:
107,131,60338,1,8,0:0:0:0:
169,171,60501,1,0,0:0:0:0:
169,171,60663,1,0,0:0:0:0:
169,171,60825,1,8,0:0:0:0:
169,171,60987,1,0,0:0:0:0:
169,171,61149,1,0,0:0:0:0:
169,171,61311,1,8,0:0:0:0:
137,229,61636,1,0,0:0:0:0:
137,229,61798,1,8,0:0:0:0:
137,229,61960,1,0,0:0:0:0:
249,46,62041,1,0,0:0:0:0:
219,74,62122,1,0,0:0:0:0:
240,77,62284,1,12,0:0:0:0:
240,77,62446,1,12,0:0:0:0:
232,122,62933,1,4,0:0:0:0:
235,231,63257,1,8,0:0:0:0:
235,263,63582,1,0,0:0:0:0:
235,263,63744,1,0,0:0:0:0:
235,263,63906,1,8,0:0:0:0:
235,263,64068,1,0,0:0:0:0:
213,162,64230,1,0,0:0:0:0:
221,212,64555,1,8,0:0:0:0:
203,168,64717,1,8,0:0:0:0:
203,168,64879,1,0,0:0:0:0:
203,168,65041,1,0,0:0:0:0:
203,168,65203,1,8,0:0:0:0:
166,221,65365,1,0,0:0:0:0:
127,189,65528,1,0,0:0:0:0:
127,189,65852,1,8,0:0:0:0:
132,186,66095,1,0,0:0:0:0:
127,189,66176,1,0,0:0:0:0:
184,129,66338,1,0,0:0:0:0:
184,129,66501,1,8,0:0:0:0:
153,163,66663,1,8,0:0:0:0:
153,163,66825,1,0,0:0:0:0:
157,140,67149,1,8,0:0:0:0:
157,140,67311,1,8,0:0:0:0:
157,140,67392,1,8,0:0:0:0:
157,140,67474,1,8,0:0:0:0:
157,140,67636,1,0,0:0:0:0:
88,151,67798,1,12,0:0:0:0:
162,185,68122,1,0,0:0:0:0:
34,178,68446,1,8,0:0:0:0:
115,190,68771,1,0,0:0:0:0:
115,190,68933,1,0,0:0:0:0:
115,190,69095,1,8,0:0:0:0:
195,162,69257,1,0,0:0:0:0:
195,162,69419,1,8,0:0:0:0:
195,162,69501,1,8,0:0:0:0:
195,162,69582,1,8,0:0:0:0:
195,162,69744,1,0,0:0:0:0:
210,93,70068,1,0,0:0:0:0:
210,93,70230,1,0,0:0:0:0:
206,111,70392,1,8,0:0:0:0:
75,93,70717,1,8,0:0:0:0:
75,93,70879,1,0,0:0:0:0:
75,93,71041,1,8,0:0:0:0:
75,93,71203,1,0,0:0:0:0:
75,93,71365,1,8,0:0:0:0:
169,155,71528,1,0,0:0:0:0:
169,155,71690,1,8,0:0:0:0:
169,155,71852,1,8,0:0:0:0:
169,155,72014,1,0,0:0:0:0:
213,148,72176,1,8,0:0:0:0:
213,148,72257,1,8,0:0:0:0:
125,35,72338,1,8,0:0:0:0:
215,224,72501,1,0,0:0:0:0:
142,163,72663,1,8,0:0:0:0:
143,147,72987,1,8,0:0:0:0:
142,163,73311,1,4,0:0:0:0:
189,173,73636,1,8,0:0:0:0:
213,87,73960,1,0,0:0:0:0:
213,87,74122,1,0,0:0:0:0:
213,87,74284,1,8,0:0:0:0:
178,85,74446,1,8,0:0:0:0:
178,85,74528,1,8,0:0:0:0:
178,85,74609,1,8,0:0:0:0:
162,118,74771,1,0,0:0:0:0:
162,118,74933,1,8,0:0:0:0:
162,118,75257,1,0,0:0:0:0:
144,140,75419,1,0,0:0:0:0:
144,140,75582,1,8,0:0:0:0:
283,111,75744,1,0,0:0:0:0:
283,111,75906,1,8,0:0:0:0:
200,94,76230,1,0,0:0:0:0:
206,120,76474,1,8,0:0:0:0:
200,94,76555,1,8,0:0:0:0:
200,94,76717,1,0,0:0:0:0:
229,211,76879,1,8,0:0:0:0:
0,126,77041,1,8,0:0:0:0:
0,126,77203,1,4,0:0:0:0:
96,130,77528,1,8,0:0:0:0:
123,101,77609,1,8,0:0:0:0:
96,130,77690,1,8,0:0:0:0:
183,115,77852,1,8,0:0:0:0:
183,115,78014,1,0,0:0:0:0:
183,115,78176,1,8,0:0:0:0:
185,85,78257,1,8,0:0:0:0:
185,85,78338,1,8,0:0:0:0:
168,131,78501,1,4,0:0:0:0:
115,138,78987,1,0,0:0:0:0:
115,138,79149,1,8,0:0:0:0:
226,237,79636,1,0,0:0:0:0:
226,237,79798,1,0,0:0:0:0:
226,237,79960,1,8,0:0:0:0:
226,237,80122,1,0,0:0:0:0:
197,116,80284,1,0,0:0:0:0:
197,116,80446,1,8,0:0:0:0:
182,211,80609,1,0,0:0:0:0:
182,211,80933,1,0,0:0:0:0:
182,211,81095,1,0,0:0:0:0:
182,211,81257,1,8,0:0:0:0:
212,123,81582,1,0,0:0:0:0:
212,123,81744,1,8,0:0:0:0:
190,142,82068,1,8,0:0:0:0:
155,14,82230,1,8,0:0:0:0:
146,76,82392,1,0,0:0:0:0:
146,76,82555,1,8,0:0:0:0:
146,76,82717,1,0,0:0:0:0:
147,154,82798,1,0,0:0:0:0:
107,165,82879,1,0,0:0:0:0:
147,154,83041,1,8,0:0:0:0:
185,44,83365,1,0,0:0:0:0:
242,194,83690,1,12,0:0:0:0:
172,68,84014,1,8,0:0:0:0:
172,68,84176,1,0,0:0:0:0:
172,68,84338,1,8,0:0:0:0:
172,68,84501,1,8,0:0:0:0:
274,30,84825,1,0,0:0:0:0:
274,30,84987,1,8,0:0:0:0:
192,198,85149,1,0,0:0:0:0:
192,198,85311,1,8,0:0:0:0:
225,47,85474,1,0,0:0:0:0:
225,47,85636,1,8,0:0:0:0:
225,47,85798,1,8,0:0:0:0:
276,124,86122,1,0,0:0:0:0:
276,124,86284,1,8,0:0:0:0:
197,48,86609,1,8,0:0:0:0:
197,48,86771,1,0,0:0:0:0:
200,157,86933,1,8,0:0:0:0:
200,157,87095,1,8,0:0:0:0:
200,157,87257,1,0,0:0:0:0:
200,157,87582,1,8,0:0:0:0:
185,203,87744,1,0,0:0:0:0:
187,223,87906,1,8,0:0:0:0:
210,209,88230,1,0,0:0:0:0:
210,209,88392,1,8,0:0:0:0:
210,209,88717,1,4,0:0:0:0:
60,150,89203,1,8,0:0:0:0:
237,126,89446,1,8,0:0:0:0:
237,126,89528,1,8,0:0:0:0:
237,126,89690,1,0,0:0:0:0:
225,131,89852,1,8,0:0:0:0:
59,160,90176,1,0,0:0:0:0:
59,160,90338,1,0,0:0:0:0:
59,160,90501,1,8,0:0:0:0:
59,160,90825,1,0,0:0:0:0:
59,160,90987,1,8,0:0:0:0:
59,160,91311,1,4,0:0:0:0:
59,160,91798,1,8,0:0:0:0:
204,40,92041,1,8,0:0:0:0:
204,40,92122,1,8,0:0:0:0:
204,40,92284,1,0,0:0:0:0:
204,40,92446,1,8,0:0:0:0:
194,148,92771,1,0,0:0:0:0:
204,211,92933,1,0,0:0:0:0:
198,225,93095,1,8,0:0:0:0:
103,189,93257,1,8,0:0:0:0:
103,189,93338,1,8,0:0:0:0:
103,189,93419,1,8,0:0:0:0:
86,60,93582,1,0,0:0:0:0:
201,216,93744,1,8,0:0:0:0:
173,102,93906,1,8,0:0:0:0:
175,138,94068,1,0,0:0:0:0:
200,130,94392,1,8,0:0:0:0:
200,130,94555,1,0,0:0:0:0:
200,130,94717,1,8,0:0:0:0:
50,264,95041,1,8,0:0:0:0:
154,250,95365,1,8,0:0:0:0:
154,250,95690,1,8,0:0:0:0:
154,250,95852,1,0,0:0:0:0:
154,250,96014,1,8,0:0:0:0:
84,266,96176,1,8,0:0:0:0:
84,266,96338,1,8,0:0:0:0:
167,39,96501,1,0,0:0:0:0:
55,129,96663,1,8,0:0:0:0:
55,129,96987,1,8,0:0:0:0:
290,177,97311,1,8,0:0:0:0:
157,21,97636,1,8,0:0:0:0:
166,14,97798,1,0,0:0:0:0:
166,14,97960,1,8,0:0:0:0:
228,99,98284,1,8,0:0:0:0:
228,99,98446,1,8,0:0:0:0:
228,99,98528,1,8,0:0:0:0:
228,99,98609,1,8,0:0:0:0:
228,99,98771,1,8,0:0:0:0:
228,99,98933,1,0,0:0:0:0:
138,250,99095,1,12,0:0:0:0:
146,205,99582,1,8,0:0:0:0:
155,200,99825,1,8,0:0:0:0:
155,200,99906,1,8,0:0:0:0:
155,200,100068,1,0,0:0:0:0:
155,200,100230,1,12,0:0:0:0:
152,94,100555,1,4,0:0:0:0:
198,222,100879,1,8,0:0:0:0:
222,181,101203,1,0,0:0:0:0:
222,181,101365,1,0,0:0:0:0:
222,181,101528,1,8,0:0:0:0:
222,181,101690,1,4,0:0:0:0:
300,141,102014,1,0,0:0:0:0:
106,168,102176,1,8,0:0:0:0:
217,164,102501,1,8,0:0:0:0:
246,124,102663,1,0,0:0:0:0:
193,61,102825,1,8,0:0:0:0:
121,140,102987,1,0,0:0:0:0:
278,16,103068,1,0,0:0:0:0:
121,140,103149,1,0,0:0:0:0:
165,125,103311,1,0,0:0:0:0:
101,251,103474,1,8,0:0:0:0:
179,195,103717,1,8,0:0:0:0:
179,195,103798,1,8,0:0:0:0:
179,195,103960,1,0,0:0:0:0:
179,195,104122,1,8,0:0:0:0:
179,195,104284,1,12,0:0:0:0:
83,103,104609,1,0,0:0:0:0:
83,103,104771,1,8,0:0:0:0:
132,124,104933,1,8,0:0:0:0:
132,124,105014,1,8,0:0:0:0:
132,124,105095,1,8,0:0:0:0:
132,124,105257,1,0,0:0:0:0:
132,124,105419,1,8,0:0:0:0:
146,141,105582,1,8,0:0:0:0:
132,124,105744,1,4,0:0:0:0:
155,147,106068,1,8,0:0:0:0:
155,147,106392,1,0,0:0:0:0:
228,81,106717,1,8,0:0:0:0:
228,81,106879,1,0,0:0:0:0:
203,152,107203,1,0,0:0:0:0:
249,81,107365,1,8,0:0:0:0:
247,92,107528,1,0,0:0:0:0:
247,92,107609,1,0,0:0:0:0:
247,92,107690,1,0,0:0:0:0:
187,94,107933,1,8,0:0:0:0:
192,160,108014,1,8,0:0:0:0:
172,62,108176,1,0,0:0:0:0:
138,93,108338,1,8,0:0:0:0:
138,93,108663,1,8,0:0:0:0:
138,93,108825,1,0,0:0:0:0:
211,233,109149,1,0,0:0:0:0:
211,233,109311,1,8,0:0:0:0:
211,233,109474,1,0,0:0:0:0:
211,233,109798,1,12,0:0:0:0:
201,174,109960,1,12,0:0:0:0:
201,174,110284,1,4,0:0:0:0:
153,92,110446,1,4,0:0:0:0:
148,145,110933,1,12,0:0:0:0:
233,209,111419,1,0,0:0:0:0:
233,209,111744,1,0,0:0:0:0:
161,200,113041,1,0,0:0:0:0:
161,200,113203,1,8,0:0:0:0:
161,200,113528,1,8,0:0:0:0:
161,200,114014,1,0,0:0:0:0:
161,200,114338,1,0,0:0:0:0:
95,106,114501,1,8,0:0:0:0:
96,154,115311,1,8,0:0:0:0:
96,154,115636,1,0,0:0:0:0:
96,154,115798,1,0,0:0:0:0:
223,89,115960,1,0,0:0:0:0:
222,55,116122,1,12,0:0:0:0:
233,113,116771,1,0,0:0:0:0:
233,113,117095,1,8,0:0:0:0:
233,113,117257,1,8,0:0:0:0:
233,113,117419,1,0,0:0:0:0:
230,74,117582,1,0,0:0:0:0:
191,169,117744,1,8,0:0:0:0:
191,169,117906,1,0,0:0:0:0:
191,169,118068,1,8,0:0:0:0:
191,169,118230,1,8,0:0:0:0:
160,104,118392,1,0,0:0:0:0:
48,96,118555,1,8,0:0:0:0:
160,104,118717,1,0,0:0:0:0:
117,115,119041,1,0,0:0:0:0:
127,169,119203,1,8,0:0:0:0:
203,88,119284,1,8,0:0:0:0:
203,88,119365,1,8,0:0:0:0:
196,164,119528,1,0,0:0:0:0:
135,53,119690,1,8,0:0:0:0:
135,53,119852,1,8,0:0:0:0:
135,53,120014,1,4,0:0:0:0:
228,108,121311,1,4,0:0:0:0:
217,148,121960,1,8,0:0:0:0:
217,148,122446,1,0,0:0:0:0:
217,148,122609,1,0,0:0:0:0:
213,186,122771,1,8,0:0:0:0:
217,148,123095,1,0,0:0:0:0:
217,148,123257,1,8,0:0:0:0:
217,148,123744,1,0,0:0:0:0:
217,148,123906,1,0,0:0:0:0:
211,153,124230,1,0,0:0:0:0:
211,153,124555,1,8,0:0:0:0:
251,69,125041,1,0,0:0:0:0:
251,69,125203,1,0,0:0:0:0:
237,130,125365,1,8,0:0:0:0:
264,106,125528,1,8,0:0:0:0:
237,130,125690,1,0,0:0:0:0:
221,176,125852,1,8,0:0:0:0:
221,176,126095,1,0,0:0:0:0:
221,176,126176,1,0,0:0:0:0:
225,121,126338,1,0,0:0:0:0:
225,121,126501,1,8,0:0:0:0:
263,181,127474,1,0,0:0:0:0:
263,181,127636,1,12,0:0:0:0:
374,187,127960,1,0,0:0:0:0:
374,187,128122,1,8,0:0:0:0:
150,98,128446,1,8,0:0:0:0:
150,98,128609,1,0,0:0:0:0:
150,98,128771,1,8,0:0:0:0:
150,98,128933,1,8,0:0:0:0:
150,98,129095,1,4,0:0:0:0:
230,189,129419,1,8,0:0:0:0:
242,182,129744,1,8,0:0:0:0:
242,182,129906,1,0,0:0:0:0:
242,182,130068,1,8,0:0:0:0:
242,182,130230,1,0,0:0:0:0:
242,182,130392,1,4,0:0:0:0:
193,194,130717,1,0,0:0:0:0:
193,194,130879,1,8,0:0:0:0:
193,194,130960,1,8,0:0:0:0:
193,194,131041,1,8,0:0:0:0:
193,194,131203,1,8,0:0:0:0:
189,51,131690,1,12,0:0:0:0:
89,137,132014,1,8,0:0:0:0:
89,137,132338,1,8,0:0:0:0:
306,168,132501,1,0,0:0:0:0:
306,168,132663,1,0,0:0:0:0:
306,168,132825,1,8,0:0:0:0:
258,186,132987,1,0,0:0:0:0:
184,30,133149,1,0,0:0:0:0:
184,30,133311,1,8,0:0:0:0:
155,122,133636,1,8,0:0:0:0:
155,122,133798,1,0,0:0:0:0:
155,122,133960,1,8,0:0:0:0:
75,117,134284,1,0,0:0:0:0:
149,133,134446,1,8,0:0:0:0:
158,59,134609,1,8,0:0:0:0:
182,165,134933,1,8,0:0:0:0:
242,108,135095,1,0,0:0:0:0:
258,99,135257,1,0,0:0:0:0:
258,99,135419,1,12,0:0:0:0:
246,120,135744,1,0,0:0:0:0:
246,120,135906,1,8,0:0:0:0:
198,190,136230,1,8,0:0:0:0:
228,204,136879,1,0,0:0:0:0:
165,143,137041,1,8,0:0:0:0:
165,143,137203,1,0,0:0:0:0:
165,143,137528,1,8,0:0:0:0:
165,143,137690,1,0,0:0:0:0:
301,96,137852,1,0,0:0:0:0:
111,147,138014,1,8,0:0:0:0:
111,147,138176,1,0,0:0:0:0:
178,154,138501,1,8,0:0:0:0:
165,133,138663,1,0,0:0:0:0:
72,131,138825,1,12,0:0:0:0:
208,142,139311,1,8,0:0:0:0:
269,115,139474,1,0,0:0:0:0:
214,75,139636,1,0,0:0:0:0:
214,75,139717,1,0,0:0:0:0:
206,82,139798,1,0,0:0:0:0:
218,110,139960,1,8,0:0:0:0:
218,110,140041,1,8,0:0:0:0:
185,172,140122,1,8,0:0:0:0:
219,132,140284,1,8,0:0:0:0:
207,125,140446,1,0,0:0:0:0:
190,168,140609,1,0,0:0:0:0:
190,168,140771,1,12,0:0:0:0:
297,128,141095,1,8,0:0:0:0:
43,130,141176,1,8,0:0:0:0:
297,128,141257,1,8,0:0:0:0:
235,134,141419,1,0,0:0:0:0:
210,162,141501,1,0,0:0:0:0:
210,162,141582,1,0,0:0:0:0:
210,162,141744,1,8,0:0:0:0:
210,162,141906,1,0,0:0:0:0:
212,107,142068,1,12,0:0:0:0:
125,120,142392,1,8,0:0:0:0:
176,137,142717,1,0,0:0:0:0:
107,120,142879,1,0,0:0:0:0:
107,120,143041,1,8,0:0:0:0:
107,120,143203,1,0,0:0:0:0:
228,119,143690,1,8,0:0:0:0:
214,216,144014,1,0,0:0:0:0:
217,220,144176,1,0,0:0:0:0:
217,220,144338,1,8,0:0:0:0:
230,30,144663,1,0,0:0:0:0:
208,104,144987,1,8,0:0:0:0:
208,104,145149,1,0,0:0:0:0:
181,101,145311,1,8,0:0:0:0:
181,101,145474,1,0,0:0:0:0:
181,101,145798,1,8,0:0:0:0:
113,124,146122,1,0,0:0:0:0:
113,124,146284,1,8,0:0:0:0:
113,124,146446,1,0,0:0:0:0:
178,138,146933,1,8,0:0:0:0:
217,110,147257,1,8,0:0:0:0:
203,150,147419,1,0,0:0:0:0:
203,150,147582,1,0,0:0:0:0:
203,150,147744,1,12,0:0:0:0:
203,150,148068,1,0,0:0:0:0:
203,150,148230,1,8,0:0:0:0:
203,150,148392,1,0,0:0:0:0:
203,150,148555,1,0,0:0:0:0:
186,54,148717,1,12,0:0:0:0:
153,127,149041,1,0,0:0:0:0:
86,111,149203,1,8,0:0:0:0:
86,111,149365,1,0,0:0:0:0:
113,79,149528,1,0,0:0:0:0:
113,79,149690,1,0,0:0:0:0:
113,79,149852,1,12,0:0:0:0:
242,133,150176,1,0,0:0:0:0:
242,133,150338,1,12,0:0:0:0:
280,144,150663,1,0,0:0:0:0:
280,144,150825,1,8,0:0:0:0:
217,179,150987,1,8,0:0:0:0:
217,179,151149,1,0,0:0:0:0:
196,168,151311,1,0,0:0:0:0:
196,168,151474,1,8,0:0:0:0:
189,136,151636,1,0,0:0:0:0:
194,69,151717,1,0,0:0:0:0:
194,69,151798,1,0,0:0:0:0:
178,104,151960,1,8,0:0:0:0:
178,104,152122,1,0,0:0:0:0:
230,161,152284,1,0,0:0:0:0:
153,81,152446,1,12,0:0:0:0:
27,141,152771,1,8,0:0:0:0:
177,114,152933,1,0,0:0:0:0:
170,116,153257,1,0,0:0:0:0:
165,147,153419,1,8,0:0:0:0:
165,147,153744,1,0,0:0:0:0:
222,146,154068,1,8,0:0:0:0:
222,146,154392,1,0,0:0:0:0:
320,118,154555,1,0,0:0:0:0:
320,118,154717,1,8,0:0:0:0:
343,170,155041,1,0,0:0:0:0:
213,104,155365,1,8,0:0:0:0:
131,104,155528,1,0,0:0:0:0:
213,104,155690,1,0,0:0:0:0:
220,151,155852,1,0,0:0:0:0:
220,151,156014,1,8,0:0:0:0:
220,151,156338,1,0,0:0:0:0:
244,193,156501,1,0,0:0:0:0:
244,193,156663,1,8,0:0:0:0:
244,193,156825,1,8,0:0:0:0:
244,193,156987,1,0,0:0:0:0:
244,193,157149,1,8,0:0:0:0:
244,193,157311,1,0,0:0:0:0:
65,96,157474,1,0,0:0:0:0:
182,142,157636,1,12,0:0:0:0:
289,100,158122,1,0,0:0:0:0:
289,100,158446,1,0,0:0:0:0:
289,100,158609,1,8,0:0:0:0:
268,141,158933,1,0,0:0:0:0:
261,167,159257,1,0,0:0:0:0:
200,126,159419,1,8,0:0:0:0:
200,126,159582,1,0,0:0:0:0:
200,126,159744,1,0,0:0:0:0:
348,98,159906,1,8,0:0:0:0:
120,140,160230,1,0,0:0:0:0:
184,121,160392,1,8,0:0:0:0:
241,104,160717,1,0,0:0:0:0:
241,104,160879,1,0,0:0:0:0:
241,104,161041,1,8,0:0:0:0:
64,151,161365,1,0,0:0:0:0:
181,106,161528,1,0,0:0:0:0:
198,73,161690,1,8,0:0:0:0:
194,79,161852,1,0,0:0:0:0:
194,79,162176,1,8,0:0:0:0:
196,82,162338,1,0,0:0:0:0:
196,82,162419,1,0,0:0:0:0:
196,82,162501,1,0,0:0:0:0:
196,82,162663,1,0,0:0:0:0:
194,79,162825,1,8,0:0:0:0:
128,107,162987,1,0,0:0:0:0:
116,101,163149,1,8,0:0:0:0:
163,131,163311,1,0,0:0:0:0:
163,131,163474,1,8,0:0:0:0:
163,131,163636,1,0,0:0:0:0:
187,164,163960,1,12,0:0:0:0:
337,175,164284,1,0,0:0:0:0:
337,175,164446,1,8,0:0:0:0:
337,175,164609,1,0,0:0:0:0:
337,175,165257,1,8,0:0:0:0:
283,148,165419,1,0,0:0:0:0:
289,153,165582,1,0,0:0:0:0:
289,153,165744,1,8,0:0:0:0:
180,99,165906,1,8,0:0:0:0:
180,99,166068,1,0,0:0:0:0:
180,99,166230,1,8,0:0:0:0:
172,160,166392,1,8,0:0:0:0:
204,77,166555,1,4,0:0:0:0:
169,188,166879,1,0,0:0:0:0:
226,61,167041,1,8,0:0:0:0:
161,147,167284,1,0,0:0:0:0:
226,61,167365,1,0,0:0:0:0:
208,96,167528,1,8,0:0:0:0:
208,96,167690,1,0,0:0:0:0:
208,96,167852,1,0,0:0:0:0:
208,96,168014,1,12,0:0:0:0:
210,197,168338,1,0,0:0:0:0:
210,197,168501,1,8,0:0:0:0:
210,197,168663,1,0,0:0:0:0:
210,197,168825,1,0,0:0:0:0:
220,145,168987,1,8,0:0:0:0:
220,145,169149,1,0,0:0:0:0:
220,145,169311,1,0,0:0:0:0:
220,145,169474,1,12,0:0:0:0:
82,152,169960,1,8,0:0:0:0:
82,152,170041,1,8,0:0:0:0:
204,104,170122,1,8,0:0:0:0:
165,126,170284,1,0,0:0:0:0:
82,152,170365,1,0,0:0:0:0:
204,104,170446,1,0,0:0:0:0:
165,126,170609,1,8,0:0:0:0:
165,126,170933,1,8,0:0:0:0:
165,126,171095,1,0,0:0:0:0:
165,126,171176,1,0,0:0:0:0:
165,126,171257,1,0,0:0:0:0:
194,98,171419,1,8,0:0:0:0:
194,98,171582,1,0,0:0:0:0:
259,162,171744,1,8,0:0:0:0:
142,135,172068,1,0,0:0:0:0:
146,135,172230,1,8,0:0:0:0:
152,214,172392,1,0,0:0:0:0:
152,214,172555,1,8,0:0:0:0:
152,214,172798,1,8,0:0:0:0:
152,214,172879,1,8,0:0:0:0:
156,206,173041,1,0,0:0:0:0:
156,206,173203,1,8,0:0:0:0:
175,225,173365,1,0,0:0:0:0:
175,225,173528,1,0,0:0:0:0:
175,225,173690,1,8,0:0:0:0:
175,225,173852,1,0,0:0:0:0:
175,225,174014,1,0,0:0:0:0:
140,196,174176,1,12,0:0:0:0:
122,131,174501,1,0,0:0:0:0:
131,49,174663,1,12,0:0:0:0:
167,61,175149,1,8,0:0:0:0:
167,61,175311,1,0,0:0:0:0:
133,111,175474,1,0,0:0:0:0:
133,98,175636,1,0,0:0:0:0:
133,98,175798,1,12,0:0:0:0:
133,98,176122,1,0,0:0:0:0:
160,190,176284,1,8,0:0:0:0:
160,190,176446,1,0,0:0:0:0:
159,64,176609,1,0,0:0:0:0:
159,64,176771,1,8,0:0:0:0:
166,70,177095,1,0,0:0:0:0:
253,22,177257,1,8,0:0:0:0:
166,70,177419,1,0,0:0:0:0:
164,88,177501,1,0,0:0:0:0:
80,125,177582,1,0,0:0:0:0:
166,70,177744,1,8,0:0:0:0:
166,70,177906,1,8,0:0:0:0:
166,70,178068,1,8,0:0:0:0:
166,70,178230,1,8,0:0:0:0:
65,109,179690,1,8,0:0:0:0:
213,66,180987,1,0,0:0:0:0:
157,237,191365,5,0,0:0:0:0:
157,237,192663,1,0,0:0:0:0:
285,299,193311,1,8,0:0:0:0:
224,308,193960,1,0,0:0:0:0:
232,296,194609,1,0,0:0:0:0:
232,296,194933,1,0,0:0:0:0:
232,296,195257,1,8,0:0:0:0:
165,104,195906,1,8,0:0:0:0:
165,104,196068,1,0,0:0:0:0:
179,100,196555,1,12,0:0:0:0:
161,157,196879,1,0,0:0:0:0:
161,157,197041,1,8,0:0:0:0:
161,157,197203,1,0,0:0:0:0:
103,117,197365,1,0,0:0:0:0:
88,134,197528,1,8,0:0:0:0:
179,117,197852,1,0,0:0:0:0:
179,117,198014,1,8,0:0:0:0:
182,109,198176,1,8,0:0:0:0:
182,109,198338,1,0,0:0:0:0:
182,109,198501,1,8,0:0:0:0:
213,119,198663,1,0,0:0:0:0:
213,119,198825,1,8,0:0:0:0:
181,33,198987,1,0,0:0:0:0:
213,119,199149,1,12,0:0:0:0:
236,116,199474,1,0,0:0:0:0:
208,101,199636,1,0,0:0:0:0:
208,101,199717,1,0,0:0:0:0:
236,116,199798,1,0,0:0:0:0:
208,101,199960,1,8,0:0:0:0:
188,101,200041,1,8,0:0:0:0:
208,101,200122,1,8,0:0:0:0:
201,90,200284,1,0,0:0:0:0:
188,101,200446,1,8,0:0:0:0:
229,165,200609,1,0,0:0:0:0:
229,165,200690,1,0,0:0:0:0:
229,165,200771,1,0,0:0:0:0:
229,165,200933,1,8,0:0:0:0:
229,165,201095,1,8,0:0:0:0:
229,165,201176,1,8,0:0:0:0:
250,97,201257,1,8,0:0:0:0:
222,141,201419,1,0,0:0:0:0:
250,97,201582,1,8,0:0:0:0:
222,141,201744,1,0,0:0:0:0:
197,210,202068,1,0,0:0:0:0:
212,133,202392,1,8,0:0:0:0:
212,133,202555,1,0,0:0:0:0:
212,133,202636,1,0,0:0:0:0:
208,59,202717,1,0,0:0:0:0:
212,133,202879,1,12,0:0:0:0:
173,114,203365,1,12,0:0:0:0:
82,92,203690,1,4,0:0:0:0:
165,78,204014,1,4,0:0:0:0:
187,43,204338,1,12,0:0:0:0:
322,79,204663,1,8,0:0:0:0:
319,110,204906,1,0,0:0:0:0:
319,110,204987,1,0,0:0:0:0:
319,110,205149,1,0,0:0:0:0:
319,110,205311,1,8,0:0:0:0:
162,204,205474,1,8,0:0:0:0:
162,204,205636,1,0,0:0:0:0:
158,132,205960,1,8,0:0:0:0:
158,132,206122,1,8,0:0:0:0:
158,132,206203,1,8,0:0:0:0:
158,132,206284,1,8,0:0:0:0:
153,81,206446,1,0,0:0:0:0:
153,81,206609,1,12,0:0:0:0:
153,81,206933,1,0,0:0:0:0:
153,81,207257,1,8,0:0:0:0:
153,81,207582,1,0,0:0:0:0:
368,84,207744,1,0,0:0:0:0:
327,145,207906,1,8,0:0:0:0:
327,145,208068,1,0,0:0:0:0:
327,145,208230,1,8,0:0:0:0:
327,145,208311,1,8,0:0:0:0:
327,145,208392,1,8,0:0:0:0:
327,145,208555,1,0,0:0:0:0:
231,49,208879,1,0,0:0:0:0:
231,49,209041,1,0,0:0:0:0:
231,49,209203,1,8,0:0:0:0:
231,49,209365,1,0,0:0:0:0:
231,49,209528,1,12,0:0:0:0:
208,64,209852,1,8,0:0:0:0:
202,82,210014,1,0,0:0:0:0:
85,107,210176,1,8,0:0:0:0:
202,82,210338,1,0,0:0:0:0:
58,136,210501,1,8,0:0:0:0:
202,82,210663,1,8,0:0:0:0:
189,99,210825,1,0,0:0:0:0:
96,120,210987,1,8,0:0:0:0:
96,120,211068,1,8,0:0:0:0:
96,120,211149,1,8,0:0:0:0:
143,171,211311,1,0,0:0:0:0:
383,205,211474,1,8,0:0:0:0:
213,127,211798,1,8,0:0:0:0:
302,44,212122,1,4,0:0:0:0:
231,99,212446,1,8,0:0:0:0:
316,215,212771,1,0,0:0:0:0:
316,215,212933,1,0,0:0:0:0:
316,215,213095,1,8,0:0:0:0:
316,215,213257,1,0,0:0:0:0:
253,83,213338,1,0,0:0:0:0:
267,131,213419,1,0,0:0:0:0:
253,83,213582,1,0,0:0:0:0:
323,198,213744,1,8,0:0:0:0:
174,77,214068,1,0,0:0:0:0:
174,77,214230,1,0,0:0:0:0:
174,77,214392,1,8,0:0:0:0:
237,119,214555,1,8,0:0:0:0:
237,119,214717,1,0,0:0:0:0:
12,143,215041,1,8,0:0:0:0:
170,115,215284,1,0,0:0:0:0:
170,115,215365,1,0,0:0:0:0:
261,1,215528,1,0,0:0:0:0:
239,94,215690,1,8,0:0:0:0:
239,94,215852,1,8,0:0:0:0:
239,94,216014,1,0,0:0:0:0:
290,219,216338,1,8,0:0:0:0:
290,219,216419,1,8,0:0:0:0:
290,219,216501,1,8,0:0:0:0:
290,219,216663,1,8,0:0:0:0:
290,219,216825,1,0,0:0:0:0:
290,219,216987,1,8,0:0:0:0:
290,219,217068,1,8,0:0:0:0:
290,219,217149,1,8,0:0:0:0:
290,219,217311,1,0,0:0:0:0:
115,138,217798,1,0,0:0:0:0:
115,138,217960,1,8,0:0:0:0:
226,237,218447,1,0,0:0:0:0:
226,237,218609,1,0,0:0:0:0:
226,237,218771,1,8,0:0:0:0:
226,237,218933,1,8,0:0:0:0:
197,116,219095,1,0,0:0:0:0:
197,116,219257,1,8,0:0:0:0:
182,211,219420,1,0,0:0:0:0:
182,211,219744,1,0,0:0:0:0:
182,211,219906,1,8,0:0:0:0:
182,211,220068,1,0,0:0:0:0:
212,123,220393,1,0,0:0:0:0:
212,123,220555,1,8,0:0:0:0:
190,142,220879,1,8,0:0:0:0:
155,14,221041,1,8,0:0:0:0:
146,76,221203,1,0,0:0:0:0:
146,76,221366,1,8,0:0:0:0:
146,76,221528,1,0,0:0:0:0:
147,154,221609,1,0,0:0:0:0:
107,165,221690,1,0,0:0:0:0:
147,154,221852,1,8,0:0:0:0:
185,44,222176,1,0,0:0:0:0:
172,68,222501,1,8,0:0:0:0:
172,68,222825,1,8,0:0:0:0:
172,68,222987,1,0,0:0:0:0:
172,68,223149,1,8,0:0:0:0:
172,68,223312,1,8,0:0:0:0:
274,30,223636,1,0,0:0:0:0:
274,30,223798,1,8,0:0:0:0:
192,198,223960,1,0,0:0:0:0:
192,198,224122,1,8,0:0:0:0:
225,47,224285,1,0,0:0:0:0:
225,47,224447,1,8,0:0:0:0:
225,47,224609,1,8,0:0:0:0:
276,124,224933,1,0,0:0:0:0:
276,124,225095,1,8,0:0:0:0:
197,48,225420,1,8,0:0:0:0:
197,48,225582,1,0,0:0:0:0:
200,157,225744,1,8,0:0:0:0:
200,157,225906,1,8,0:0:0:0:
200,157,226068,1,0,0:0:0:0:
200,157,226393,1,8,0:0:0:0:
185,203,226555,1,0,0:0:0:0:
187,223,226717,1,8,0:0:0:0:
210,209,227041,1,0,0:0:0:0:
210,209,227203,1,8,0:0:0:0:
210,209,227528,1,4,0:0:0:0:
60,150,228014,1,8,0:0:0:0:
237,126,228257,1,8,0:0:0:0:
237,126,228339,1,8,0:0:0:0:
237,126,228501,1,0,0:0:0:0:
225,131,228663,1,8,0:0:0:0:
59,160,228987,1,0,0:0:0:0:
59,160,229149,1,0,0:0:0:0:
59,160,229312,1,8,0:0:0:0:
59,160,229636,1,0,0:0:0:0:
59,160,229798,1,8,0:0:0:0:
59,160,230122,1,4,0:0:0:0:
59,160,230609,1,8,0:0:0:0:
204,40,230852,1,8,0:0:0:0:
204,40,230933,1,8,0:0:0:0:
204,40,231095,1,0,0:0:0:0:
204,40,231257,1,8,0:0:0:0:
194,148,231582,1,0,0:0:0:0:
204,211,231744,1,0,0:0:0:0:
198,225,231906,1,8,0:0:0:0:
103,189,232068,1,8,0:0:0:0:
103,189,232149,1,8,0:0:0:0:
103,189,232230,1,8,0:0:0:0:
86,60,232393,1,0,0:0:0:0:
201,216,232555,1,8,0:0:0:0:
173,102,232717,1,8,0:0:0:0:
175,138,232879,1,0,0:0:0:0:
200,130,233041,1,0,0:0:0:0:
200,130,233366,1,0,0:0:0:0:
200,130,233528,1,8,0:0:0:0:
158,42,234014,1,0,0:0:0:0:
154,250,234176,1,0,0:0:0:0:
154,250,234338,1,8,0:0:0:0:
154,250,234663,1,0,0:0:0:0:
154,250,234825,1,8,0:0:0:0:
230,150,234987,1,0,0:0:0:0:
230,150,235149,1,0,0:0:0:0:
55,129,235474,1,8,0:0:0:0:
55,129,235798,1,8,0:0:0:0:
55,129,235960,1,0,0:0:0:0:
290,177,236122,1,8,0:0:0:0:
308,127,236284,1,0,0:0:0:0:
157,21,236447,1,0,0:0:0:0:
166,14,236609,1,8,0:0:0:0:
166,14,236771,1,0,0:0:0:0:
228,99,236933,1,8,0:0:0:0:
228,99,237257,1,0,0:0:0:0:
228,99,237420,1,8,0:0:0:0:
228,99,237582,1,0,0:0:0:0:
228,99,237744,1,0,0:0:0:0:
138,250,237906,1,0,0:0:0:0:
179,34,238068,1,12,0:0:0:0:
359,170,238392,1,8,0:0:0:0:
166,110,238555,1,0,0:0:0:0:
166,110,238717,1,8,0:0:0:0:
89,222,238879,1,8,0:0:0:0:
128,56,239041,1,0,0:0:0:0:
245,100,239365,1,8,0:0:0:0:
96,93,239690,1,8,0:0:0:0:
185,149,239852,1,0,0:0:0:0:
185,149,240014,1,0,0:0:0:0:
125,112,240338,1,8,0:0:0:0:
229,130,240663,1,8,0:0:0:0:
259,95,240987,1,8,0:0:0:0:
98,155,241149,1,0,0:0:0:0:
202,84,241311,1,8,0:0:0:0:
202,84,241636,1,8,0:0:0:0:
181,89,241798,1,0,0:0:0:0:
232,147,241960,1,0,0:0:0:0:
232,147,242284,1,8,0:0:0:0:
231,141,242446,1,8,0:0:0:0:
231,142,242609,1,0,0:0:0:0:
277,102,242771,1,0,0:0:0:0:
69,97,242933,1,8,0:0:0:0:
162,98,243095,1,4,0:0:0:0:
229,81,243906,1,8,0:0:0:0:
229,81,244068,1,8,0:0:0:0:
229,81,244149,1,8,0:0:0:0:
229,81,244230,1,8,0:0:0:0:
229,81,244555,1,4,0:0:0:0:
181,201,244879,1,8,0:0:0:0:
181,201,245203,1,0,0:0:0:0:
181,201,245365,1,0,0:0:0:0:
181,201,245528,1,8,0:0:0:0:
170,50,245690,1,4,0:0:0:0:
300,141,246014,1,0,0:0:0:0:
106,168,246176,1,8,0:0:0:0:
217,164,246501,1,8,0:0:0:0:
246,124,246663,1,0,0:0:0:0:
193,61,246825,1,8,0:0:0:0:
121,140,246987,1,0,0:0:0:0:
278,16,247068,1,0,0:0:0:0:
121,140,247149,1,0,0:0:0:0:
174,171,247311,1,0,0:0:0:0:
101,251,247474,1,8,0:0:0:0:
179,195,247717,1,8,0:0:0:0:
179,195,247798,1,8,0:0:0:0:
179,195,247960,1,0,0:0:0:0:
179,195,248122,1,0,0:0:0:0:
179,195,248284,1,12,0:0:0:0:
83,103,248609,1,0,0:0:0:0:
83,103,248771,1,8,0:0:0:0:
132,124,248933,1,8,0:0:0:0:
132,124,249014,1,8,0:0:0:0:
132,124,249095,1,8,0:0:0:0:
132,124,249257,1,0,0:0:0:0:
132,124,249419,1,8,0:0:0:0:
132,124,249744,1,4,0:0:0:0:
158,160,250068,1,8,0:0:0:0:
176,146,250392,1,0,0:0:0:0:
90,129,250555,1,0,0:0:0:0:
90,129,250717,1,0,0:0:0:0:
90,129,250879,1,12,0:0:0:0:
160,47,251203,1,0,0:0:0:0:
160,47,251365,1,8,0:0:0:0:
160,47,251528,1,8,0:0:0:0:
187,137,251852,1,0,0:0:0:0:
221,103,252014,1,8,0:0:0:0:
221,103,252176,1,8,0:0:0:0:
221,103,252338,1,0,0:0:0:0:
221,103,252501,1,0,0:0:0:0:
221,103,252663,1,8,0:0:0:0:
221,103,252825,1,0,0:0:0:0:
221,103,253149,1,0,0:0:0:0:
221,103,253311,1,8,0:0:0:0:
221,103,253474,1,0,0:0:0:0:
221,103,253636,1,8,0:0:0:0:
221,103,253798,1,0,0:0:0:0:
188,148,254122,1,0,0:0:0:0:
188,148,254284,1,8,0:0:0:0:
27,124,254446,1,8,0:0:0:0:
129,113,254609,1,8,0:0:0:0:
155,83,254771,1,0,0:0:0:0:
