osu file format v14

[General]
AudioFilename: Suzuki Konomi - Zenbu Kimi ga Ita Kara Shittanda.mp3
AudioLeadIn: 0
PreviewTime: 62981
Countdown: 0
SampleSet: Soft
StackLeniency: 0.7
Mode: 3
LetterboxInBreaks: 0
SpecialStyle: 0
WidescreenStoryboard: 0

[Editor]
DistanceSpacing: 1
BeatDivisor: 4
GridSize: 32
TimelineZoom: 1.7

[Metadata]
Title:Zenbu Kimi ga Ita kara Shittanda
TitleUnicode:全部君がいたから知ったんだ
Artist:Suzuki Konomi
ArtistUnicode:鈴木このみ
Creator:Amiichii
Version:Easy
Source:天華百剣 -斬-
Tags:mugiwarasekai tenka hyakken mobile game
BeatmapID:1807488
BeatmapSetID:860104

[Difficulty]
HPDrainRate:7
CircleSize:4
OverallDifficulty:7
ApproachRate:5
SliderMultiplier:1.4
SliderTickRate:1

[Events]
//Background and Video events
0,0,"yey.jpg",0,0
//Break Periods
//Storyboard Layer 0 (Background)
//Storyboard Layer 1 (Fail)
//Storyboard Layer 2 (Pass)
//Storyboard Layer 3 (Foreground)
//Storyboard Sound Samples

[TimingPoints]
2111,400,4,2,1,20,1,0
2111,-81.3008130081301,4,2,1,20,0,0
8491,324.324324324324,4,2,1,40,1,0
62977,-100,4,2,1,40,0,1
100599,-100,4,2,1,40,0,0
109680,-100,4,2,1,50,0,0
110328,-100,4,2,1,60,0,0

[HitObjects]
192,192,2111,5,0,0:0:0:0:
64,192,2111,1,0,0:0:0:0:
448,192,2511,1,0,0:0:0:0:
320,192,2711,1,0,0:0:0:0:
64,192,2911,1,0,0:0:0:0:
320,192,3311,1,0,0:0:0:0:
448,192,3711,1,0,0:0:0:0:
192,192,3711,1,0,0:0:0:0:
320,192,3911,1,0,0:0:0:0:
64,192,4111,1,0,0:0:0:0:
192,192,4511,1,0,0:0:0:0:
320,192,4511,1,0,0:0:0:0:
448,192,4911,1,0,0:0:0:0:
320,192,5311,1,0,0:0:0:0:
64,192,5311,128,0,6111:0:0:0:0:
448,192,6111,128,0,6911:0:0:0:0:
192,192,6911,128,0,7711:0:0:0:0:
448,192,7711,128,0,8491:0:0:0:0:
64,192,8491,128,4,8815:0:0:0:0:
192,192,8491,1,2,0:0:0:0:
320,192,8815,128,0,9139:0:0:0:0:
448,192,9139,128,0,9463:0:0:0:0:
64,192,9463,1,0,0:0:0:0:
192,192,9626,1,0,0:0:0:0:
448,192,9788,128,4,10112:0:0:0:0:
320,192,9788,1,2,0:0:0:0:
320,192,10112,128,0,10436:0:0:0:0:
192,192,10436,128,0,10761:0:0:0:0:
64,192,10761,128,0,11085:0:0:0:0:
320,192,11085,128,2,11409:0:0:0:0:
448,192,11085,1,4,0:0:0:0:
192,192,11409,128,0,11734:0:0:0:0:
448,192,11734,128,0,12058:0:0:0:0:
64,192,12058,1,0,0:0:0:0:
320,192,12220,1,0,0:0:0:0:
64,192,12382,128,2,12707:0:0:0:0:
192,192,12382,1,4,0:0:0:0:
448,192,12707,128,2,13031:0:0:0:0:
320,192,13031,128,2,13355:0:0:0:0:
64,192,13355,128,2,13680:0:0:0:0:
448,192,13680,1,6,0:0:0:0:
192,192,14004,1,6,0:0:0:0:
320,192,14328,1,6,0:0:0:0:
448,192,14653,1,6,0:0:0:0:
64,192,14977,1,6,0:0:0:0:
192,192,15301,1,12,0:0:0:0:
448,192,15626,1,12,0:0:0:0:
320,192,15950,1,12,0:0:0:0:
64,192,16274,1,4,0:0:0:0:
448,192,16274,1,2,0:0:0:0:
192,192,16599,1,8,0:0:0:0:
320,192,16923,1,8,0:0:0:0:
448,192,17247,1,8,0:0:0:0:
64,192,17572,128,4,18220:0:0:0:0:
320,192,17572,1,2,0:0:0:0:
192,192,18058,1,2,0:0:0:0:
448,192,18220,128,2,18869:0:0:0:0:
320,192,18220,1,4,0:0:0:0:
192,192,18869,1,4,0:0:0:0:
64,192,18869,1,2,0:0:0:0:
448,192,19193,1,2,0:0:0:0:
64,192,19518,1,2,0:0:0:0:
192,192,19842,1,2,0:0:0:0:
448,192,20166,1,2,0:0:0:0:
320,192,20490,1,2,0:0:0:0:
64,192,20815,1,2,0:0:0:0:
192,192,21139,1,2,0:0:0:0:
320,192,21463,1,2,0:0:0:0:
448,192,21788,1,2,0:0:0:0:
64,192,22112,1,2,0:0:0:0:
192,192,22436,1,2,0:0:0:0:
448,192,22761,1,2,0:0:0:0:
320,192,23085,1,2,0:0:0:0:
192,192,23409,1,2,0:0:0:0:
64,192,23734,1,10,0:0:0:0:
320,192,24058,1,2,0:0:0:0:
448,192,24382,1,2,0:0:0:0:
192,192,24707,1,2,0:0:0:0:
320,192,25031,1,2,0:0:0:0:
64,192,25355,1,2,0:0:0:0:
448,192,25680,1,2,0:0:0:0:
320,192,26004,1,2,0:0:0:0:
192,192,26328,1,2,0:0:0:0:
320,192,26653,1,2,0:0:0:0:
64,192,26977,1,2,0:0:0:0:
448,192,27301,1,2,0:0:0:0:
192,192,27626,1,2,0:0:0:0:
448,192,27950,1,10,0:0:0:0:
320,192,28112,1,2,0:0:0:0:
64,192,28274,1,10,0:0:0:0:
192,192,28436,1,10,0:0:0:0:
448,192,28761,1,2,0:0:0:0:
320,192,28923,1,2,0:0:0:0:
192,192,29085,1,8,0:0:0:0:
448,192,29247,1,4,0:0:0:0:
64,192,29247,1,2,0:0:0:0:
192,192,29572,1,8,0:0:0:0:
448,192,29896,1,2,0:0:0:0:
64,192,30058,1,8,0:0:0:0:
448,192,30220,1,0,0:0:0:0:
192,192,30382,1,2,0:0:0:0:
320,192,30707,1,0,0:0:0:0:
64,192,30869,1,8,0:0:0:0:
448,192,31355,1,2,0:0:0:0:
64,192,31518,1,8,0:0:0:0:
320,192,31842,1,2,0:0:0:0:
64,192,32166,1,8,0:0:0:0:
320,192,32490,1,2,0:0:0:0:
192,192,32653,1,8,0:0:0:0:
320,192,32815,1,0,0:0:0:0:
64,192,32977,1,2,0:0:0:0:
448,192,33301,1,0,0:0:0:0:
192,192,33463,1,8,0:0:0:0:
64,192,33950,1,2,0:0:0:0:
448,192,34112,1,8,0:0:0:0:
192,192,34436,1,2,0:0:0:0:
320,192,34761,1,8,0:0:0:0:
64,192,35085,1,8,0:0:0:0:
192,192,35409,1,2,0:0:0:0:
448,192,35572,1,6,0:0:0:0:
64,192,35896,1,2,0:0:0:0:
320,192,36058,1,8,0:0:0:0:
448,192,36382,1,2,0:0:0:0:
320,192,36545,1,2,0:0:0:0:
64,192,36707,1,8,0:0:0:0:
448,192,37031,1,2,0:0:0:0:
320,192,37355,1,8,0:0:0:0:
64,192,37680,1,8,0:0:0:0:
192,192,38004,1,8,0:0:0:0:
448,192,38328,1,8,0:0:0:0:
192,192,38653,1,2,0:0:0:0:
64,192,38653,1,4,0:0:0:0:
448,192,38977,128,10,39301:0:0:0:0:
192,192,39301,128,12,39626:0:0:0:0:
448,192,39626,1,6,0:0:0:0:
64,192,39950,1,0,0:0:0:0:
320,192,40112,1,2,0:0:0:0:
192,192,40436,1,2,0:0:0:0:
448,192,40599,1,8,0:0:0:0:
192,192,40923,128,2,41247:0:0:0:0:
320,192,41247,128,0,41572:0:0:0:0:
192,192,41572,128,0,41896:0:0:0:0:
64,192,41896,128,8,42220:0:0:0:0:
448,192,42220,128,2,42545:0:0:0:0:
320,192,42545,128,0,42869:0:0:0:0:
64,192,42869,128,0,43193:0:0:0:0:
448,192,43193,128,8,43518:0:0:0:0:
64,192,43518,1,2,0:0:0:0:
192,192,43680,1,2,0:0:0:0:
320,192,43842,1,8,0:0:0:0:
192,192,44166,1,2,0:0:0:0:
320,192,44328,1,2,0:0:0:0:
448,192,44490,1,8,0:0:0:0:
64,192,44815,1,2,0:0:0:0:
192,192,44815,1,4,0:0:0:0:
320,192,45139,1,0,0:0:0:0:
64,192,45301,1,2,0:0:0:0:
192,192,45626,1,2,0:0:0:0:
448,192,45788,1,8,0:0:0:0:
64,192,46112,128,2,46436:0:0:0:0:
448,192,46436,128,0,46761:0:0:0:0:
320,192,46761,128,0,47085:0:0:0:0:
192,192,47085,128,8,47409:0:0:0:0:
320,192,47409,128,2,47734:0:0:0:0:
448,192,47734,128,2,48058:0:0:0:0:
192,192,48058,128,0,48382:0:0:0:0:
320,192,48382,128,8,48707:0:0:0:0:
64,192,48707,1,2,0:0:0:0:
448,192,48869,1,8,0:0:0:0:
192,192,49031,1,2,0:0:0:0:
448,192,49355,1,2,0:0:0:0:
320,192,49518,1,2,0:0:0:0:
192,192,49680,128,2,50004:0:0:0:0:
64,192,50004,1,2,0:0:0:0:
448,192,50166,1,2,0:0:0:0:
64,192,50328,1,8,0:0:0:0:
192,192,50653,1,2,0:0:0:0:
448,192,50815,1,8,0:0:0:0:
64,192,51139,1,4,0:0:0:0:
192,192,51139,1,2,0:0:0:0:
448,192,51463,1,8,0:0:0:0:
320,192,51626,1,2,0:0:0:0:
192,192,51950,1,8,0:0:0:0:
320,192,52112,1,2,0:0:0:0:
64,192,52274,1,2,0:0:0:0:
448,192,52599,1,8,0:0:0:0:
192,192,52761,1,8,0:0:0:0:
448,192,52923,1,2,0:0:0:0:
64,192,53247,1,2,0:0:0:0:
448,192,53409,1,8,0:0:0:0:
192,192,53734,1,4,0:0:0:0:
320,192,53734,1,2,0:0:0:0:
64,192,54058,1,2,0:0:0:0:
320,192,54220,1,8,0:0:0:0:
192,192,54545,1,2,0:0:0:0:
320,192,54707,1,8,0:0:0:0:
192,192,54869,1,2,0:0:0:0:
448,192,55031,1,8,0:0:0:0:
64,192,55193,128,0,56490:0:0:0:0:
320,192,56490,128,0,56815:0:0:0:0:
448,192,56815,128,0,57139:0:0:0:0:
192,192,57139,128,0,57463:0:0:0:0:
64,192,57463,128,2,57788:0:0:0:0:
448,192,57463,1,4,0:0:0:0:
320,192,57788,1,0,0:0:0:0:
192,192,58112,1,8,0:0:0:0:
320,192,58436,1,8,0:0:0:0:
64,192,58599,1,8,0:0:0:0:
192,192,58923,1,8,0:0:0:0:
320,192,59247,1,2,0:0:0:0:
192,192,59409,1,8,0:0:0:0:
320,192,59734,1,8,0:0:0:0:
448,192,60058,1,2,0:0:0:0:
64,192,60382,128,2,60869:0:0:0:0:
192,192,60382,1,4,0:0:0:0:
320,192,60869,128,8,61355:0:0:0:0:
448,192,60869,1,2,0:0:0:0:
64,192,61355,1,8,0:0:0:0:
448,192,61355,128,2,61842:0:0:0:0:
192,192,61842,128,8,62328:0:0:0:0:
64,192,62328,1,2,0:0:0:0:
448,192,62490,128,2,62977:0:0:0:0:
64,192,62977,1,4,0:0:0:0:
320,192,62977,1,2,0:0:0:0:
192,192,63301,1,8,0:0:0:0:
320,192,63626,1,2,0:0:0:0:
64,192,63788,1,2,0:0:0:0:
448,192,63950,1,8,0:0:0:0:
192,192,64274,1,2,0:0:0:0:
448,192,64599,1,8,0:0:0:0:
64,192,64923,1,2,0:0:0:0:
320,192,65085,1,2,0:0:0:0:
192,192,65247,1,8,0:0:0:0:
448,192,65572,1,2,0:0:0:0:
192,192,65896,1,8,0:0:0:0:
448,192,66220,1,2,0:0:0:0:
64,192,66382,1,2,0:0:0:0:
320,192,66545,1,8,0:0:0:0:
192,192,66869,1,2,0:0:0:0:
320,192,67193,1,8,0:0:0:0:
448,192,67518,1,8,0:0:0:0:
320,192,67680,1,2,0:0:0:0:
64,192,67842,1,12,0:0:0:0:
320,192,68166,1,6,0:0:0:0:
192,192,68490,1,8,0:0:0:0:
64,192,68815,1,2,0:0:0:0:
192,192,68977,1,2,0:0:0:0:
448,192,69139,1,8,0:0:0:0:
320,192,69301,1,2,0:0:0:0:
192,192,69463,1,2,0:0:0:0:
320,192,69788,1,8,0:0:0:0:
448,192,70112,1,2,0:0:0:0:
320,192,70274,1,2,0:0:0:0:
64,192,70436,1,8,0:0:0:0:
448,192,70599,1,0,0:0:0:0:
64,192,70761,128,6,71085:0:0:0:0:
320,192,71085,128,6,71409:0:0:0:0:
448,192,71409,128,6,71734:0:0:0:0:
64,192,71734,128,6,72058:0:0:0:0:
320,192,72058,128,2,72382:0:0:0:0:
192,192,72382,1,8,0:0:0:0:
320,192,72707,1,8,0:0:0:0:
64,192,73031,1,8,0:0:0:0:
192,192,73193,1,8,0:0:0:0:
448,192,73355,1,6,0:0:0:0:
320,192,73518,1,2,0:0:0:0:
64,192,73680,1,8,0:0:0:0:
320,192,74004,1,2,0:0:0:0:
192,192,74166,1,2,0:0:0:0:
448,192,74328,1,12,0:0:0:0:
192,192,74653,1,2,0:0:0:0:
448,192,74815,1,2,0:0:0:0:
64,192,74977,1,12,0:0:0:0:
192,192,75301,1,2,0:0:0:0:
320,192,75463,1,2,0:0:0:0:
64,192,75626,1,12,0:0:0:0:
320,192,75788,1,2,0:0:0:0:
448,192,75950,1,2,0:0:0:0:
64,192,76112,1,2,0:0:0:0:
320,192,76274,1,12,0:0:0:0:
448,192,76599,1,2,0:0:0:0:
192,192,76761,1,2,0:0:0:0:
320,192,76923,1,12,0:0:0:0:
64,192,77247,128,6,77734:0:0:0:0:
320,192,77734,1,8,0:0:0:0:
448,192,77896,1,8,0:0:0:0:
64,192,78058,1,6,0:0:0:0:
320,192,78220,1,8,0:0:0:0:
192,192,78382,1,2,0:0:0:0:
64,192,78545,128,14,79193:0:0:0:0:
320,192,79031,1,2,0:0:0:0:
448,192,79193,128,8,79842:0:0:0:0:
192,192,79680,1,2,0:0:0:0:
64,192,79842,128,2,80490:0:0:0:0:
320,192,80004,1,8,0:0:0:0:
448,192,80328,1,2,0:0:0:0:
320,192,80490,128,8,81139:0:0:0:0:
64,192,81139,1,6,0:0:0:0:
448,192,81301,1,8,0:0:0:0:
320,192,81626,1,2,0:0:0:0:
64,192,81788,1,12,0:0:0:0:
192,192,82112,1,2,0:0:0:0:
320,192,82274,1,8,0:0:0:0:
64,192,82436,128,2,82761:0:0:0:0:
192,192,82761,128,2,83085:0:0:0:0:
320,192,83085,128,8,83409:0:0:0:0:
448,192,83409,128,2,83734:0:0:0:0:
320,192,83734,1,2,0:0:0:0:
64,192,83734,1,4,0:0:0:0:
320,192,84058,1,10,0:0:0:0:
320,192,84382,1,10,0:0:0:0:
320,192,84707,1,10,0:0:0:0:
192,192,84869,1,2,0:0:0:0:
64,192,85031,1,6,0:0:0:0:
64,192,85355,1,10,0:0:0:0:
64,192,85680,1,10,0:0:0:0:
64,192,86004,1,10,0:0:0:0:
192,192,86166,1,2,0:0:0:0:
448,192,86328,1,6,0:0:0:0:
448,192,86653,1,10,0:0:0:0:
448,192,86977,1,10,0:0:0:0:
448,192,87301,1,10,0:0:0:0:
320,192,87463,1,2,0:0:0:0:
192,192,87626,1,6,0:0:0:0:
64,192,87950,1,8,0:0:0:0:
448,192,88274,1,2,0:0:0:0:
64,192,88436,1,8,0:0:0:0:
320,192,88761,1,2,0:0:0:0:
448,192,88761,1,4,0:0:0:0:
192,192,89085,1,2,0:0:0:0:
448,192,89247,1,8,0:0:0:0:
64,192,89572,1,6,0:0:0:0:
192,192,89734,1,2,0:0:0:0:
448,192,89896,1,8,0:0:0:0:
192,192,90220,1,2,0:0:0:0:
320,192,90382,1,2,0:0:0:0:
64,192,90545,1,8,0:0:0:0:
448,192,90869,1,8,0:0:0:0:
64,192,91031,1,8,0:0:0:0:
448,192,91355,1,4,0:0:0:0:
192,192,91355,1,2,0:0:0:0:
320,192,91680,1,2,0:0:0:0:
64,192,91842,1,8,0:0:0:0:
192,192,92166,1,6,0:0:0:0:
448,192,92328,1,2,0:0:0:0:
64,192,92490,1,8,0:0:0:0:
320,192,92815,1,2,0:0:0:0:
192,192,92977,1,2,0:0:0:0:
64,192,93139,1,8,0:0:0:0:
448,192,93301,1,2,0:0:0:0:
192,192,93463,1,8,0:0:0:0:
64,192,93788,1,8,0:0:0:0:
448,192,94112,1,10,0:0:0:0:
448,192,94436,1,10,0:0:0:0:
448,192,94761,1,10,0:0:0:0:
448,192,95085,1,10,0:0:0:0:
192,192,95409,1,10,0:0:0:0:
192,192,95734,1,10,0:0:0:0:
192,192,96058,1,10,0:0:0:0:
320,192,96220,1,10,0:0:0:0:
192,192,96382,1,10,0:0:0:0:
448,192,96545,1,2,0:0:0:0:
64,192,96707,1,10,0:0:0:0:
64,192,97031,1,10,0:0:0:0:
64,192,97355,1,10,0:0:0:0:
64,192,97680,1,10,0:0:0:0:
320,192,98004,1,10,0:0:0:0:
320,192,98328,1,10,0:0:0:0:
64,192,98490,1,10,0:0:0:0:
320,192,98653,1,10,0:0:0:0:
192,192,98815,1,2,0:0:0:0:
320,192,98977,1,10,0:0:0:0:
64,192,99139,1,10,0:0:0:0:
448,192,99463,1,0,0:0:0:0:
320,192,99626,1,0,0:0:0:0:
192,192,99788,1,0,0:0:0:0:
448,192,99950,1,8,0:0:0:0:
320,192,100112,1,8,0:0:0:0:
192,192,100274,128,8,100599:0:0:0:0:
448,192,100599,1,2,0:0:0:0:
64,192,100599,1,4,0:0:0:0:
320,192,100923,1,8,0:0:0:0:
448,192,101247,1,2,0:0:0:0:
192,192,101409,1,2,0:0:0:0:
64,192,101572,1,8,0:0:0:0:
448,192,101734,1,6,0:0:0:0:
192,192,102058,1,2,0:0:0:0:
320,192,102220,1,8,0:0:0:0:
320,192,102707,1,2,0:0:0:0:
64,192,102869,1,8,0:0:0:0:
320,192,103193,1,2,0:0:0:0:
192,192,103355,1,2,0:0:0:0:
448,192,103518,1,8,0:0:0:0:
64,192,103842,1,2,0:0:0:0:
320,192,104004,1,2,0:0:0:0:
192,192,104166,1,8,0:0:0:0:
448,192,104328,1,6,0:0:0:0:
64,192,104653,1,8,0:0:0:0:
320,192,104977,1,2,0:0:0:0:
64,192,105139,1,8,0:0:0:0:
448,192,105301,1,2,0:0:0:0:
192,192,105463,128,8,105788:0:0:0:0:
448,192,105788,1,2,0:0:0:0:
64,192,106112,1,2,0:0:0:0:
320,192,106436,1,2,0:0:0:0:
64,192,106761,1,2,0:0:0:0:
448,192,106923,1,6,0:0:0:0:
192,192,107247,1,2,0:0:0:0:
448,192,107409,1,8,0:0:0:0:
64,192,107734,1,8,0:0:0:0:
320,192,107896,1,2,0:0:0:0:
192,192,108058,1,8,0:0:0:0:
448,192,108382,128,4,110815:0:0:0:0:
320,192,108382,1,8,0:0:0:0:
64,192,109680,128,8,110815:0:0:0:0:
192,192,110815,1,8,0:0:0:0:
320,192,110815,1,0,0:0:0:0:
