osu file format v14

[General]
AudioFilename: audio.mp3
AudioLeadIn: 0
PreviewTime: 62852
Countdown: 0
SampleSet: Soft
StackLeniency: 0.4
Mode: 0
LetterboxInBreaks: 0
WidescreenStoryboard: 1

[Editor]
Bookmarks: 183582
DistanceSpacing: 0.4
BeatDivisor: 4
GridSize: 32
TimelineZoom: 2.2

[Metadata]
Title:Zenbu Kimi ga Ita kara Shittanda
TitleUnicode:全部君がいたから知ったんだ
Artist:Suzuki Konomi
ArtistUnicode:鈴木このみ
Creator:[Karcher]
Version:Livermorium's Extra
Source:天華百剣 -斬-
Tags:japanese jpop pop j-pop video game tenka hyakken -zan- mobile livermorium keywee midorijeon
BeatmapID:3253226
BeatmapSetID:1582736

[Difficulty]
HPDrainRate:5.2
CircleSize:4
OverallDifficulty:8.8
ApproachRate:9.3
SliderMultiplier:1.76
SliderTickRate:1

[Events]
//Background and Video events
0,0,"bg.jpg",0,0
//Break Periods
2,181186,190068
//Storyboard Layer 0 (Background)
//Storyboard Layer 1 (Fail)
//Storyboard Layer 2 (Pass)
//Storyboard Layer 3 (Foreground)
//Storyboard Layer 4 (Overlay)
//Storyboard Sound Samples

[TimingPoints]
451,545.454545454546,4,2,1,50,1,0
451,-200,4,2,1,50,0,0
996,517.241379310345,4,2,1,50,1,0
1513,566.037735849057,4,2,1,50,1,0
2079,400,4,2,1,50,1,0
2079,-142.857142857143,4,2,1,50,0,0
4079,-142.857142857143,4,2,1,5,0,0
4479,413.793103448276,4,2,1,50,1,0
4479,-142.857142857143,4,2,1,50,0,0
4892,355.029585798817,4,2,1,50,1,0
4892,-142.857142857143,4,2,1,5,0,0
5247,800,4,2,1,50,1,0
5247,-100,4,2,1,50,0,0
8447,324.324324324324,4,2,2,75,1,0
8447,-111.111111111111,4,2,2,75,0,0
8690,-111.111111111111,4,2,2,5,0,0
8771,-111.111111111111,4,2,2,75,0,0
9095,-111.111111111111,4,2,5,75,0,0
9176,-111.111111111111,4,2,2,75,0,0
9987,-111.111111111111,4,2,2,5,0,0
10068,-111.111111111111,4,2,2,75,0,0
10392,-111.111111111111,4,2,5,75,0,0
10474,-111.111111111111,4,2,2,75,0,0
10717,-400,4,2,2,75,0,0
10960,-111.111111111111,4,2,2,5,0,0
11041,-111.111111111111,4,2,2,75,0,0
11690,-111.111111111111,4,2,5,75,0,0
11771,-111.111111111111,4,2,2,75,0,0
12014,-111.111111111111,4,2,3,75,0,0
12095,-111.111111111111,4,2,2,75,0,0
12582,-111.111111111111,4,2,2,5,0,0
12663,-100,4,2,2,75,0,0
12987,-100,4,2,9,75,0,0
13068,-100,4,2,3,75,0,0
13960,-100,4,2,2,75,0,0
14284,-100,4,2,5,75,0,0
14365,-100,4,2,1,75,0,0
14609,-100,4,2,5,75,0,0
14690,-100,4,2,1,75,0,0
14933,-100,4,2,2,75,0,0
16230,-100,4,2,3,75,0,0
16717,-100,4,2,10,75,0,0
17528,-133.333333333333,4,2,2,75,0,0
18176,-133.333333333333,4,2,3,75,0,0
18744,-133.333333333333,4,2,3,5,0,0
18825,-133.333333333333,4,2,2,65,0,0
19068,-133.333333333333,4,2,2,5,0,0
19149,-133.333333333333,4,2,6,65,0,0
19230,-133.333333333333,4,2,2,65,0,0
19474,-133.333333333333,4,2,6,65,0,0
19555,-133.333333333333,4,2,2,65,0,0
19798,-133.333333333333,4,2,6,65,0,0
19879,-133.333333333333,4,2,2,65,0,0
20122,-133.333333333333,4,2,6,65,0,0
20203,-133.333333333333,4,2,2,65,0,0
20446,-133.333333333333,4,2,6,65,0,0
20527,-133.333333333333,4,2,2,65,0,0
20771,-133.333333333333,4,2,6,65,0,0
20852,-133.333333333333,4,2,2,65,0,0
21095,-133.333333333333,4,2,6,65,0,0
21176,-133.333333333333,4,2,2,65,0,0
21257,-133.333333333333,4,2,10,65,0,0
21338,-133.333333333333,4,2,2,65,0,0
21419,-133.333333333333,4,2,6,65,0,0
21500,-133.333333333333,4,2,2,65,0,0
21744,-133.333333333333,4,2,6,65,0,0
21825,-133.333333333333,4,2,2,65,0,0
22068,-133.333333333333,4,2,6,65,0,0
22149,-133.333333333333,4,2,2,65,0,0
22392,-133.333333333333,4,2,6,65,0,0
22473,-133.333333333333,4,2,2,65,0,0
22717,-133.333333333333,4,2,6,65,0,0
22798,-133.333333333333,4,2,2,65,0,0
23041,-133.333333333333,4,2,6,65,0,0
23122,-133.333333333333,4,2,2,65,0,0
23365,-133.333333333333,4,2,6,65,0,0
23446,-133.333333333333,4,2,2,65,0,0
23690,-133.333333333333,4,2,6,65,0,0
23771,-133.333333333333,4,2,2,65,0,0
24014,-133.333333333333,4,2,6,65,0,0
24095,-133.333333333333,4,2,2,65,0,0
24338,-133.333333333333,4,2,6,65,0,0
24419,-133.333333333333,4,2,2,65,0,0
24663,-133.333333333333,4,2,6,65,0,0
24744,-133.333333333333,4,2,2,65,0,0
24987,-133.333333333333,4,2,6,65,0,0
25068,-133.333333333333,4,2,2,65,0,0
25311,-133.333333333333,4,2,6,65,0,0
25392,-133.333333333333,4,2,2,65,0,0
25636,-133.333333333333,4,2,6,65,0,0
25717,-133.333333333333,4,2,2,65,0,0
25960,-133.333333333333,4,2,6,65,0,0
26041,-133.333333333333,4,2,2,65,0,0
26284,-133.333333333333,4,2,6,65,0,0
26365,-133.333333333333,4,2,2,65,0,0
26446,-133.333333333333,4,2,9,65,0,0
26528,-133.333333333333,4,2,2,65,0,0
26609,-133.333333333333,4,2,6,65,0,0
26690,-133.333333333333,4,2,2,65,0,0
26933,-133.333333333333,4,2,6,65,0,0
27014,-133.333333333333,4,2,2,65,0,0
27257,-133.333333333333,4,2,6,65,0,0
27338,-133.333333333333,4,2,2,65,0,0
27582,-133.333333333333,4,2,3,65,0,0
27906,-117.647058823529,4,2,3,80,0,0
29203,-105.263157894737,4,2,2,70,0,0
29446,-105.263157894737,4,2,2,5,0,0
29528,-105.263157894737,4,2,6,70,0,0
29609,-105.263157894737,4,2,2,70,0,0
29852,-105.263157894737,4,2,6,70,0,0
29933,-105.263157894737,4,2,2,70,0,0
30176,-105.263157894737,4,2,6,70,0,0
30257,-105.263157894737,4,2,2,70,0,0
30501,-105.263157894737,4,2,6,70,0,0
30582,-105.263157894737,4,2,2,5,0,0
30663,-105.263157894737,4,2,2,70,0,0
30825,-105.263157894737,4,2,6,70,0,0
30906,-105.263157894737,4,2,2,70,0,0
31149,-105.263157894737,4,2,6,70,0,0
31230,-105.263157894737,4,2,2,70,0,0
31474,-105.263157894737,4,2,6,70,0,0
31555,-105.263157894737,4,2,2,70,0,0
31798,-105.263157894737,4,2,6,70,0,0
31879,-105.263157894737,4,2,2,70,0,0
32122,-105.263157894737,4,2,6,70,0,0
32203,-105.263157894737,4,2,2,70,0,0
32446,-105.263157894737,4,2,6,70,0,0
32527,-105.263157894737,4,2,2,70,0,0
32771,-105.263157894737,4,2,6,70,0,0
32852,-105.263157894737,4,2,2,70,0,0
33095,-105.263157894737,4,2,6,70,0,0
33176,-105.263157894737,4,2,2,5,0,0
33257,-105.263157894737,4,2,2,70,0,0
33419,-105.263157894737,4,2,6,70,0,0
33500,-105.263157894737,4,2,2,70,0,0
33744,-105.263157894737,4,2,6,70,0,0
33825,-105.263157894737,4,2,2,70,0,0
34068,-105.263157894737,4,2,6,70,0,0
34149,-105.263157894737,4,2,2,70,0,0
34392,-105.263157894737,4,2,4,70,0,0
34473,-105.263157894737,4,2,2,70,0,0
34717,-90.9090909090909,4,2,4,70,0,0
34798,-90.9090909090909,4,2,2,70,0,0
35203,-90.9090909090909,4,2,3,70,0,0
35528,-90.9090909090909,4,2,2,70,0,0
36014,-90.9090909090909,4,2,4,70,0,0
36095,-90.9090909090909,4,2,2,70,0,0
36338,-90.9090909090909,4,2,4,70,0,0
36419,-90.9090909090909,4,2,2,70,0,0
36663,-90.9090909090909,4,2,4,70,0,0
36744,-90.9090909090909,4,2,2,70,0,0
36987,-90.9090909090909,4,2,6,70,0,0
37068,-90.9090909090909,4,2,2,70,0,0
37311,-90.9090909090909,4,2,4,70,0,0
37392,-90.9090909090909,4,2,2,70,0,0
37636,-90.9090909090909,4,2,4,70,0,0
37717,-90.9090909090909,4,2,2,70,0,0
37960,-90.9090909090909,4,2,4,70,0,0
38041,-90.9090909090909,4,2,2,70,0,0
38284,-303.030303030303,4,2,6,70,0,0
38365,-303.030303030303,4,2,2,70,0,0
38528,-90.9090909090909,4,2,2,5,0,0
38609,-66.6666666666667,4,2,2,70,0,0
39257,-66.6666666666667,4,2,3,70,0,0
39582,-121.951219512195,4,2,2,70,0,0
39906,-121.951219512195,4,2,12,70,0,0
39987,-121.951219512195,4,2,2,70,0,0
40230,-121.951219512195,4,2,12,70,0,0
40311,-121.951219512195,4,2,2,70,0,0
40555,-121.951219512195,4,2,11,70,0,0
40636,-121.951219512195,4,2,2,70,0,0
40879,-121.951219512195,4,2,11,70,0,0
40960,-121.951219512195,4,2,2,70,0,0
41203,-121.951219512195,4,2,11,70,0,0
41284,-121.951219512195,4,2,2,70,0,0
41528,-121.951219512195,4,2,11,70,0,0
41609,-121.951219512195,4,2,2,70,0,0
41852,-121.951219512195,4,2,11,70,0,0
41933,-121.951219512195,4,2,2,70,0,0
42176,-121.951219512195,4,2,11,70,0,0
42257,-121.951219512195,4,2,2,70,0,0
42500,-121.951219512195,4,2,11,70,0,0
42581,-121.951219512195,4,2,2,70,0,0
42825,-121.951219512195,4,2,11,70,0,0
42906,-121.951219512195,4,2,2,70,0,0
43149,-121.951219512195,4,2,11,70,0,0
43230,-121.951219512195,4,2,2,70,0,0
43474,-121.951219512195,4,2,11,70,0,0
43555,-121.951219512195,4,2,2,70,0,0
44446,-121.951219512195,4,2,3,70,0,0
44771,-121.951219512195,4,2,2,70,0,0
45095,-121.951219512195,4,2,12,70,0,0
45176,-121.951219512195,4,2,2,70,0,0
45419,-121.951219512195,4,2,12,70,0,0
45500,-121.951219512195,4,2,2,70,0,0
45744,-121.951219512195,4,2,11,70,0,0
45825,-121.951219512195,4,2,2,70,0,0
46068,-121.951219512195,4,2,11,70,0,0
46149,-121.951219512195,4,2,2,70,0,0
46392,-121.951219512195,4,2,11,70,0,0
46473,-121.951219512195,4,2,2,70,0,0
46717,-121.951219512195,4,2,11,70,0,0
46798,-121.951219512195,4,2,2,70,0,0
47041,-121.951219512195,4,2,11,70,0,0
47365,-105.263157894737,4,2,3,70,0,0
48014,-105.263157894737,4,2,2,70,0,0
48582,-105.263157894737,4,2,2,5,0,0
48663,-105.263157894737,4,2,2,70,0,0
48825,-105.263157894737,4,2,3,70,0,0
49960,-90.9090909090909,4,2,3,70,0,0
50771,-90.9090909090909,4,2,13,70,0,0
50852,-90.9090909090909,4,2,3,70,0,0
51014,-90.9090909090909,4,2,3,5,0,0
51095,-90.9090909090909,4,2,2,70,0,0
51744,-90.9090909090909,4,2,3,70,0,0
52068,-90.9090909090909,4,2,2,70,0,0
52230,-90.9090909090909,4,2,3,70,0,0
53609,-90.9090909090909,4,2,3,5,0,0
53690,-90.9090909090909,4,2,3,70,0,0
54501,-90.9090909090909,4,2,2,70,0,0
54825,-90.9090909090909,4,2,3,70,0,0
55149,-133.333333333333,4,2,3,50,0,0
57095,-133.333333333333,4,2,3,75,0,0
57419,-222.222222222222,4,2,3,75,0,0
57663,-222.222222222222,4,2,3,5,0,0
57744,-80,4,2,10,75,0,0
57825,-80,4,2,10,55,0,0
57987,-90.9090909090909,4,2,10,55,0,0
58068,-90.9090909090909,4,2,14,75,0,0
58149,-90.9090909090909,4,2,14,55,0,0
58392,-90.9090909090909,4,2,10,75,0,0
58473,-90.9090909090909,4,2,10,55,0,0
58879,-90.9090909090909,4,2,10,75,0,0
59365,-90.9090909090909,4,2,2,75,0,0
59446,-90.9090909090909,4,2,2,55,0,0
59690,-90.9090909090909,4,2,3,75,0,0
59771,-90.9090909090909,4,2,3,65,0,0
60014,-90.9090909090909,4,2,3,75,0,0
60095,-90.9090909090909,4,2,3,55,0,0
60338,-90.9090909090909,4,2,3,75,0,0
61311,-90.9090909090909,4,2,2,75,0,0
62933,-86.9565217391304,4,2,2,80,0,1
63176,-86.9565217391304,4,2,2,5,0,1
63257,-86.9565217391304,4,2,4,80,0,1
63338,-86.9565217391304,4,2,2,80,0,1
63582,-86.9565217391304,4,2,4,80,0,1
63663,-86.9565217391304,4,2,2,80,0,1
63906,-86.9565217391304,4,2,4,80,0,1
63987,-86.9565217391304,4,2,2,80,0,1
64230,-86.9565217391304,4,2,4,80,0,1
64311,-86.9565217391304,4,2,2,80,0,1
64555,-86.9565217391304,4,2,4,80,0,1
64636,-86.9565217391304,4,2,2,80,0,1
64879,-86.9565217391304,4,2,4,80,0,1
64960,-86.9565217391304,4,2,2,80,0,1
65203,-86.9565217391304,4,2,4,80,0,1
65284,-86.9565217391304,4,2,2,80,0,1
65528,-86.9565217391304,4,2,4,80,0,1
65609,-86.9565217391304,4,2,2,80,0,1
65771,-86.9565217391304,4,2,2,5,0,1
65852,-86.9565217391304,4,2,4,80,0,1
65933,-86.9565217391304,4,2,2,80,0,1
66176,-86.9565217391304,4,2,4,80,0,1
66257,-86.9565217391304,4,2,2,80,0,1
66501,-86.9565217391304,4,2,4,80,0,1
66582,-86.9565217391304,4,2,2,80,0,1
66825,-86.9565217391304,4,2,4,80,0,1
66906,-86.9565217391304,4,2,2,80,0,1
67798,-86.9565217391304,4,2,3,80,0,1
68041,-86.9565217391304,4,2,3,5,0,1
68122,-86.9565217391304,4,2,2,80,0,1
68446,-86.9565217391304,4,2,4,80,0,1
68527,-86.9565217391304,4,2,2,80,0,1
68771,-86.9565217391304,4,2,4,80,0,1
68852,-86.9565217391304,4,2,2,80,0,1
69095,-86.9565217391304,4,2,4,80,0,1
69176,-86.9565217391304,4,2,2,80,0,1
69419,-86.9565217391304,4,2,4,80,0,1
69500,-86.9565217391304,4,2,2,80,0,1
69663,-86.9565217391304,4,2,2,5,0,1
69744,-86.9565217391304,4,2,4,80,0,1
69825,-86.9565217391304,4,2,2,80,0,1
70068,-86.9565217391304,4,2,4,80,0,1
70149,-86.9565217391304,4,2,2,80,0,1
70392,-86.9565217391304,4,2,4,80,0,1
70473,-86.9565217391304,4,2,2,80,0,1
71041,-86.9565217391304,4,2,3,80,0,1
71365,-86.9565217391304,4,2,2,80,0,1
71690,-86.9565217391304,4,2,3,80,0,1
73311,-86.9565217391304,4,2,2,80,0,1
73555,-86.9565217391304,4,2,2,5,0,1
73636,-86.9565217391304,4,2,2,80,0,1
74284,-86.9565217391304,4,2,3,80,0,1
74933,-86.9565217391304,4,2,2,80,0,1
75582,-86.9565217391304,4,2,3,80,0,1
76230,-86.9565217391304,4,2,2,80,0,1
76879,-86.9565217391304,4,2,3,80,0,1
78014,-86.9565217391304,4,2,2,80,0,1
78501,-100,4,2,2,80,0,0
79149,-100,4,2,4,80,0,0
79230,-100,4,2,2,80,0,0
79798,-100,4,2,4,80,0,0
79879,-100,4,2,2,80,0,0
80446,-100,4,2,4,80,0,0
80527,-100,4,2,2,80,0,0
80690,-100,4,2,2,5,0,0
80771,-100,4,2,2,80,0,0
81095,-100,4,2,4,80,0,0
81176,-100,4,2,2,80,0,0
81744,-100,4,2,4,80,0,0
81825,-100,4,2,2,80,0,0
82311,-100,4,2,2,5,0,0
82392,-100,4,2,2,80,0,0
82879,-100,4,2,3,80,0,0
83690,-83.3333333333333,4,2,2,80,0,1
84987,-83.3333333333333,4,2,3,80,0,1
86284,-83.3333333333333,4,2,2,80,0,1
86528,-83.3333333333333,4,2,2,5,0,1
86609,-83.3333333333333,4,2,2,80,0,1
87582,-83.3333333333333,4,2,3,80,0,1
88149,-83.3333333333333,4,2,3,5,0,1
88230,-83.3333333333333,4,2,3,80,0,1
88392,-83.3333333333333,4,2,13,80,0,1
88717,-83.3333333333333,4,2,2,80,0,1
89203,-83.3333333333333,4,2,4,80,0,1
89284,-83.3333333333333,4,2,2,80,0,1
89528,-83.3333333333333,4,2,3,80,0,1
89852,-83.3333333333333,4,2,4,80,0,1
89933,-83.3333333333333,4,2,2,80,0,1
90176,-83.3333333333333,4,2,4,80,0,1
90257,-83.3333333333333,4,2,2,80,0,1
90501,-83.3333333333333,4,2,4,80,0,1
90582,-83.3333333333333,4,2,2,80,0,1
90987,-83.3333333333333,4,2,13,80,0,1
91068,-83.3333333333333,4,2,2,80,0,1
91798,-83.3333333333333,4,2,4,80,0,1
91879,-83.3333333333333,4,2,2,80,0,1
92122,-83.3333333333333,4,2,4,80,0,1
92203,-83.3333333333333,4,2,3,80,0,1
92446,-83.3333333333333,4,2,4,80,0,1
92528,-83.3333333333333,4,2,3,80,0,1
92771,-83.3333333333333,4,2,4,80,0,1
92853,-83.3333333333333,4,2,3,80,0,1
93095,-83.3333333333333,4,2,4,80,0,1
93177,-83.3333333333333,4,2,3,80,0,1
93419,-83.3333333333333,4,2,4,80,0,1
93501,-83.3333333333333,4,2,3,80,0,1
94392,-83.3333333333333,4,2,4,80,0,1
94473,-83.3333333333333,4,2,2,80,0,1
94717,-83.3333333333333,4,2,4,80,0,1
94798,-83.3333333333333,4,2,2,80,0,1
95041,-83.3333333333333,4,2,4,80,0,1
95122,-83.3333333333333,4,2,2,80,0,1
95365,-83.3333333333333,4,2,4,80,0,1
95446,-83.3333333333333,4,2,2,80,0,1
95690,-83.3333333333333,4,2,4,80,0,1
95771,-83.3333333333333,4,2,2,80,0,1
96014,-83.3333333333333,4,2,4,80,0,1
96095,-83.3333333333333,4,2,2,80,0,1
96338,-83.3333333333333,4,2,4,80,0,1
96419,-83.3333333333333,4,2,2,80,0,1
96987,-83.3333333333333,4,2,4,80,0,1
97068,-83.3333333333333,4,2,2,80,0,1
97311,-83.3333333333333,4,2,4,80,0,1
97392,-83.3333333333333,4,2,2,80,0,1
97636,-83.3333333333333,4,2,4,80,0,1
97717,-83.3333333333333,4,2,2,80,0,1
97960,-83.3333333333333,4,2,4,80,0,1
98041,-83.3333333333333,4,2,2,80,0,1
99095,-83.3333333333333,4,2,3,80,0,1
99906,-83.3333333333333,4,2,2,80,0,1
100230,-83.3333333333333,4,2,3,80,0,1
100555,-100,4,2,2,75,0,0
100879,-100,4,2,4,75,0,0
100960,-100,4,2,2,75,0,0
101203,-100,4,2,4,75,0,0
101284,-100,4,2,2,75,0,0
101528,-100,4,2,4,75,0,0
101609,-100,4,2,2,75,0,0
101690,-100,4,2,3,75,0,0
101852,-100,4,2,4,75,0,0
101933,-100,4,2,3,75,0,0
102176,-100,4,2,4,75,0,0
102257,-100,4,2,2,75,0,0
102501,-100,4,2,5,75,0,0
102582,-100,4,2,2,75,0,0
102825,-100,4,2,4,75,0,0
102906,-100,4,2,2,75,0,0
103392,-100,4,2,2,5,0,0
103474,-100,4,2,4,75,0,0
103555,-100,4,2,2,75,0,0
103798,-100,4,2,4,75,0,0
103879,-100,4,2,2,75,0,0
104122,-100,4,2,4,75,0,0
104203,-100,4,2,2,75,0,0
104284,-100,4,2,3,75,0,0
104771,-100,4,2,2,75,0,0
105095,-100,4,2,3,75,0,0
105744,-100,4,2,2,75,0,0
105906,-100,4,2,16,75,0,0
105987,-100,4,2,2,75,0,0
106230,-100,4,2,16,75,0,0
106311,-100,4,2,2,75,0,0
106555,-100,4,2,16,75,0,0
106636,-100,4,2,2,75,0,0
106879,-100,4,2,15,75,0,0
106960,-100,4,2,2,75,0,0
107203,-100,4,2,15,75,0,0
107284,-100,4,2,2,75,0,0
107528,-100,4,2,16,75,0,0
107609,-100,4,2,2,75,0,0
107852,-100,4,2,16,75,0,0
107933,-100,4,2,2,75,0,0
108176,-100,4,2,16,75,0,0
108257,-100,4,2,2,75,0,0
108501,-100,4,2,15,75,0,0
108582,-100,4,2,2,75,0,0
108825,-100,4,2,16,75,0,0
108906,-100,4,2,2,75,0,0
109149,-100,4,2,16,75,0,0
109230,-100,4,2,2,75,0,0
109474,-100,4,2,16,75,0,0
109555,-100,4,2,2,75,0,0
110284,-100,4,2,3,75,0,0
110933,-62.5,4,2,15,60,0,0
111014,-62.5,4,2,2,5,0,0
111419,-62.5,4,2,15,60,0,0
111501,-62.5,4,2,2,5,0,0
111744,-62.5,4,2,15,60,0,0
111825,-62.5,4,2,2,5,0,0
111906,-62.5,4,2,2,60,0,0
113528,-62.5,4,2,15,60,0,0
113609,-62.5,4,2,2,5,0,0
114014,-62.5,4,2,15,60,0,0
114095,-62.5,4,2,2,5,0,0
114338,-62.5,4,2,15,60,0,0
114419,-62.5,4,2,2,5,0,0
114501,-62.5,4,2,2,60,0,0
114582,-62.5,4,2,2,5,0,0
114663,-62.5,4,2,2,60,0,0
115311,-62.5,4,2,2,60,0,0
116122,-111.111111111111,4,2,2,60,0,0
116446,-111.111111111111,4,2,2,40,0,0
116609,-111.111111111111,4,2,2,45,0,0
116771,-111.111111111111,4,2,2,50,0,0
116933,-111.111111111111,4,2,2,55,0,0
117095,-111.111111111111,4,2,2,60,0,0
117257,-111.111111111111,4,2,2,65,0,0
117419,-111.111111111111,4,2,3,55,0,0
117744,-111.111111111111,4,2,2,40,0,0
117907,-111.111111111111,4,2,2,45,0,0
118069,-111.111111111111,4,2,2,50,0,0
118231,-111.111111111111,4,2,2,55,0,0
118393,-111.111111111111,4,2,2,60,0,0
118555,-111.111111111111,4,2,2,65,0,0
118717,-111.111111111111,4,2,2,70,0,0
120014,-200,4,2,3,55,0,0
121311,-117.647058823529,4,2,2,65,0,0
121960,-66.6666666666667,4,2,11,65,0,0
122041,-66.6666666666667,4,2,2,65,0,0
122284,-66.6666666666667,4,2,12,65,0,0
122365,-66.6666666666667,4,2,2,65,0,0
122609,-117.647058823529,4,2,11,65,0,0
122690,-117.647058823529,4,2,2,65,0,0
122933,-117.647058823529,4,2,11,65,0,0
123014,-117.647058823529,4,2,2,65,0,0
123257,-117.647058823529,4,2,11,65,0,0
123338,-117.647058823529,4,2,2,65,0,0
123582,-117.647058823529,4,2,11,65,0,0
123663,-117.647058823529,4,2,2,65,0,0
123906,-117.647058823529,4,2,11,65,0,0
123987,-117.647058823529,4,2,2,65,0,0
124230,-117.647058823529,4,2,11,65,0,0
124311,-117.647058823529,4,2,2,65,0,0
124555,-117.647058823529,4,2,11,65,0,0
124636,-117.647058823529,4,2,2,65,0,0
124879,-117.647058823529,4,2,12,65,0,0
124960,-117.647058823529,4,2,2,65,0,0
125203,-117.647058823529,4,2,11,65,0,0
125284,-117.647058823529,4,2,2,65,0,0
125528,-117.647058823529,4,2,11,65,0,0
125609,-117.647058823529,4,2,2,65,0,0
125852,-117.647058823529,4,2,11,65,0,0
125933,-117.647058823529,4,2,2,65,0,0
126176,-117.647058823529,4,2,11,65,0,0
126257,-117.647058823529,4,2,2,65,0,0
126501,-333.333333333333,4,2,2,65,0,0
127636,-100,4,2,2,65,0,0
128122,-100,4,2,4,65,0,0
128203,-100,4,2,2,65,0,0
128446,-100,4,2,4,65,0,0
128527,-100,4,2,2,65,0,0
128771,-100,4,2,4,65,0,0
128852,-100,4,2,2,65,0,0
129095,-100,4,2,3,65,0,0
129338,-100,4,2,3,5,0,0
129419,-100,4,2,4,65,0,0
129500,-100,4,2,2,65,0,0
129744,-100,4,2,4,65,0,0
129825,-100,4,2,2,65,0,0
130068,-100,4,2,4,65,0,0
130149,-100,4,2,2,65,0,0
130392,-100,4,2,3,65,0,0
131203,-100,4,2,2,65,0,0
131365,-100,4,2,3,65,0,0
131690,-90.9090909090909,4,2,2,75,0,0
132663,-90.9090909090909,4,2,4,75,0,0
132744,-90.9090909090909,4,2,2,75,0,0
133636,-90.9090909090909,4,2,3,75,0,0
134284,-90.9090909090909,4,2,2,75,0,0
134528,-90.9090909090909,4,2,2,5,0,0
134609,-90.9090909090909,4,2,3,75,0,0
134933,-90.9090909090909,4,2,2,75,0,0
135257,-90.9090909090909,4,2,4,75,0,0
135338,-90.9090909090909,4,2,2,75,0,0
135906,-90.9090909090909,4,2,4,75,0,0
135987,-90.9090909090909,4,2,2,75,0,0
136879,-100,4,2,3,75,0,0
137203,-100,4,2,4,75,0,0
137284,-100,4,2,2,75,0,0
137852,-100,4,2,4,75,0,0
137933,-100,4,2,2,75,0,0
138501,-100,4,2,4,75,0,0
138582,-100,4,2,2,75,0,0
138744,-100,4,2,2,5,0,0
138825,-100,4,2,3,75,0,0
139149,-100,4,2,4,75,0,0
139230,-100,4,2,2,75,0,0
139798,-100,4,2,4,75,0,0
139879,-100,4,2,2,75,0,0
140446,-100,4,2,5,75,0,0
140527,-100,4,2,2,75,0,0
141095,-100,4,2,5,75,0,0
141176,-100,4,2,2,75,0,0
141744,-100,4,2,4,75,0,0
141825,-100,4,2,2,75,0,0
142068,-100,4,2,2,75,0,0
142392,-100,4,2,4,75,0,0
142473,-100,4,2,2,75,0,0
142717,-100,4,2,5,75,0,0
142798,-100,4,2,2,75,0,0
143041,-100,4,2,4,75,0,0
143122,-100,4,2,2,75,0,0
143365,-100,4,2,4,75,0,0
143446,-100,4,2,2,75,0,0
143690,-100,4,2,4,75,0,0
143771,-100,4,2,2,75,0,0
144014,-100,4,2,5,75,0,0
144095,-100,4,2,2,75,0,0
144338,-100,4,2,4,75,0,0
144419,-100,4,2,2,75,0,0
144663,-100,4,2,4,75,0,0
144744,-100,4,2,2,75,0,0
144987,-100,4,2,4,75,0,0
145068,-100,4,2,2,75,0,0
145311,-100,4,2,5,75,0,0
145392,-100,4,2,2,75,0,0
145636,-100,4,2,4,75,0,0
145717,-100,4,2,2,75,0,0
145960,-100,4,2,4,75,0,0
146041,-100,4,2,2,75,0,0
146284,-100,4,2,4,75,0,0
146365,-100,4,2,2,75,0,0
146609,-100,4,2,3,75,0,0
146933,-100,4,2,2,75,0,0
147257,-83.3333333333333,4,2,2,75,0,0
147744,-83.3333333333333,4,2,3,75,0,0
148230,-83.3333333333333,4,2,2,75,0,0
148717,-83.3333333333333,4,2,3,75,0,0
149203,-83.3333333333333,4,2,2,75,0,0
149528,-83.3333333333333,4,2,3,75,0,0
149852,-83.3333333333333,4,2,2,75,0,0
150339,-83.3333333333333,4,2,3,75,0,0
150825,-83.3333333333333,4,2,2,75,0,0
151312,-83.3333333333333,4,2,3,75,0,0
151960,-83.3333333333333,4,2,2,75,0,0
152122,-83.3333333333333,4,2,3,75,0,0
152446,-100,4,2,2,75,0,0
152771,-100,4,2,11,75,0,0
152852,-100,4,2,2,75,0,0
153095,-100,4,2,12,75,0,0
153176,-100,4,2,2,75,0,0
153419,-100,4,2,11,75,0,0
153500,-100,4,2,2,75,0,0
153744,-100,4,2,11,75,0,0
153825,-100,4,2,2,75,0,0
154068,-100,4,2,11,75,0,0
154149,-100,4,2,2,75,0,0
154392,-100,4,2,11,75,0,0
154473,-100,4,2,2,75,0,0
154717,-100,4,2,11,75,0,0
154798,-100,4,2,2,75,0,0
155041,-100,4,2,11,75,0,0
155122,-100,4,2,2,75,0,0
155365,-100,4,2,11,75,0,0
155446,-100,4,2,2,75,0,0
155690,-100,4,2,11,75,0,0
155771,-100,4,2,2,75,0,0
156014,-100,4,2,11,75,0,0
156095,-100,4,2,2,75,0,0
156338,-100,4,2,11,75,0,0
156419,-100,4,2,2,75,0,0
157311,-100,4,2,3,75,0,0
157636,-111.111111111111,4,2,2,75,0,0
157960,-111.111111111111,4,2,12,75,0,0
158041,-111.111111111111,4,2,2,75,0,0
158284,-111.111111111111,4,2,12,75,0,0
158365,-111.111111111111,4,2,2,75,0,0
158609,-111.111111111111,4,2,11,75,0,0
158690,-111.111111111111,4,2,2,75,0,0
158933,-111.111111111111,4,2,11,75,0,0
159014,-111.111111111111,4,2,2,75,0,0
159257,-111.111111111111,4,2,11,75,0,0
159338,-111.111111111111,4,2,2,75,0,0
159582,-111.111111111111,4,2,11,75,0,0
159663,-111.111111111111,4,2,2,75,0,0
159906,-111.111111111111,4,2,11,75,0,0
159987,-111.111111111111,4,2,2,75,0,0
160230,-111.111111111111,4,2,11,75,0,0
160311,-111.111111111111,4,2,2,75,0,0
161041,-111.111111111111,4,2,3,75,0,0
161690,-111.111111111111,4,2,2,75,0,0
162176,-111.111111111111,4,2,3,75,0,0
162825,-90.9090909090909,4,2,3,75,0,0
163960,-90.9090909090909,4,2,2,75,0,0
164446,-90.9090909090909,4,2,4,75,0,0
164527,-90.9090909090909,4,2,2,75,0,0
164771,-90.9090909090909,4,2,4,75,0,0
164852,-90.9090909090909,4,2,2,75,0,0
165095,-90.9090909090909,4,2,4,75,0,0
165176,-90.9090909090909,4,2,2,75,0,0
165744,-90.9090909090909,4,2,3,75,0,0
166555,-90.9090909090909,4,2,2,75,0,0
167528,-90.9090909090909,4,2,3,75,0,0
168014,-83.3333333333333,4,2,3,75,0,0
168501,-83.3333333333333,4,2,2,75,0,0
168987,-83.3333333333333,4,2,3,75,0,0
169474,-83.3333333333333,4,2,2,75,0,0
169960,-83.3333333333333,4,2,3,75,0,0
170609,-83.3333333333333,4,2,10,75,0,0
170690,-83.3333333333333,4,2,10,55,0,0
170933,-83.3333333333333,4,2,14,75,0,0
171014,-83.3333333333333,4,2,14,55,0,0
171257,-83.3333333333333,4,2,10,75,0,0
171338,-83.3333333333333,4,2,10,55,0,0
171744,-83.3333333333333,4,2,10,75,0,0
172230,-83.3333333333333,4,2,2,75,0,0
172555,-83.3333333333333,4,2,3,75,0,0
173690,-83.3333333333333,4,2,2,75,0,0
174663,-83.3333333333333,4,2,10,75,0,0
175149,-100,4,2,2,75,0,0
175474,-100,4,2,3,75,0,0
175798,-83.3333333333333,4,2,10,75,0,0
175879,-83.3333333333333,4,2,10,55,0,0
176284,-83.3333333333333,4,2,14,75,0,0
176365,-83.3333333333333,4,2,14,55,0,0
176771,-83.3333333333333,4,2,10,75,0,0
176852,-83.3333333333333,4,2,10,55,0,0
177095,-83.3333333333333,4,2,10,75,0,0
177176,-83.3333333333333,4,2,10,55,0,0
177419,-83.3333333333333,4,2,10,75,0,0
177501,-83.3333333333333,4,2,10,55,0,0
177744,-83.3333333333333,4,2,2,75,0,0
178392,-192.307692307692,4,2,2,60,0,0
179690,-192.307692307692,4,2,2,35,0,0
180338,-384.615384615385,4,2,2,42,0,0
191365,-153.846153846154,4,2,2,50,0,0
191690,-153.846153846154,4,2,7,50,0,0
192014,-153.846153846154,4,2,8,50,0,0
192338,-153.846153846154,4,2,7,50,0,0
192663,-153.846153846154,4,2,2,50,0,0
192988,-153.846153846154,4,2,7,50,0,0
193312,-153.846153846154,4,2,8,50,0,0
193636,-153.846153846154,4,2,7,50,0,0
193960,-153.846153846154,4,2,2,50,0,0
194285,-153.846153846154,4,2,7,50,0,0
194609,-153.846153846154,4,2,8,50,0,0
194933,-153.846153846154,4,2,7,50,0,0
195257,-153.846153846154,4,2,2,50,0,0
195582,-153.846153846154,4,2,7,50,0,0
195906,-153.846153846154,4,2,8,50,0,0
196230,-153.846153846154,4,2,4,60,0,0
196311,-153.846153846154,4,2,8,60,0,0
196555,-100,4,2,2,60,0,0
196717,-100,4,2,2,35,0,0
196879,-100,4,2,2,40,0,0
197203,-100,4,2,2,45,0,0
197528,-100,4,2,2,50,0,0
197852,-100,4,2,2,55,0,0
198176,-100,4,2,2,60,0,0
198501,-100,4,2,2,65,0,0
198825,-100,4,2,2,70,0,0
199149,-100,4,2,3,75,0,0
199311,-100,4,2,10,75,0,0
200528,-100,4,2,10,55,0,0
200771,-100,4,2,10,75,0,0
200853,-100,4,2,10,55,0,0
201095,-100,4,2,10,75,0,0
201177,-100,4,2,10,55,0,0
201419,-100,4,2,10,75,0,0
201501,-100,4,2,10,55,0,0
201744,-83.3333333333333,4,2,2,80,0,0
202068,-83.3333333333333,4,2,3,80,0,0
202392,-83.3333333333333,4,2,2,80,0,0
202555,-83.3333333333333,4,2,3,80,0,0
202879,-71.4285714285714,4,2,2,80,0,0
203365,-71.4285714285714,4,2,3,80,0,0
204338,-83.3333333333333,4,2,2,80,0,1
204582,-83.3333333333333,4,2,2,5,0,1
204663,-83.3333333333333,4,2,4,80,0,1
204744,-83.3333333333333,4,2,2,80,0,1
204987,-83.3333333333333,4,2,4,80,0,1
205068,-83.3333333333333,4,2,2,80,0,1
205312,-83.3333333333333,4,2,4,80,0,1
205393,-83.3333333333333,4,2,2,80,0,1
205636,-83.3333333333333,4,2,4,80,0,1
205717,-83.3333333333333,4,2,2,80,0,1
205879,-83.3333333333333,4,2,2,5,0,1
205960,-83.3333333333333,4,2,2,80,0,1
206609,-83.3333333333333,4,2,3,80,0,1
206852,-83.3333333333333,4,2,3,5,0,1
206933,-83.3333333333333,4,2,2,80,0,1
207176,-83.3333333333333,4,2,2,5,0,1
207257,-83.3333333333333,4,2,4,80,0,1
207338,-83.3333333333333,4,2,2,80,0,1
207582,-83.3333333333333,4,2,4,80,0,1
207663,-83.3333333333333,4,2,2,80,0,1
207906,-83.3333333333333,4,2,4,80,0,1
207987,-83.3333333333333,4,2,2,80,0,1
208230,-83.3333333333333,4,2,4,80,0,1
208311,-83.3333333333333,4,2,2,80,0,1
208474,-83.3333333333333,4,2,2,5,0,1
208555,-83.3333333333333,4,2,4,80,0,1
208636,-83.3333333333333,4,2,2,80,0,1
208879,-83.3333333333333,4,2,4,80,0,1
208960,-83.3333333333333,4,2,2,80,0,1
209203,-83.3333333333333,4,2,4,80,0,1
209284,-83.3333333333333,4,2,2,80,0,1
209852,-83.3333333333333,4,2,3,80,0,1
210176,-83.3333333333333,4,2,2,80,0,1
210501,-83.3333333333333,4,2,3,80,0,1
212122,-83.3333333333333,4,2,2,80,0,1
212365,-83.3333333333333,4,2,2,5,0,1
212446,-83.3333333333333,4,2,2,80,0,1
213095,-83.3333333333333,4,2,3,80,0,1
213744,-83.3333333333333,4,2,2,80,0,1
214393,-83.3333333333333,4,2,3,80,0,1
215041,-83.3333333333333,4,2,2,80,0,1
215690,-83.3333333333333,4,2,3,80,0,1
216825,-83.3333333333333,4,2,2,80,0,1
217311,-100,4,2,2,80,0,0
217960,-100,4,2,4,80,0,0
218041,-100,4,2,2,80,0,0
218609,-100,4,2,4,80,0,0
218690,-100,4,2,2,80,0,0
219257,-100,4,2,4,80,0,0
219338,-100,4,2,2,80,0,0
219906,-100,4,2,4,80,0,0
219987,-100,4,2,2,80,0,0
220555,-100,4,2,4,80,0,0
220636,-100,4,2,2,80,0,0
221122,-100,4,2,2,5,0,0
221203,-100,4,2,2,80,0,0
221690,-100,4,2,3,80,0,0
222501,-90.9090909090909,4,2,2,80,0,1
223798,-90.9090909090909,4,2,3,80,0,1
225095,-90.9090909090909,4,2,2,80,0,1
225338,-90.9090909090909,4,2,2,5,0,1
225419,-90.9090909090909,4,2,2,80,0,1
226393,-90.9090909090909,4,2,3,80,0,1
227203,-90.9090909090909,4,2,13,80,0,1
227528,-83.3333333333333,4,2,2,80,0,1
228014,-83.3333333333333,4,2,4,80,0,1
228095,-83.3333333333333,4,2,2,80,0,1
228339,-83.3333333333333,4,2,3,80,0,1
228663,-83.3333333333333,4,2,4,80,0,1
228744,-83.3333333333333,4,2,2,80,0,1
228987,-83.3333333333333,4,2,4,80,0,1
229068,-83.3333333333333,4,2,2,80,0,1
229312,-83.3333333333333,4,2,4,80,0,1
229393,-83.3333333333333,4,2,2,80,0,1
229798,-83.3333333333333,4,2,13,80,0,1
229879,-83.3333333333333,4,2,2,80,0,1
230609,-83.3333333333333,4,2,4,80,0,1
230690,-83.3333333333333,4,2,2,80,0,1
230933,-83.3333333333333,4,2,3,80,0,1
231257,-83.3333333333333,4,2,4,80,0,1
231339,-83.3333333333333,4,2,3,80,0,1
231582,-83.3333333333333,4,2,4,80,0,1
231664,-83.3333333333333,4,2,3,80,0,1
231906,-83.3333333333333,4,2,4,80,0,1
231988,-83.3333333333333,4,2,3,80,0,1
232230,-83.3333333333333,4,2,4,80,0,1
232312,-83.3333333333333,4,2,3,80,0,1
232879,-125,4,2,2,70,0,0
233528,-125,4,2,4,70,0,0
233609,-125,4,2,2,70,0,0
234176,-125,4,2,4,70,0,0
234257,-125,4,2,2,70,0,0
234825,-125,4,2,4,70,0,0
234906,-125,4,2,2,70,0,0
235474,-125,4,2,4,70,0,0
235555,-125,4,2,2,70,0,0
236122,-125,4,2,4,70,0,0
236203,-125,4,2,2,70,0,0
236771,-125,4,2,4,70,0,0
236852,-125,4,2,2,70,0,0
237419,-125,4,2,4,70,0,0
237500,-125,4,2,2,70,0,0
237906,-125,4,2,3,70,0,0
238068,-83.3333333333333,4,2,2,80,0,1
244555,-90.9090909090909,4,2,2,75,0,0
244798,-90.9090909090909,4,2,2,5,0,0
244879,-90.9090909090909,4,2,4,75,0,0
244960,-90.9090909090909,4,2,2,75,0,0
245203,-90.9090909090909,4,2,4,75,0,0
245284,-90.9090909090909,4,2,2,75,0,0
245528,-90.9090909090909,4,2,4,75,0,0
245609,-90.9090909090909,4,2,2,75,0,0
245690,-90.9090909090909,4,2,3,75,0,0
245852,-90.9090909090909,4,2,4,75,0,0
245933,-90.9090909090909,4,2,3,75,0,0
246176,-90.9090909090909,4,2,4,75,0,0
246257,-90.9090909090909,4,2,2,75,0,0
246501,-90.9090909090909,4,2,5,75,0,0
246582,-90.9090909090909,4,2,2,75,0,0
246825,-90.9090909090909,4,2,4,75,0,0
246906,-90.9090909090909,4,2,2,75,0,0
247474,-90.9090909090909,4,2,4,75,0,0
247555,-90.9090909090909,4,2,2,75,0,0
247798,-90.9090909090909,4,2,4,75,0,0
247879,-90.9090909090909,4,2,2,75,0,0
248122,-90.9090909090909,4,2,4,75,0,0
248203,-90.9090909090909,4,2,2,75,0,0
248284,-90.9090909090909,4,2,3,75,0,0
248528,-90.9090909090909,4,2,3,5,0,0
248609,-90.9090909090909,4,2,3,75,0,0
248771,-90.9090909090909,4,2,2,75,0,0
249095,-90.9090909090909,4,2,3,75,0,0
249501,-90.9090909090909,4,2,2,75,0,0
249582,-90.9090909090909,4,2,3,75,0,0
249744,-90.9090909090909,4,2,14,75,0,0
250879,-90.9090909090909,4,2,10,75,0,0
251203,-90.9090909090909,4,2,2,75,0,0
251690,-90.9090909090909,4,2,3,75,0,0
252014,-90.9090909090909,4,2,2,75,0,0
252338,-90.9090909090909,4,2,2,39,0,0
252663,-90.9090909090909,4,2,2,41,0,0
252825,-90.9090909090909,4,2,2,44,0,0
252987,-90.9090909090909,4,2,2,47,0,0
253149,-90.9090909090909,4,2,2,50,0,0
253311,-90.9090909090909,4,2,2,53,0,0
253474,-90.9090909090909,4,2,2,56,0,0
253636,-90.9090909090909,4,2,2,59,0,0
253798,-90.9090909090909,4,2,2,62,0,0
253960,-90.9090909090909,4,2,2,65,0,0
254122,-90.9090909090909,4,2,2,68,0,0
254284,-90.9090909090909,4,2,2,71,0,0
254446,-90.9090909090909,4,2,2,74,0,0
254609,-90.9090909090909,4,2,2,77,0,0
254771,-90.9090909090909,4,2,2,80,0,0
255095,-90.9090909090909,4,2,2,70,0,0
255257,-90.9090909090909,4,2,2,60,0,0
255419,-90.9090909090909,4,2,2,50,0,0
255582,-90.9090909090909,4,2,2,40,0,0
255744,-90.9090909090909,4,2,2,30,0,0
255906,-90.9090909090909,4,2,2,20,0,0
256068,-90.9090909090909,4,2,2,10,0,0
256230,-90.9090909090909,4,2,2,5,0,0

[Colours]
Combo1 : 242,206,217
Combo2 : 147,133,132
Combo3 : 227,208,222
Combo4 : 123,95,87

[HitObjects]
182,224,451,6,0,L|192:317,1,88
258,368,1254,1,0,0:0:0:0:
333,323,1513,1,0,0:0:0:0:
364,82,2079,6,0,L|239:73,1,123.199996240234,2|0,0:0|0:0,0:0:0:0:
152,115,2679,1,0,0:0:0:0:
73,60,2879,1,2,0:0:0:0:
214,209,3679,6,0,B|161:232|161:232|96:210,1,123.199996240234,2|0,0:0|0:0,0:0:0:0:
218,298,4479,2,0,B|165:321|165:321|100:299,1,123.199996240234,2|0,0:0|0:0,0:0:0:0:
277,373,5247,5,2,0:0:0:0:
103,300,6047,1,2,0:0:0:0:
320,253,6847,1,2,0:0:0:0:
213,109,7647,1,2,0:0:0:0:
213,109,8447,6,0,P|252:167|319:157,1,118.799996374512,6|0,3:2|0:0,0:0:0:0:
295,169,8771,2,0,P|248:176|219:207,1,79.1999975830079,2|0,0:0|0:0,0:0:0:0:
382,216,9095,2,0,P|399:171|386:131,1,79.1999975830079,2|0,0:0|0:0,0:0:0:0:
297,265,9419,1,2,0:0:0:0:
408,309,9582,1,2,0:0:0:0:
297,265,9744,6,0,P|236:274|176:290,1,118.799996374512,6|0,3:2|0:0,0:0:0:0:
181,288,10068,2,0,P|219:300|249:324,1,79.1999975830079,2|0,0:0|0:0,0:0:0:0:
74,190,10392,2,0,P|29:198|-6:216,1,79.1999975830079,2|0,0:0|0:0,0:0:0:0:
199,80,10717,6,0,L|196:118,1,33,2|0,0:0|0:0,0:0:0:0:
154,19,11041,6,0,P|160:82|168:186,1,158.399995166016,6|2,3:2|0:0,0:0:0:0:
296,258,11528,2,0,P|302:179|310:101,1,158.399995166016,4|0,0:3|0:0,0:0:0:0:
128,269,12014,2,0,P|134:317|139:365,1,79.1999975830079,6|2,0:3|0:0,0:0:0:0:
296,258,12338,6,0,P|339:232|402:248,1,118.799996374512,6|0,3:2|0:0,0:0:0:0:
402,248,12663,2,0,P|449:276|489:271,1,88,6|0,0:3|0:0,0:0:0:0:
210,138,12987,2,0,P|201:77|195:34,1,88,10|0,0:3|0:0,0:0:0:0:
436,6,13311,2,0,P|429:49|423:93,1,88,6|0,0:3|0:0,0:0:0:0:
155,207,13636,5,14,3:2:0:0:
210,138,13798,1,2,0:0:0:0:
279,193,13960,1,14,3:2:0:0:
224,262,14122,1,2,0:0:0:0:
128,130,14285,5,14,3:2:0:0:
147,289,14446,1,2,0:0:0:0:
306,270,14609,1,14,3:2:0:0:
287,111,14770,1,2,0:0:0:0:
235,358,14933,5,12,3:2:0:0:
58,218,15095,2,0,L|5:225,2,44,8|8|8,0:2|0:2|3:2,0:0:0:0:
375,181,15419,2,0,L|428:174,2,44,8|8|8,0:2|0:2|3:2,0:0:0:0:
198,41,15744,1,10,0:2:0:0:
196,28,15825,1,8,0:2:0:0:
194,15,15906,1,8,3:2:0:0:
235,358,16067,1,10,0:2:0:0:
237,371,16149,1,10,0:2:0:0:
239,384,16230,5,14,3:2:0:0:
128,130,16392,1,8,0:2:0:0:
119,123,16473,1,8,0:2:0:0:
110,116,16554,1,10,3:2:0:0:
306,270,16716,1,10,0:2:0:0:
314,277,16797,1,8,0:2:0:0:
324,284,16879,5,8,3:2:0:0:
349,254,16960,1,8,0:2:0:0:
357,215,17041,1,10,0:2:0:0:
347,177,17122,1,8,0:2:0:0:
321,149,17204,1,8,3:2:0:0:
284,135,17285,1,8,0:2:0:0:
258,107,17366,1,10,0:2:0:0:
248,69,17447,1,10,0:2:0:0:
256,30,17528,6,0,B|310:1|357:39|337:49|384:84|438:55,1,198.000007553101,6|0,3:2|3:2,0:0:0:0:
208,260,18176,6,0,B|158:280|103:257|93:195|93:195|131:166|168:183,1,231.000008811951,6|0,3:2|0:0,0:0:0:0:
208,260,18825,6,0,P|218:314|256:340,1,99.0000037765504,6|0,3:2|0:0,0:0:0:0:
329,344,19149,1,2,3:2:0:0:
329,344,19474,1,0,3:2:0:0:
329,344,19798,1,0,3:2:0:0:
329,344,20122,1,0,3:2:0:0:
372,267,20284,5,2,0:0:0:0:
329,190,20446,1,2,3:2:0:0:
329,190,20771,5,2,3:2:0:0:
241,191,20933,1,2,0:0:0:0:
198,114,21095,1,2,3:2:0:0:
113,115,21257,2,0,P|109:180|105:254,1,132.000005035401,2|2,0:3|0:0,0:0:0:0:
172,336,21744,5,2,3:2:0:0:
172,336,22068,1,0,3:2:0:0:
172,336,22392,1,0,3:2:0:0:
172,336,22717,1,0,3:2:0:0:
260,314,22879,5,2,0:0:0:0:
348,292,23041,1,2,3:2:0:0:
285,227,23203,1,2,0:0:0:0:
323,379,23365,5,2,3:2:0:0:
373,205,23528,1,2,0:0:0:0:
247,74,23690,1,2,3:2:0:0:
197,248,23852,2,0,P|126:232|64:223,1,132.000005035401,2|2,0:0|0:0,0:0:0:0:
0,125,24338,5,2,3:2:0:0:
0,125,24663,1,0,3:2:0:0:
0,125,24987,5,2,3:2:0:0:
65,50,25149,2,0,P|126:54|168:111,1,132.000005035401,2|2,0:0|0:0,0:0:0:0:
274,198,25636,2,0,P|284:124|296:67,1,132.000005035401,2|2,3:2|3:2,0:0:0:0:
408,192,26122,2,0,P|420:248|425:278,2,66.0000025177003,2|0|10,0:0|3:2|3:2,0:0:0:0:
320,298,26609,5,2,3:2:0:0:
320,298,26933,1,2,3:2:0:0:
274,198,27095,1,2,0:0:0:0:
274,198,27419,5,6,0:3:0:0:
314,113,27582,1,10,0:3:0:0:
354,28,27744,1,6,0:3:0:0:
200,132,27906,5,10,2:2:0:0:
426,110,28068,1,10,2:2:0:0:
197,119,28230,1,10,2:2:0:0:
423,97,28392,2,0,P|471:101|520:105,1,74.8000014266968,10|0,2:2|3:2,0:0:0:0:
229,19,28717,5,10,2:2:0:0:
314,113,28879,1,10,2:2:0:0:
120,159,29041,1,10,2:2:0:0:
120,159,29122,1,8,0:0:0:0:
120,159,29203,6,0,P|92:239|121:278,1,125.399996651459,6|0,3:2|0:0,0:0:0:0:
109,268,29528,2,0,P|152:258|199:253,1,83.5999977676392,8|0,2:2|0:0,0:0:0:0:
0,225,29852,1,0,3:2:0:0:
167,350,30014,2,0,P|125:354|84:364,1,83.5999977676392,8|2,2:2|0:3,0:0:0:0:
293,262,30338,6,0,P|307:197|358:165,1,125.399996651459,0|0,3:2|0:0,0:0:0:0:
437,174,30663,1,2,0:2:0:0:
285,95,30825,1,10,2:2:0:0:
396,24,30987,1,2,0:2:0:0:
215,146,31149,2,0,P|199:88|212:47,1,83.5999977676392,2|2,0:3|3:2,0:0:0:0:
386,251,31474,1,10,2:2:0:0:
250,331,31636,6,0,P|316:346|420:370,1,167.199995535278,2|2,0:2|0:0,0:0:0:0:
174,244,32122,2,0,P|132:248|91:254,1,83.5999977676392,10|0,2:2|0:0,0:0:0:0:
250,331,32446,1,0,3:2:0:0:
386,251,32609,2,0,P|392:201|399:152,1,83.5999977676392,8|2,2:2|0:3,0:0:0:0:
190,5,32933,6,0,P|255:49|302:40,1,125.399996651459,0|0,3:2|0:0,0:0:0:0:
370,0,33257,1,2,0:2:0:0:
297,160,33419,2,0,P|256:152|215:146,1,83.5999977676392,10|2,2:2|0:2,0:0:0:0:
110,93,33744,1,2,0:3:0:0:
262,249,33906,1,2,3:2:0:0:
35,333,34068,1,10,2:2:0:0:
131,258,34230,6,0,P|120:175|110:93,1,167.199995535278,2|2,0:2|3:2,0:0:0:0:
297,160,34717,1,10,2:2:0:0:
228,337,34879,1,0,3:2:0:0:
431,231,35041,1,4,0:3:0:0:
210,130,35203,1,8,0:3:0:0:
210,130,35284,1,4,0:3:0:0:
210,130,35365,1,6,0:3:0:0:
457,20,35528,6,0,B|504:6|504:6|461:144,1,193.600005908203,6|2,3:2|3:2,0:0:0:0:
297,160,36014,2,0,L|289:51,1,96.8000029541017,8|0,0:0|0:0,0:0:0:0:
360,275,36338,5,2,3:2:0:0:
195,229,36501,1,2,3:2:0:0:
461,144,36663,1,8,2:2:0:0:
253,384,36825,2,0,L|305:367,1,48.4000014770508,2|0,0:0|0:0,0:0:0:0:
507,301,36987,6,0,P|442:237|360:275,1,193.600005908203,2|8,3:2|2:2,0:0:0:0:
130,161,37474,1,2,0:0:0:0:
289,63,37636,5,10,0:0:0:0:
189,321,37798,1,0,3:2:0:0:
24,94,37960,5,8,0:0:0:0:
297,160,38122,1,0,3:2:0:0:
61,204,38284,6,0,L|17:205,1,43.5599998670654,8|0,0:0|0:2,0:0:0:0:
130,161,38609,6,0,B|68:218|106:286|106:286|104:253|124:232,1,198.000007553101,12|4,0:0|0:3,0:0:0:0:
201,208,38933,1,8,0:2:0:0:
299,301,39095,1,4,0:3:0:0:
384,92,39257,5,12,0:2:0:0:
481,59,39419,1,0,0:0:0:0:
293,40,39582,6,0,P|233:45|138:58,1,144.320002202148,6|2,3:2|0:3,0:0:0:0:
57,191,40068,2,0,P|129:198|201:208,1,144.320002202148,0|0,3:2|3:2,0:0:0:0:
365,143,40555,2,0,P|407:133|446:128,1,72.1600011010742,10|0,0:2|0:0,0:0:0:0:
299,301,40879,6,0,P|291:260|303:221,1,72.1600011010742,2|0,3:2|0:0,0:0:0:0:
438,300,41203,2,0,P|398:286|370:256,1,72.1600011010742,2|0,0:3|3:2,0:0:0:0:
506,179,41528,2,0,P|474:206|434:215,1,72.1600011010742,2|0,0:3|3:2,0:0:0:0:
435,59,41852,2,0,P|443:99|430:139,1,72.1600011010742,10|0,0:2|0:0,0:0:0:0:
285,80,42176,6,0,P|323:84|364:89,1,72.1600011010742,2|0,3:2|0:0,0:0:0:0:
215,222,42501,2,0,P|253:218|294:213,1,72.1600011010742,2|0,0:3|3:2,0:0:0:0:
116,83,42825,2,0,P|154:87|195:92,1,72.1600011010742,2|0,0:3|3:2,0:0:0:0:
46,225,43150,2,0,P|84:221|125:216,1,72.1600011010742,10|0,0:2|0:0,0:0:0:0:
249,308,43474,5,2,3:2:0:0:
150,338,43636,1,0,3:2:0:0:
336,372,43798,2,0,P|341:337|348:285,1,72.1600011010742,12|0,2:2|0:0,0:0:0:0:
302,158,44122,5,2,3:2:0:0:
401,188,44284,1,0,3:2:0:0:
215,222,44446,2,0,P|210:187|203:135,1,72.1600011010742,14|0,2:2|3:2,0:0:0:0:
397,52,44771,6,0,B|423:120|423:120|401:188,1,144.320002202148,6|2,3:2|0:3,0:0:0:0:
215,222,45257,2,0,P|273:233|356:261,1,144.320002202148,0|0,3:2|3:2,0:0:0:0:
110,134,45744,2,0,P|121:91|128:62,1,72.1600011010742,10|0,0:2|0:0,0:0:0:0:
0,287,46068,6,0,P|10:330|17:370,1,72.1600011010742,2|0,3:2|0:0,0:0:0:0:
114,229,46392,2,0,P|104:272|97:312,1,72.1600011010742,2|0,0:3|3:2,0:0:0:0:
199,151,46717,2,0,P|209:194|216:234,1,72.1600011010742,2|0,0:3|3:2,0:0:0:0:
313,93,47041,2,0,P|303:136|296:176,1,72.1600011010742,10|0,0:2|0:0,0:0:0:0:
72,24,47365,6,0,P|119:57|221:21,1,167.199995535278,6|2,3:2|3:2,0:0:0:0:
400,125,47852,1,8,2:2:0:0:
297,246,48014,2,0,P|352:253|385:260,1,83.5999977676392,6|0,2:2|3:2,0:0:0:0:
446,32,48338,2,0,P|396:65|400:125,1,125.399996651459,10|0,2:2|0:0,0:0:0:0:
458,184,48663,5,2,3:2:0:0:
228,310,48825,1,12,2:2:0:0:
314,340,48987,1,0,3:2:0:0:
314,340,49311,5,8,3:2:0:0:
166,156,49474,1,2,3:2:0:0:
171,115,49555,1,0,3:2:0:0:
202,88,49636,1,0,3:2:0:0:
243,88,49717,1,0,3:2:0:0:
274,114,49798,1,2,3:2:0:0:
280,155,49879,1,0,3:2:0:0:
258,189,49960,5,10,0:0:0:0:
108,239,50122,1,10,0:0:0:0:
258,189,50284,1,10,0:0:0:0:
108,239,50446,1,2,3:0:0:0:
314,340,50609,5,2,3:0:0:0:
407,283,50771,2,0,P|393:214|378:131,1,145.200004431152,10|0,0:0|0:0,0:0:0:0:
433,59,51095,6,0,P|372:48|323:41,1,96.8000029541017,6|0,3:2|0:0,0:0:0:0:
100,118,51419,1,10,0:0:0:0:
209,20,51582,1,6,0:3:0:0:
258,189,51744,1,6,0:3:0:0:
230,277,51906,5,8,0:0:0:0:
346,217,52068,1,4,0:3:0:0:
286,101,52230,1,4,0:3:0:0:
170,161,52392,2,0,L|167:222,1,48.4000014770508,2|0,0:0|0:0,0:0:0:0:
79,347,52555,6,0,L|29:333,1,48.4000014770508,10|8,3:2|2:2,0:0:0:0:
241,356,52717,2,0,L|287:341,1,48.4000014770508,10|8,2:2|2:2,0:0:0:0:
96,268,52879,1,2,3:2:0:0:
230,277,53041,1,2,0:0:0:0:
159,381,53203,5,2,3:2:0:0:
170,161,53365,2,0,L|178:-15,1,145.200004431152,10|0,2:2|0:0,0:0:0:0:
286,101,53690,6,0,P|333:76|377:73,1,96.8000029541017,6|0,3:2|0:0,0:0:0:0:
177,15,54014,1,2,3:2:0:0:
357,165,54176,1,10,2:2:0:0:
230,277,54338,1,2,3:2:0:0:
428,279,54501,5,4,0:3:0:0:
170,161,54663,1,4,0:3:0:0:
375,72,54825,5,4,0:3:0:0:
230,277,54987,1,6,0:3:0:0:
271,348,55149,5,6,0:0:0:0:
319,259,56446,5,2,0:0:0:0:
224,114,57257,1,0,3:2:0:0:
224,114,57338,1,0,3:2:0:0:
224,114,57419,6,0,P|255:105|285:108,1,59.3999981872559,14|0,2:2|0:0,0:0:0:0:
333,30,57744,6,0,P|317:81|393:147,1,165,14|8,3:2|0:0,0:0:0:0:
468,123,58068,1,14,3:2:0:0:
262,221,58230,1,10,0:0:0:0:
262,221,58311,1,8,0:0:0:0:
262,221,58392,1,14,3:2:0:0:
452,347,58555,2,0,P|442:287|434:245,1,96.8000029541017,10|8,0:0|0:0,0:0:0:0:
162,211,58879,6,0,P|178:276|291:307,1,193.600005908203,14|8,3:2|3:2,0:0:0:0:
224,114,59365,2,0,P|168:93|121:101,1,96.8000029541017,14|0,2:2|3:2,0:0:0:0:
31,242,59690,1,14,0:2:0:0:
31,242,59771,1,8,0:0:0:0:
0,61,59933,1,8,0:2:0:0:
0,61,60014,1,6,3:2:0:0:
162,211,60176,1,0,3:2:0:0:
234,17,60338,6,0,P|228:65|224:114,1,96.8000029541017,14|0,2:2|3:2,0:0:0:0:
75,170,60663,1,0,3:2:0:0:
317,66,60825,2,0,P|310:113|306:162,1,96.8000029541017,14|0,2:2|3:2,0:0:0:0:
75,170,61149,1,0,3:2:0:0:
399,114,61311,2,0,P|392:161|388:210,1,96.8000029541017,14|0,2:2|3:2,0:0:0:0:
221,342,61636,5,0,3:2:0:0:
439,305,61798,1,8,0:0:0:0:
439,305,61879,1,8,0:0:0:0:
439,305,61960,2,0,L|382:296,1,48.4000014770508,8|8,0:0|0:0,0:0:0:0:
185,212,62122,2,0,L|242:203,1,48.4000014770508,8|8,0:3|0:3,0:0:0:0:
356,384,62284,5,10,3:2:0:0:
512,103,62446,1,10,3:2:0:0:
512,103,62933,6,0,B|477:82|440:106|449:116|407:141|369:117,1,151.800002895355,6|0,3:2|0:0,0:0:0:0:
297,76,63257,2,0,P|335:121|340:162,1,101.200001930237,10|0,2:2|0:0,0:0:0:0:
169,353,63582,1,2,3:2:0:0:
269,248,63744,2,0,P|320:257|372:266,1,101.200001930237,2|8,3:2|2:2,0:0:0:0:
93,117,64068,6,0,B|49:89|49:89|85:246,1,202.400003860474,2|0,0:0|0:0,0:0:0:0:
169,353,64555,2,0,P|118:362|66:371,1,101.200001930237,10|0,2:2|0:0,0:0:0:0:
246,152,64879,1,2,3:2:0:0:
82,235,65041,1,0,3:2:0:0:
304,337,65203,2,0,P|355:346|407:355,1,101.200001930237,10|0,2:2|0:0,0:0:0:0:
183,93,65528,6,0,P|259:70|326:120,1,151.800002895355,2|0,3:2|0:0,0:0:0:0:
373,175,65852,2,0,P|416:143|470:136,1,101.200001930237,10|8,2:2|0:0,0:0:0:0:
462,135,66095,1,8,0:0:0:0:
462,135,66176,1,2,3:2:0:0:
304,337,66338,1,0,3:2:0:0:
454,240,66501,1,10,2:2:0:0:
246,152,66663,1,0,3:2:0:0:
168,236,66825,6,0,P|219:241|269:248,1,101.200001930237,2|0,3:2|0:0,0:0:0:0:
328,94,67149,1,8,0:2:0:0:
108,16,67311,1,10,0:2:0:0:
108,16,67392,1,8,0:2:0:0:
108,16,67474,5,10,0:2:0:0:
246,152,67636,1,0,3:2:0:0:
477,41,67798,2,0,P|490:85|463:41,1,151.800002895355,12|0,2:2|0:0,0:0:0:0:
414,158,68122,6,0,P|400:242|395:276,1,101.200001930237,6|0,3:2|0:0,0:0:0:0:
246,152,68446,2,0,P|238:102|229:52,1,101.200001930237,10|0,2:2|0:0,0:0:0:0:
414,158,68771,1,2,3:2:0:0:
268,284,68933,1,0,3:2:0:0:
477,356,69095,2,0,P|484:306|493:256,1,101.200001930237,10|0,2:2|3:2,0:0:0:0:
154,262,69419,6,0,P|98:241|1:222,1,151.800002895355,2|0,3:2|0:0,0:0:0:0:
8,222,69744,2,0,P|49:198|112:190,1,101.200001930237,10|0,2:2|0:0,0:0:0:0:
259,51,70068,2,0,P|251:101|246:152,1,101.200001930237,2|0,3:2|3:2,0:0:0:0:
154,262,70392,1,10,2:2:0:0:
34,103,70555,1,0,3:2:0:0:
34,103,70636,1,0,3:2:0:0:
34,103,70717,5,6,3:2:0:0:
246,152,70879,1,0,3:2:0:0:
8,222,71041,5,14,2:2:0:0:
259,149,71203,1,0,3:2:0:0:
72,333,71365,5,14,2:2:0:0:
272,146,71528,1,0,3:2:0:0:
192,376,71690,5,14,2:2:0:0:
285,143,71852,1,0,3:2:0:0:
450,273,72014,5,2,3:2:0:0:
199,246,72176,1,12,2:2:0:0:
199,246,72257,1,8,0:0:0:0:
199,246,72338,2,0,L|204:301,3,50.6000009651184,0|0|0|0,3:2|3:0|3:2|3:0,0:0:0:0:
90,164,72663,6,0,B|80:143|80:143|87:117,1,50.6000009651184,8|0,2:2|3:0,0:0:0:0:
285,143,72825,2,0,B|292:117|292:117|282:96,1,50.6000009651184,0|0,3:2|3:0,0:0:0:0:
175,0,72987,5,8,2:2:0:0:
178,37,73068,1,8,2:2:0:0:
181,77,73149,1,8,2:2:0:0:
185,117,73230,1,8,2:2:0:0:
188,158,73311,6,0,P|295:175|361:194,1,151.800002895355,6|0,3:2|0:0,0:0:0:0:
340,268,73636,2,0,P|313:330|309:371,1,101.200001930237,14|0,2:2|0:0,0:0:0:0:
480,284,73960,1,2,3:2:0:0:
352,76,74122,1,2,3:2:0:0:
199,246,74284,1,14,2:2:0:0:
466,75,74446,6,0,P|432:165|337:186,1,202.400003860474,2|0,0:0|3:2,0:0:0:0:
178,37,74933,2,0,P|233:22|295:12,1,101.200001930237,14|0,2:2|0:0,0:0:0:0:
199,246,75257,1,2,3:2:0:0:
52,148,75419,1,0,3:2:0:0:
230,342,75582,2,0,P|180:332|131:319,1,101.200001930237,14|0,2:2|3:2,0:0:0:0:
419,236,75906,5,2,3:2:0:0:
406,322,76068,1,0,3:2:0:0:
439,110,76230,2,0,L|453:6,1,101.200001930237,14|0,2:2|0:0,0:0:0:0:
277,150,76555,5,2,3:2:0:0:
264,64,76717,1,0,3:2:0:0:
297,276,76879,2,0,L|311:380,1,101.200001930237,14|0,2:2|3:2,0:0:0:0:
439,110,77203,5,6,3:2:0:0:
206,216,77365,1,8,2:2:0:0:
159,233,77446,1,8,2:2:0:0:
111,220,77527,1,8,2:2:0:0:
79,182,77608,1,8,2:2:0:0:
75,132,77690,2,0,L|142:131,1,50.6000009651184,2|0,3:2|3:2,0:0:0:0:
297,276,77852,5,10,2:2:0:0:
291,326,77933,1,8,0:0:0:0:
285,376,78014,2,0,L|353:385,1,50.6000009651184,4|0,3:2|0:0,0:0:0:0:
439,110,78176,5,8,2:2:0:0:
445,160,78257,1,8,2:2:0:0:
451,210,78338,2,0,L|383:219,1,50.6000009651184,0|0,3:2|0:0,0:0:0:0:
180,48,78501,6,0,B|232:26|276:56|251:66|299:95|348:71,1,176,4|0,3:2|0:0,0:0:0:0:
344,72,78987,1,0,3:2:0:0:
202,260,79149,2,0,P|166:227|215:122,1,176,8|0,0:0|0:0,0:0:0:0:
329,204,79636,1,8,0:0:0:0:
329,204,79717,1,8,0:0:0:0:
329,204,79798,5,0,3:0:0:0:
426,26,79960,1,8,0:0:0:0:
506,125,80122,2,0,P|446:135|405:146,1,88,2|0,3:2|3:0,0:0:0:0:
296,313,80446,2,0,P|367:302|410:348,1,132,10|0,0:0|0:0,0:0:0:0:
478,365,80771,2,0,P|416:377|373:388,1,88,2|0,2:2|3:2,0:0:0:0:
202,260,81095,5,2,3:2:0:0:
266,142,81257,2,0,P|273:82|277:48,1,88,8|0,0:0|0:0,0:0:0:0:
296,313,81582,1,2,3:2:0:0:
97,260,81744,2,0,P|102:303|107:347,1,88,8|0,2:2|0:0,0:0:0:0:
1,137,82068,2,0,P|76:140|116:83,1,132,10|0,2:2|0:0,0:0:0:0:
111,101,82392,6,0,P|153:72|196:70,1,88,2|8,3:2|2:2,0:0:0:0:
371,138,82717,2,0,P|361:201|356:238,1,88,6|4,2:3|2:3,0:0:0:0:
179,158,83041,5,10,0:0:0:0:
342,302,83203,1,8,2:3:0:0:
179,377,83365,1,10,0:0:0:0:
97,260,83528,1,8,2:3:0:0:
242,288,83690,5,14,2:2:0:0:
272,210,83852,1,2,3:2:0:0:
111,101,84014,5,10,2:2:0:0:
81,23,84176,1,2,3:2:0:0:
371,138,84338,5,10,2:2:0:0:
445,88,84501,2,0,B|461:140|461:140|444:192,1,105.599996777344,2|8,3:2|2:2,0:0:0:0:
445,188,84825,1,2,3:2:0:0:
228,31,84987,5,14,2:2:0:0:
308,56,85149,1,2,3:2:0:0:
243,286,85311,5,10,2:2:0:0:
163,261,85473,1,2,3:2:0:0:
410,381,85636,5,10,2:2:0:0:
490,356,85798,2,0,P|499:300|507:249,1,105.599996777344,2|8,3:2|2:2,0:0:0:0:
506,251,86122,1,0,3:2:0:0:
219,129,86284,6,0,P|232:207|243:286,1,158.399995166016,14|0,2:2|0:0,0:0:0:0:
288,354,86609,1,10,2:2:0:0:
94,267,86771,1,2,3:2:0:0:
376,105,86933,5,10,2:2:0:0:
243,286,87095,1,2,3:2:0:0:
113,120,87257,2,0,P|166:124|219:129,1,105.599996777344,10|0,2:2|3:2,0:0:0:0:
477,83,87582,5,14,2:2:0:0:
446,216,87744,1,0,3:2:0:0:
301,25,87906,2,0,P|288:99|218:128,1,158.399995166016,10|0,2:2|0:0,0:0:0:0:
113,120,88230,1,2,3:2:0:0:
338,257,88392,1,10,2:2:0:0:
135,251,88717,6,0,B|210:241|210:241|261:268|261:268|338:257,1,211.199993554688,6|0,3:2|3:2,0:0:0:0:
219,129,89203,1,10,2:2:0:0:
193,347,89365,1,0,0:0:0:0:
193,347,89446,1,8,2:2:0:0:
193,347,89528,2,0,L|85:361,1,105.599996777344,6|0,3:2|3:2,0:0:0:0:
338,257,89852,2,0,P|350:201|362:144,1,105.599996777344,8|0,2:2|0:0,0:0:0:0:
172,47,90176,5,0,3:2:0:0:
89,94,90338,1,0,3:2:0:0:
137,176,90501,1,8,2:2:0:0:
219,129,90663,1,0,0:0:0:0:
89,94,90825,5,2,3:2:0:0:
301,24,90987,1,10,2:2:0:0:
509,60,91311,6,0,P|405:41|301:24,1,211.199993554688,6|0,3:2|3:2,0:0:0:0:
137,176,91798,2,0,P|72:180|16:187,1,105.599996777344,10|0,2:2|3:2,0:0:0:0:
31,184,92041,1,8,2:2:0:0:
31,184,92122,1,2,3:2:0:0:
214,237,92284,1,0,3:2:0:0:
172,47,92446,1,10,2:2:0:0:
108,283,92609,1,0,0:0:0:0:
284,149,92771,5,2,3:2:0:0:
20,90,92933,1,0,3:2:0:0:
284,149,93095,2,0,P|340:141|400:135,1,105.599996777344,10|0,2:2|3:2,0:0:0:0:
137,176,93419,1,10,2:2:0:0:
309,298,93582,1,8,0:0:0:0:
309,298,93663,1,8,0:0:0:0:
309,298,93744,1,10,0:0:0:0:
169,367,93906,1,8,0:0:0:0:
390,346,94068,6,0,B|399:291|399:291|382:237,1,105.599996777344,14|0,2:2|3:2,0:0:0:0:
172,47,94392,1,8,2:2:0:0:
212,266,94555,1,2,3:2:0:0:
309,122,94717,5,10,2:2:0:0:
72,252,94879,1,0,3:2:0:0:
274,370,95041,5,8,2:2:0:0:
137,176,95203,1,0,3:2:0:0:
64,384,95365,6,0,P|116:375|169:367,1,105.599996777344,10|0,2:2|3:2,0:0:0:0:
463,306,95690,1,8,2:2:0:0:
212,266,95852,1,2,3:2:0:0:
395,159,96014,5,10,2:2:0:0:
338,230,96176,1,8,2:2:0:0:
343,43,96338,5,8,2:2:0:0:
390,346,96501,1,0,3:2:0:0:
137,176,96663,6,0,B|122:124|122:124|138:69,1,105.599996777344,14|0,2:2|3:2,0:0:0:0:
467,108,96987,2,0,B|482:160|482:160|466:215,1,105.599996777344,10|0,2:2|3:2,0:0:0:0:
211,127,97311,5,10,2:2:0:0:
395,159,97474,1,0,3:2:0:0:
137,176,97636,5,10,2:2:0:0:
466,107,97798,1,0,3:2:0:0:
286,11,97960,6,0,P|294:82|298:130,1,105.599996777344,10|0,2:2|3:2,0:0:0:0:
231,321,98284,1,10,2:2:0:0:
391,250,98446,1,8,0:0:0:0:
391,250,98528,1,8,0:0:0:0:
391,250,98609,5,2,3:2:0:0:
152,355,98771,1,10,2:0:0:0:
47,116,98933,1,2,3:2:0:0:
286,11,99095,6,0,B|273:68|273:68|282:128|282:128|260:221,1,211.199993554688,6|0,3:2|3:2,0:0:0:0:
260,217,99501,1,0,3:2:0:0:
260,217,99582,1,8,2:2:0:0:
47,116,99744,2,0,L|104:123,1,52.7999983886719,0|0,3:2|3:2,0:0:0:0:
179,133,99906,5,12,2:2:0:0:
418,28,100068,2,0,L|361:21,1,52.7999983886719,0|0,3:2|3:0,0:0:0:0:
286,11,100230,5,12,2:2:0:0:
467,201,100392,1,8,0:0:0:0:
467,201,100474,1,8,0:0:0:0:
467,201,100555,6,0,P|454:295|444:382,1,176,6|10,3:2|2:2,0:0:0:0:
329,287,101041,1,0,0:0:0:0:
206,355,101203,2,0,P|198:291|191:249,1,88,2|0,3:2|3:2,0:0:0:0:
267,154,101528,1,10,2:2:0:0:
102,0,101690,6,0,P|39:-2|1:93,1,176,6|0,3:2|3:2,0:0:0:0:
180,170,102176,2,0,P|223:160|267:154,1,88,10|0,2:2|0:0,0:0:0:0:
86,303,102501,2,0,P|43:293|0:286,1,88,2|0,2:3|3:2,0:0:0:0:
206,355,102825,1,10,2:2:0:0:
99,206,102987,1,8,0:0:0:0:
99,206,103068,1,8,0:0:0:0:
99,206,103149,6,0,P|90:135|77:65,1,132,6|0,3:2|0:0,0:0:0:0:
79,75,103474,2,0,P|128:78|172:83,1,88,10|0,2:2|0:0,0:0:0:0:
166,82,103717,1,0,3:2:0:0:
166,82,103798,1,2,3:2:0:0:
287,221,103960,1,0,3:2:0:0:
387,29,104122,1,10,2:2:0:0:
278,230,104284,6,0,B|248:187|272:141|288:154|310:107|287:63,1,176,6|8,3:2|0:0,0:0:0:0:
471,89,104771,2,0,P|415:125|370:130,1,88,6|8,3:2|2:0,0:0:0:0:
394,129,105014,1,8,2:0:0:0:
394,129,105095,1,14,0:0:0:0:
221,3,105257,1,0,3:2:0:0:
278,230,105419,5,14,2:0:0:0:
310,233,105500,1,8,2:0:0:0:
343,237,105581,1,8,2:0:0:0:
376,241,105662,1,8,2:0:0:0:
409,245,105743,5,4,3:2:0:0:
331,342,105906,1,2,2:3:0:0:
512,207,106068,5,10,3:2:0:0:
316,124,106230,1,2,2:3:0:0:
135,259,106392,5,2,3:2:0:0:
278,230,106555,1,2,2:3:0:0:
30,129,106717,1,10,3:2:0:0:
167,337,106879,6,0,B|173:290|135:259|135:259|175:229|160:177,1,176,2|2,2:3|2:3,0:0:0:0:
71,338,107365,1,10,3:2:0:0:
278,230,107528,2,0,P|346:216|456:200,1,176,2|2,2:3|2:3,0:0:0:0:
268,79,108014,1,10,3:2:0:0:
235,57,108095,1,2,0:0:0:0:
196,49,108176,1,2,3:3:0:0:
157,56,108257,1,2,0:0:0:0:
124,77,108338,6,0,P|123:157|38:200,1,176,2|10,3:2|3:2,0:0:0:0:
167,337,108825,2,0,P|176:283|187:244,1,88,2|0,0:3|3:2,0:0:0:0:
46,116,109149,2,0,P|40:72|29:30,1,88,2|8,0:3|3:2,0:0:0:0:
279,231,109474,1,2,3:3:0:0:
279,231,109798,5,14,3:2:0:0:
23,333,109960,1,14,3:2:0:0:
23,333,110284,5,14,3:2:0:0:
190,67,110446,1,14,3:2:0:0:
190,67,110933,6,0,B|259:75,1,70.4,2|0,3:2|0:0,0:0:0:0:
452,191,111419,6,0,B|383:199,1,70.4,0|0,3:2|0:0,0:0:0:0:
446,281,111744,2,0,B|377:289,1,70.4,0|0,3:2|0:0,0:0:0:0:
376,289,113041,5,0,3:0:0:0:
118,326,113203,1,8,0:2:0:0:
118,326,113528,6,0,B|126:257,1,70.4,8|0,3:2|0:0,0:0:0:0:
223,71,114014,6,0,B|231:140,1,70.4,8|0,3:2|0:0,0:0:0:0:
346,246,114338,6,0,B|338:177,1,70.4,8|0,3:2|0:0,0:0:0:0:
420,96,114501,2,0,B|428:165,1,70.4,8|0,0:0|0:0,0:0:0:0:
219,294,115311,5,8,0:3:0:0:
131,186,115474,1,0,3:3:0:0:
264,216,115636,1,4,0:3:0:0:
131,272,115798,1,0,3:3:0:0:
207,151,115960,1,0,3:3:0:0:
219,294,116122,5,4,3:2:0:0:
219,294,116446,2,0,L|304:287,1,79.1999975830079,2|8,3:2|3:2,0:0:0:0:
423,208,116771,1,8,3:2:0:0:
383,315,116933,1,8,3:2:0:0:
305,146,117095,1,10,3:2:0:0:
507,250,117257,1,10,3:2:0:0:
305,146,117419,6,0,L|296:58,1,79.1999975830079,12|2,3:2|0:0,0:0:0:0:
216,20,117744,1,10,3:2:0:0:
383,53,117906,1,8,3:2:0:0:
187,114,118068,1,10,3:2:0:0:
418,154,118230,1,10,3:2:0:0:
158,208,118392,1,8,3:2:0:0:
453,255,118555,1,10,3:2:0:0:
305,146,118717,5,14,3:2:0:0:
283,320,118879,1,0,3:2:0:0:
283,320,118960,1,0,3:2:0:0:
283,320,119041,1,10,2:2:0:0:
46,278,119203,1,2,3:2:0:0:
46,278,119284,1,0,3:2:0:0:
46,278,119365,5,8,2:2:0:0:
55,240,119446,1,8,2:2:0:0:
82,211,119527,1,10,2:2:0:0:
120,200,119608,1,8,2:2:0:0:
158,208,119690,5,10,2:2:0:0:
199,184,119771,1,8,2:2:0:0:
217,142,119852,1,10,2:2:0:0:
207,96,119933,1,8,2:2:0:0:
172,66,120014,6,0,L|129:71,3,44,6|2|2|2,3:2|0:0|0:0|0:0,0:0:0:0:
313,15,120825,1,2,0:0:0:0:
304,93,120987,1,2,0:0:0:0:
296,171,121149,1,2,0:0:0:0:
429,238,121311,6,0,P|362:259|336:334,1,149.600002853394,6|2,3:2|0:0,0:0:0:0:
335,328,121798,1,0,0:0:0:0:
160,268,121960,6,0,B|110:253|115:190|160:167|231:193|207:253|165:337,1,264.000010070801,10|2,0:0|0:3,0:0:0:0:
34,348,122446,1,0,3:2:0:0:
0,218,122609,5,0,3:2:0:0:
114,108,122771,1,2,0:0:0:0:
58,48,122933,1,2,0:3:0:0:
135,32,123095,1,2,3:2:0:0:
175,168,123257,2,0,P|137:187|92:189,2,74.8000014266968,10|2|2,2:2|0:0|0:3,0:0:0:0:
284,46,123744,6,0,P|281:108|353:168,1,149.600002853394,2|2,3:2|0:0,0:0:0:0:
300,304,124230,2,0,P|383:323|447:345,2,149.600002853394,2|8|2,3:2|2:2|2:3,0:0:0:0:
205,347,125041,1,0,3:2:0:0:
382,240,125203,5,0,3:2:0:0:
256,148,125365,1,2,0:0:0:0:
278,226,125528,1,2,2:3:0:0:
300,304,125690,1,0,3:2:0:0:
174,212,125852,6,0,P|130:220|89:232,1,74.8000014266968,10|2,2:2|3:2,0:0:0:0:
129,87,126176,1,10,2:2:0:0:
331,13,126338,1,10,2:2:0:0:
331,13,126419,1,8,2:2:0:0:
331,13,126501,6,0,L|346:176,1,158.399995166016,0|2,3:2|3:2,0:0:0:0:
78,101,127636,6,0,P|140:103|196:199,1,176,14|2,3:2|3:2,0:0:0:0:
29,283,128122,2,0,L|22:196,1,88,10|0,2:2|0:0,0:0:0:0:
196,192,128446,1,10,2:2:0:0:
141,364,128609,1,2,3:2:0:0:
22,196,128771,1,8,2:2:0:0:
265,323,128933,1,2,3:2:0:0:
265,323,129014,1,0,3:2:0:0:
265,323,129095,6,0,P|330:301|403:296,1,132,14|0,2:2|0:0,0:0:0:0:
392,295,129419,2,0,P|343:287|315:248,1,88,8|2,2:2|3:2,0:0:0:0:
282,56,129744,1,10,2:2:0:0:
397,213,129906,1,0,3:2:0:0:
196,192,130068,1,8,2:2:0:0:
420,57,130230,1,0,3:2:0:0:
489,312,130392,5,4,3:2:0:0:
397,213,130555,1,8,2:2:0:0:
369,375,130717,1,0,3:2:0:0:
497,320,130879,1,8,2:2:0:0:
259,137,131041,5,8,2:2:0:0:
210,112,131122,1,8,0:0:0:0:
157,123,131203,1,8,2:2:0:0:
122,163,131284,1,8,2:2:0:0:
119,217,131365,2,0,L|126:272,3,44,8|8|4|4,2:3|2:3|2:3|2:3,0:0:0:0:
29,181,131690,6,0,L|43:70,1,96.8000029541017,4|0,3:2|3:2,0:0:0:0:
196,192,132014,2,0,L|208:288,1,96.8000029541017,12|0,2:2|3:2,0:0:0:0:
14,191,132338,2,0,L|28:80,1,96.8000029541017,12|0,2:2|3:2,0:0:0:0:
90,350,132663,1,0,3:2:0:0:
295,243,132825,6,0,P|354:232|423:334,1,193.600005908203,12|0,2:2|3:2,0:0:0:0:
473,148,133311,2,0,L|484:47,1,96.8000029541017,12|0,2:2|3:2,0:0:0:0:
295,243,133636,2,0,L|282:146,1,96.8000029541017,12|0,2:2|3:2,0:0:0:0:
423,328,133960,1,12,2:2:0:0:
194,268,134122,1,0,3:2:0:0:
297,70,134284,6,0,B|262:52|223:78|239:86|197:108|159:90,1,145.200004431152,4|0,3:2|0:0,0:0:0:0:
161,91,134609,2,0,P|195:61|201:11,1,96.8000029541017,12|0,2:2|3:2,0:0:0:0:
194,268,134933,2,0,P|127:281|80:292,1,96.8000029541017,12|0,2:2|3:2,0:0:0:0:
263,366,135257,1,0,3:2:0:0:
56,155,135419,6,0,P|138:169|247:191,1,193.600005908203,12|0,2:2|3:2,0:0:0:0:
33,344,135906,2,0,P|10:294|33:228,1,96.8000029541017,8|0,2:2|3:2,0:0:0:0:
160,90,136230,1,12,2:2:0:0:
335,249,136392,1,0,3:2:0:0:
335,249,136474,1,0,3:0:0:0:
335,249,136555,1,12,2:2:0:0:
99,287,136717,1,0,3:2:0:0:
246,190,136879,5,12,2:2:0:0:
67,49,137041,1,0,0:0:0:0:
160,5,137203,2,0,B|172:49|172:49|160:90,1,88,2|0,2:3|3:2,0:0:0:0:
99,287,137528,5,12,2:2:0:0:
187,352,137690,2,0,P|239:345|279:341,1,88,0|2,0:0|2:3,0:0:0:0:
421,135,138014,5,0,3:2:0:0:
333,200,138176,2,0,P|281:193|241:189,1,88,12|0,2:2|0:0,0:0:0:0:
421,135,138501,2,0,P|429:210|439:273,1,132,2|0,2:3|3:2,0:0:0:0:
433,362,138825,2,0,P|465:339|528:338,1,88,12|0,2:2|3:2,0:0:0:0:
333,200,139149,1,2,3:2:0:0:
296,113,139311,1,0,3:2:0:0:
395,49,139474,6,0,L|448:60,3,44,2|2|2|2,3:2|0:0|3:2|0:0,0:0:0:0:
296,113,139798,2,0,L|349:124,3,44,14|0|2|2,2:2|0:0|3:2|0:0,0:0:0:0:
211,20,140122,1,2,3:2:0:0:
208,46,140203,1,2,0:0:0:0:
205,72,140284,1,14,2:2:0:0:
202,98,140365,1,2,0:0:0:0:
199,124,140447,5,2,2:3:0:0:
161,160,140528,1,2,0:0:0:0:
110,168,140609,1,2,3:2:0:0:
63,144,140690,1,2,0:0:0:0:
39,99,140771,5,14,2:2:0:0:
86,120,140852,1,2,0:0:0:0:
110,168,140933,1,2,3:2:0:0:
100,218,141014,1,2,0:0:0:0:
61,252,141095,5,2,2:3:0:0:
42,292,141176,1,2,0:0:0:0:
51,334,141257,1,2,3:2:0:0:
84,362,141338,1,2,3:2:0:0:
127,365,141420,5,10,0:0:0:0:
144,335,141501,1,10,0:0:0:0:
172,314,141582,1,10,0:0:0:0:
206,307,141663,1,10,0:0:0:0:
240,316,141744,2,0,L|237:367,3,44,10|10|10|10,0:2|0:0|0:0|0:0,0:0:0:0:
207,229,142068,6,0,B|251:219|251:219|291:238,1,88,6|0,3:2|0:0,0:0:0:0:
451,353,142392,2,0,B|407:363|407:363|367:344,1,88,10|0,2:2|3:2,0:0:0:0:
207,229,142717,2,0,P|211:176|217:135,1,88,2|0,2:3|3:2,0:0:0:0:
416,273,143041,1,10,0:0:0:0:
296,100,143203,6,0,P|235:50|143:92,1,176,2|0,3:2|3:0,0:0:0:0:
337,226,143690,2,0,P|385:190|430:185,1,88,10|0,2:2|3:2,0:0:0:0:
158,309,144014,2,0,P|110:273|65:268,1,88,2|0,2:3|3:2,0:0:0:0:
347,363,144338,2,0,P|402:371|449:380,1,88,10|0,0:0|3:2,0:0:0:0:
512,118,144663,6,0,P|501:170|493:218,1,88,2|0,3:2|0:0,0:0:0:0:
279,13,144987,2,0,P|288:56|296:100,1,88,10|0,2:2|3:2,0:0:0:0:
197,229,145311,1,2,2:3:0:0:
74,108,145474,2,0,B|114:94|114:94|158:110,1,88,2|10,3:2|0:0,0:0:0:0:
240,310,145798,1,2,3:2:0:0:
240,310,145879,1,0,3:2:0:0:
240,310,145960,6,0,B|200:324|200:324|156:308,1,88,0|2,3:2|0:0,0:0:0:0:
74,108,146284,1,10,2:2:0:0:
197,229,146446,1,2,3:2:0:0:
0,239,146609,6,0,L|56:225,1,44,12|0,0:0|0:0,0:0:0:0:
261,139,146771,1,0,3:2:0:0:
261,139,146852,1,0,3:2:0:0:
261,139,146933,2,0,L|205:125,1,44,14|0,0:0|0:0,0:0:0:0:
4,46,147095,1,0,3:0:0:0:
4,46,147176,1,0,3:0:0:0:
4,46,147257,5,14,0:0:0:0:
74,108,147419,1,2,3:2:0:0:
124,13,147582,1,2,3:2:0:0:
335,220,147744,6,0,P|330:277|326:341,1,105.599996777344,14|0,0:0|3:2,0:0:0:0:
238,356,148068,1,2,3:2:0:0:
455,237,148230,5,14,0:0:0:0:
405,135,148392,1,2,3:2:0:0:
512,60,148555,1,2,3:2:0:0:
261,139,148717,6,0,P|201:129|154:122,1,105.599996777344,14|0,0:0|3:2,0:0:0:0:
54,192,149041,1,2,3:2:0:0:
238,356,149203,5,6,0:3:0:0:
173,250,149365,1,6,0:3:0:0:
261,139,149528,1,6,0:3:0:0:
147,20,149690,1,6,0:3:0:0:
54,192,149852,5,14,0:0:0:0:
173,250,150014,1,2,3:2:0:0:
77,384,150176,1,2,3:2:0:0:
261,139,150338,6,0,P|334:129|371:126,1,105.599996777344,14|0,0:0|3:2,0:0:0:0:
440,187,150663,1,2,3:2:0:0:
294,262,150825,5,14,0:0:0:0:
315,53,150987,1,2,3:2:0:0:
440,187,151149,1,2,3:2:0:0:
172,156,151311,5,14,0:0:0:0:
457,102,151474,1,10,2:2:0:0:
258,347,151636,1,10,0:0:0:0:
198,69,151798,5,10,0:0:0:0:
386,273,151960,1,4,0:3:0:0:
207,65,152122,5,10,0:3:0:0:
395,269,152284,1,4,0:3:0:0:
95,262,152446,6,0,P|93:180|172:156,2,176,6|8|2,3:2|2:2|0:3,0:0:0:0:
221,261,153257,1,0,3:2:0:0:
29,341,153419,2,0,P|75:349|121:358,1,88,10|0,2:2|0:0,0:0:0:0:
302,207,153744,6,0,P|296:156|290:112,1,88,2|0,3:2|3:2,0:0:0:0:
426,274,154068,2,0,P|420:317|415:361,1,88,10|0,2:2|3:2,0:0:0:0:
398,176,154392,2,0,P|449:170|493:164,1,88,2|0,0:3|3:2,0:0:0:0:
331,300,154716,2,0,P|287:294|243:289,1,88,10|0,2:2|0:0,0:0:0:0:
205,83,155041,6,0,P|255:43|370:71,1,176,2|10,3:2|2:2,0:0:0:0:
302,207,155528,1,0,3:2:0:0:
485,165,155690,2,0,B|496:121|496:121|483:79,1,88,2|0,0:3|3:2,0:0:0:0:
331,300,156014,2,0,B|320:344|320:344|333:386,1,88,10|0,2:2|0:0,0:0:0:0:
442,340,156338,5,2,3:2:0:0:
442,340,156501,1,0,3:2:0:0:
218,233,156663,2,0,L|118:244,1,88,12|0,2:2|0:0,0:0:0:0:
370,148,156987,5,2,3:2:0:0:
370,148,157150,1,0,3:2:0:0:
143,332,157311,2,0,L|230:322,1,88,14|0,2:2|3:2,0:0:0:0:
86,80,157636,6,0,P|121:138|209:123,1,158.399995166016,6|2,3:2|0:3,0:0:0:0:
34,228,158122,2,0,P|51:301|57:391,1,158.399995166016,0|0,3:2|3:2,0:0:0:0:
218,233,158609,2,0,P|254:216|308:217,1,79.1999975830079,10|0,2:2|0:0,0:0:0:0:
466,74,158933,6,0,P|461:124|459:159,1,79.1999975830079,2|0,3:2|0:0,0:0:0:0:
375,93,159257,2,0,P|370:143|368:178,1,79.1999975830079,2|8,0:3|0:0,0:0:0:0:
415,332,159582,2,0,P|420:282|422:247,1,79.1999975830079,2|0,0:3|3:2,0:0:0:0:
506,313,159906,2,0,P|511:263|513:228,1,79.1999975830079,10|0,2:2|0:0,0:0:0:0:
466,74,160230,5,2,3:2:0:0:
295,227,160392,2,0,P|256:237|217:232,1,79.1999975830079,12|2,0:0|0:0,0:0:0:0:
108,153,160717,1,8,2:3:0:0:
108,153,160798,1,4,2:3:0:0:
108,153,160879,1,2,3:2:0:0:
89,335,161041,2,0,P|93:291|97:248,2,79.1999975830079,12|2|8,0:0|0:0|0:3,0:0:0:0:
186,322,161528,5,10,0:3:0:0:
7,232,161690,1,12,0:0:0:0:
186,322,161852,1,0,3:2:0:0:
195,327,162176,5,12,3:2:0:0:
334,236,162338,1,8,0:0:0:0:
313,207,162419,1,8,0:0:0:0:
308,172,162500,1,8,0:3:0:0:
319,138,162582,1,8,0:3:0:0:
330,104,162663,1,6,0:3:0:0:
324,69,162744,1,4,0:3:0:0:
304,40,162825,6,0,P|232:49|190:58,1,96.8000029541017,14|2,2:2|3:2,0:0:0:0:
404,173,163149,1,10,2:2:0:0:
178,229,163311,1,2,3:2:0:0:
422,342,163474,5,10,2:2:0:0:
334,236,163636,2,0,P|326:294|320:353,1,96.8000029541017,2|8,3:2|2:2,0:0:0:0:
103,202,163960,6,0,B|75:246|115:291|115:291|177:276|178:229,1,193.600005908203,6|2,3:2|3:2,0:0:0:0:
167,120,164446,1,10,2:2:0:0:
0,196,164609,1,2,3:2:0:0:
65,34,164771,6,0,P|137:25|180:17,1,96.8000029541017,8|0,2:2|3:2,0:0:0:0:
351,152,165095,1,8,2:2:0:0:
167,120,165257,1,2,3:2:0:0:
372,40,165419,5,6,3:2:0:0:
372,40,165582,1,2,3:2:0:0:
330,260,165744,1,14,0:2:0:0:
167,120,165906,1,2,0:0:0:0:
91,317,166068,5,2,3:2:0:0:
176,272,166230,2,0,P|184:335|171:373,1,96.8000029541017,14|0,0:2|0:0,0:0:0:0:
425,240,166555,6,0,B|465:280|465:280|330:260,1,193.600005908203,6|2,3:2|3:2,0:0:0:0:
176,272,167041,2,0,L|168:220,1,48.4000014770508,10|8,0:3|0:3,0:0:0:0:
256,170,167203,2,0,L|264:118,1,48.4000014770508,6|4,0:3|0:3,0:0:0:0:
157,14,167365,5,8,0:0:0:0:
181,16,167446,1,8,0:0:0:0:
205,19,167527,1,8,0:3:0:0:
229,21,167608,1,8,0:3:0:0:
253,24,167689,1,4,0:3:0:0:
277,26,167770,1,4,0:3:0:0:
301,29,167851,1,6,3:2:0:0:
425,240,168014,6,0,P|415:166|407:119,1,105.599996777344,14|2,0:0|3:2,0:0:0:0:
256,170,168338,1,2,3:2:0:0:
440,249,168501,6,0,P|430:175|422:128,1,105.599996777344,14|2,0:0|3:2,0:0:0:0:
244,167,168825,1,2,3:2:0:0:
455,258,168987,6,0,P|445:184|437:137,1,105.599996777344,14|2,0:0|3:2,0:0:0:0:
232,164,169311,1,2,3:2:0:0:
470,267,169474,6,0,P|460:193|452:146,1,105.599996777344,12|0,0:0|3:2,0:0:0:0:
428,18,169798,1,0,3:2:0:0:
350,203,169960,1,10,0:3:0:0:
350,203,170041,1,8,0:3:0:0:
350,203,170122,1,0,3:2:0:0:
164,90,170284,1,6,0:3:0:0:
164,90,170365,1,4,0:3:0:0:
164,90,170446,1,0,3:2:0:0:
97,264,170609,5,14,3:2:0:0:
100,290,170690,1,8,0:0:0:0:
104,316,170771,1,8,0:0:0:0:
108,342,170852,1,8,0:0:0:0:
112,368,170933,1,14,3:2:0:0:
2,201,171095,1,10,0:0:0:0:
2,201,171176,1,8,0:0:0:0:
2,201,171257,1,14,3:2:0:0:
245,280,171419,2,0,L|261:390,1,105.599996777344,10|8,0:0|0:0,0:0:0:0:
60,91,171744,6,0,B|16:63|16:63|96:30|163:89,1,211.199993554688,14|8,3:2|3:2,0:0:0:0:
450,198,172230,2,0,B|397:216|397:216|350:203,1,105.599996777344,14|0,2:2|3:2,0:0:0:0:
246,50,172555,1,14,0:2:0:0:
246,50,172636,1,8,0:0:0:0:
156,198,172798,1,8,0:2:0:0:
156,198,172879,1,6,3:2:0:0:
392,130,173041,1,0,3:2:0:0:
392,130,173122,1,0,3:2:0:0:
392,130,173203,5,14,2:2:0:0:
239,159,173365,1,0,3:2:0:0:
412,296,173528,1,0,3:2:0:0:
466,47,173690,5,14,2:2:0:0:
271,287,173852,1,0,3:2:0:0:
512,210,174014,1,0,3:2:0:0:
246,50,174176,6,0,B|205:31|165:58|165:58|144:39|144:39|101:68|49:45,1,211.199993554688,14|0,2:2|3:2,0:0:0:0:
36,284,174663,1,8,0:2:0:0:
80,309,174744,1,8,0:2:0:0:
130,296,174825,1,8,3:2:0:0:
156,252,174906,1,8,0:2:0:0:
144,202,174987,1,8,0:2:0:0:
100,175,175068,1,8,0:2:0:0:
50,187,175149,6,0,L|47:144,3,44,4|4|4|4,3:3|0:3|0:3|0:3,0:0:0:0:
130,296,175474,2,0,L|135:355,3,44,4|4|4|4,3:3|0:3|0:3|0:3,0:0:0:0:
202,137,175798,5,12,3:2:0:0:
243,105,175879,1,8,0:2:0:0:
295,102,175960,1,8,0:2:0:0:
341,127,176041,1,8,0:2:0:0:
365,173,176122,2,0,L|353:233,1,52.7999983886719,8|8,3:2|0:2,0:0:0:0:
336,349,176284,5,12,0:2:0:0:
377,381,176365,1,8,0:2:0:0:
429,384,176446,1,8,3:2:0:0:
475,359,176527,1,8,0:2:0:0:
499,313,176608,2,0,L|487:253,1,52.7999983886719,8|8,0:2|0:2,0:0:0:0:
351,180,176771,6,0,L|339:240,1,52.7999983886719,12|8,3:2|0:2,0:0:0:0:
512,321,176933,2,0,L|500:261,1,52.7999983886719,8|8,0:2|0:2,0:0:0:0:
461,91,177095,5,8,3:2:0:0:
417,46,177176,1,8,0:2:0:0:
355,35,177257,1,8,0:2:0:0:
300,62,177338,1,8,0:2:0:0:
270,117,177419,1,8,3:2:0:0:
214,144,177500,1,8,0:2:0:0:
153,133,177582,2,0,L|150:62,1,52.7999983886719,8|8,0:2|0:2,0:0:0:0:
1,343,177744,5,10,3:2:0:0:
171,300,177906,1,10,3:2:0:0:
341,258,178068,1,10,3:2:0:0:
511,216,178230,1,10,3:2:0:0:
480,292,178392,6,0,B|416:265|408:192|464:147|464:147|417:175|334:158|323:82|390:64|395:111,1,366.079997765625,6|2,0:0|0:2,0:0:0:0:
392,100,180338,2,0,P|392:61|394:4,1,91.5199994414063,2|2,0:0|0:0,0:0:0:0:
56,231,191365,6,0,L|66:117,2,114.399994763184,2|10|10,3:2|0:2|0:2,0:0:0:0:
108,343,192176,1,2,0:0:0:0:
108,343,192501,6,0,P|161:322|228:351,1,114.399994763184,2|0,2:2|0:0,0:0:0:0:
321,381,192987,2,0,P|327:323|335:263,2,114.399994763184,10|10|10,0:2|0:2|0:2,0:0:0:0:
232,161,193960,5,2,3:2:0:0:
232,161,194609,2,0,P|230:111|223:32,1,114.399994763184,10|10,0:2|0:2,0:0:0:0:
418,163,195257,2,0,P|426:212|314:257,1,171.599992144776,2|2,3:2|0:0,0:0:0:0:
211,244,195906,2,0,P|206:278|204:311,1,57.1999973815919,10|0,0:2|3:2,0:0:0:0:
342,55,196230,5,8,0:2:0:0:
342,55,196555,5,6,3:2:0:0:
342,154,196717,1,8,2:2:0:0:
256,104,196879,1,10,2:2:0:0:
342,55,197041,5,8,2:2:0:0:
372,169,197203,1,10,2:2:0:0:
257,138,197365,1,8,2:2:0:0:
342,55,197528,5,10,2:2:0:0:
410,173,197690,1,8,2:2:0:0:
272,173,197852,1,10,2:2:0:0:
342,55,198014,5,8,2:2:0:0:
454,167,198176,1,10,2:2:0:0:
298,207,198338,1,8,2:2:0:0:
342,55,198501,5,10,2:2:0:0:
391,250,198663,1,8,2:2:0:0:
196,299,198825,1,10,2:2:0:0:
145,104,198987,1,8,2:2:0:0:
391,250,199149,5,6,3:2:0:0:
139,209,199311,2,0,L|93:220,2,44,10|10|10,0:0|0:0|3:2,0:0:0:0:
397,145,199636,2,0,L|443:134,2,44,10|10|10,0:0|0:0|3:2,0:0:0:0:
301,305,199960,1,10,0:0:0:0:
306,326,200041,1,10,0:0:0:0:
311,347,200122,1,10,3:2:0:0:
237,47,200284,1,10,0:0:0:0:
231,25,200365,1,10,0:0:0:0:
226,4,200446,5,10,3:2:0:0:
197,20,200527,1,8,0:0:0:0:
179,47,200608,1,10,0:0:0:0:
175,80,200689,1,10,0:0:0:0:
185,111,200771,5,10,3:2:0:0:
228,117,200852,1,8,0:0:0:0:
260,146,200933,1,10,0:0:0:0:
270,189,201014,1,10,0:0:0:0:
255,229,201095,5,10,3:2:0:0:
201,224,201176,1,8,0:0:0:0:
157,255,201257,1,10,0:0:0:0:
144,307,201338,1,10,0:0:0:0:
168,356,201420,5,10,3:2:0:0:
179,292,201501,1,10,0:0:0:0:
142,240,201582,1,10,0:0:0:0:
78,228,201663,1,10,0:0:0:0:
25,265,201744,6,0,L|31:322,3,52.7999983886719,10|8|4|4,0:3|0:3|0:3|0:3,0:0:0:0:
75,142,202068,2,0,L|131:147,1,52.7999983886719,10|8,0:3|0:3,0:0:0:0:
179,292,202230,2,0,L|235:287,1,52.7999983886719,4|4,0:3|0:3,0:0:0:0:
373,203,202392,5,10,0:0:0:0:
55,29,202555,1,8,0:3:0:0:
55,29,202636,1,4,0:3:0:0:
55,29,202717,1,4,0:3:0:0:
373,203,202879,6,0,B|459:261|403:348|403:348|411:307|383:273,1,246.399992480469,6|0,3:2|0:0,0:0:0:0:
322,83,203365,6,0,B|372:79|372:79|396:89|396:89|446:85,1,123.199996240234,6|0,3:2|0:0,0:0:0:0:
194,330,203690,2,0,B|244:334|244:334|268:324|268:324|318:328,1,123.199996240234,6|0,3:2|0:0,0:0:0:0:
55,29,204014,2,0,B|105:25|105:25|129:35|129:35|179:31,1,123.199996240234,6|0,3:2|0:0,0:0:0:0:
61,305,204338,6,0,B|21:335|21:335|54:231,1,158.399995166016,4|0,3:2|0:0,0:0:0:0:
124,185,204663,2,0,P|71:151|12:160,1,105.599996777344,10|0,2:2|0:0,0:0:0:0:
287,230,204987,1,2,3:2:0:0:
61,305,205149,1,0,3:2:0:0:
298,226,205311,2,0,P|302:169|306:109,1,105.599996777344,10|0,2:2|3:2,0:0:0:0:
55,29,205636,6,0,P|101:82|195:56,1,158.399995166016,2|0,3:2|0:0,0:0:0:0:
237,7,205960,1,8,0:2:0:0:
428,197,206122,1,10,0:2:0:0:
428,197,206203,1,8,0:2:0:0:
428,197,206284,1,10,0:2:0:0:
221,143,206446,1,0,3:2:0:0:
145,335,206609,6,0,P|158:377|154:326,1,158.399995166016,12|0,2:2|0:0,0:0:0:0:
270,384,206933,6,0,P|301:340|400:330,1,158.399995166016,6|0,3:2|0:0,0:0:0:0:
468,379,207257,2,0,P|444:324|444:273,1,105.599996777344,10|0,2:2|0:0,0:0:0:0:
357,67,207582,1,2,3:2:0:0:
235,261,207744,1,0,3:2:0:0:
362,58,207906,2,0,P|417:54|469:52,1,105.599996777344,10|0,2:2|3:2,0:0:0:0:
124,137,208230,6,0,P|100:204|160:265,1,158.399995166016,2|0,3:2|0:0,0:0:0:0:
235,261,208555,2,0,P|242:189|248:142,1,105.599996777344,10|0,2:2|0:0,0:0:0:0:
26,261,208879,2,0,P|32:313|37:366,1,105.599996777344,2|0,3:2|3:2,0:0:0:0:
316,357,209203,2,0,P|320:304|327:251,1,105.599996777344,10|0,2:2|3:2,0:0:0:0:
327,251,209446,1,0,3:0:0:0:
327,251,209528,5,6,3:2:0:0:
124,137,209690,1,0,3:2:0:0:
346,136,209852,5,14,2:2:0:0:
113,138,210014,1,0,3:2:0:0:
304,26,210176,5,14,2:2:0:0:
102,139,210338,1,0,3:2:0:0:
422,198,210501,2,0,P|443:136|430:86,1,105.599996777344,14|0,2:2|3:2,0:0:0:0:
304,26,210825,5,2,3:2:0:0:
206,260,210987,1,12,2:2:0:0:
206,260,211068,1,8,0:0:0:0:
206,260,211149,1,0,3:2:0:0:
346,136,211311,1,0,3:2:0:0:
452,294,211474,6,0,P|426:311|391:314,1,52.7999983886719,8|0,2:2|0:0,0:0:0:0:
323,384,211636,2,0,P|301:361|292:327,1,52.7999983886719,0|0,3:2|0:0,0:0:0:0:
235,154,211798,1,8,2:2:0:0:
200,115,211879,1,8,2:2:0:0:
150,100,211960,1,8,2:2:0:0:
100,114,212041,1,8,2:2:0:0:
65,153,212122,6,0,P|117:209|101:287,1,158.399995166016,6|0,3:2|0:0,0:0:0:0:
24,324,212446,2,0,P|10:255|0:205,1,105.599996777344,14|0,2:2|0:0,0:0:0:0:
176,18,212771,1,2,3:2:0:0:
296,251,212933,1,2,3:2:0:0:
65,153,213095,1,14,2:2:0:0:
346,136,213257,6,0,B|433:130|505:121|505:121|478:132|461:158,1,211.199993554688,2|0,0:0|3:2,0:0:0:0:
235,325,213744,2,0,P|204:281|207:216,1,105.599996777344,14|0,2:2|0:0,0:0:0:0:
346,136,214068,1,2,3:2:0:0:
154,105,214230,1,0,3:2:0:0:
369,38,214392,1,14,2:2:0:0:
202,230,214555,1,0,3:2:0:0:
464,288,214717,5,2,3:2:0:0:
384,226,214879,1,0,3:2:0:0:
235,325,215041,2,0,P|180:331|119:338,1,105.599996777344,14|8,2:2|0:0,0:0:0:0:
130,336,215284,1,8,0:0:0:0:
130,336,215365,5,2,3:2:0:0:
202,230,215528,1,0,3:2:0:0:
47,104,215690,2,0,P|53:49|60:-12,1,105.599996777344,14|0,2:2|3:2,0:0:0:0:
235,325,216014,5,6,3:2:0:0:
381,131,216176,1,8,2:2:0:0:
355,85,216257,1,8,2:2:0:0:
310,60,216338,1,8,2:2:0:0:
258,63,216419,1,8,2:2:0:0:
216,94,216501,2,0,L|219:153,1,52.7999983886719,2|0,3:2|3:2,0:0:0:0:
355,305,216663,5,10,2:2:0:0:
405,311,216744,1,8,0:0:0:0:
455,317,216825,2,0,L|463:255,1,52.7999983886719,4|0,3:2|0:0,0:0:0:0:
202,230,216987,5,8,2:2:0:0:
152,236,217068,1,8,2:2:0:0:
102,242,217149,2,0,L|94:182,1,52.7999983886719,0|0,3:2|0:0,0:0:0:0:
486,22,217311,6,0,B|455:46|453:90|453:90|479:142|441:189,1,176,4|0,3:2|0:0,0:0:0:0:
446,182,217798,1,0,3:2:0:0:
292,332,217960,2,0,P|221:342|119:370,1,176,8|0,0:0|0:0,0:0:0:0:
342,240,218446,1,8,0:0:0:0:
342,240,218528,1,8,0:0:0:0:
342,240,218609,5,0,3:0:0:0:
203,125,218771,1,8,0:0:0:0:
284,83,218933,2,0,B|298:124|298:124|284:171,1,88,2|0,3:2|3:0,0:0:0:0:
122,167,219257,2,0,B|108:126|108:126|122:79,1,88,10|0,0:0|3:2,0:0:0:0:
297,74,219582,2,0,B|311:115|311:115|297:162,1,88,2|0,2:2|3:2,0:0:0:0:
214,279,219906,5,2,3:2:0:0:
122,167,220068,2,0,P|75:153|34:149,1,88,8|0,0:0|0:0,0:0:0:0:
222,288,220392,1,2,3:2:0:0:
36,372,220555,2,0,P|79:367|121:354,1,88,8|0,2:2|0:0,0:0:0:0:
302,248,220879,2,0,P|309:301|266:366,1,132,10|0,2:2|0:0,0:0:0:0:
268,364,221203,6,0,P|306:344|355:343,1,88,2|8,3:2|2:2,0:0:0:0:
511,256,221528,2,0,P|473:235|424:234,1,88,6|4,2:3|2:3,0:0:0:0:
235,86,221852,5,10,0:0:0:0:
302,248,222014,1,8,2:3:0:0:
422,157,222176,1,10,0:0:0:0:
394,72,222338,1,8,2:3:0:0:
163,208,222501,5,14,2:2:0:0:
79,176,222663,1,2,3:2:0:0:
364,337,222825,5,10,2:2:0:0:
449,309,222987,1,2,3:2:0:0:
218,364,223149,5,10,2:2:0:0:
256,192,223311,1,2,3:2:0:0:
294,20,223473,1,8,2:2:0:0:
275,106,223636,1,2,3:2:0:0:
110,346,223798,5,14,2:2:0:0:
91,260,223961,1,2,3:2:0:0:
323,255,224122,5,10,2:2:0:0:
342,169,224284,1,2,3:2:0:0:
342,169,224365,1,0,3:0:0:0:
342,169,224446,5,10,2:2:0:0:
172,109,224609,1,2,3:2:0:0:
2,49,224772,1,8,2:2:0:0:
91,33,224933,1,0,3:2:0:0:
19,307,225095,6,0,P|-13:256|8:174,1,145.200004431152,14|0,2:2|0:0,0:0:0:0:
60,118,225419,1,10,2:2:0:0:
210,282,225582,1,2,3:2:0:0:
19,307,225744,5,10,2:2:0:0:
229,122,225906,1,2,3:2:0:0:
379,352,226068,1,10,2:2:0:0:
292,319,226230,1,0,3:2:0:0:
439,215,226392,5,14,2:2:0:0:
210,282,226555,1,0,3:2:0:0:
365,266,226717,5,10,2:2:0:0:
128,248,226880,1,0,3:2:0:0:
263,4,227041,5,2,3:2:0:0:
292,319,227203,1,10,2:2:0:0:
292,318,227528,6,0,P|283:213|274:108,1,211.199993554688,6|0,3:2|3:2,0:0:0:0:
86,145,228014,2,0,B|135:127|135:127|186:146,1,105.599996777344,10|0,2:2|0:0,0:0:0:0:
185,145,228257,1,8,2:2:0:0:
185,145,228338,1,6,3:2:0:0:
43,258,228501,1,0,3:2:0:0:
292,319,228663,2,0,P|243:333|185:318,1,105.599996777344,8|0,2:2|0:0,0:0:0:0:
380,155,228987,5,0,3:2:0:0:
463,202,229149,1,0,3:2:0:0:
415,284,229312,1,8,2:2:0:0:
333,237,229474,1,0,0:0:0:0:
463,202,229636,5,2,3:2:0:0:
268,42,229798,1,10,2:2:0:0:
119,120,230122,6,0,P|219:129|268:42,1,211.199993554688,6|0,3:2|3:2,0:0:0:0:
463,202,230609,2,0,P|473:145|482:90,1,105.599996777344,10|0,2:2|3:2,0:0:0:0:
480,97,230852,1,8,2:2:0:0:
480,97,230933,1,6,3:2:0:0:
333,237,231095,1,0,3:2:0:0:
415,46,231257,2,0,P|463:15|517:16,1,105.599996777344,10|0,2:2|0:0,0:0:0:0:
179,55,231582,5,2,3:2:0:0:
333,237,231744,1,0,3:2:0:0:
169,47,231906,2,0,P|165:112|163:162,1,105.599996777344,10|0,2:2|3:2,0:0:0:0:
163,152,232149,1,0,3:0:0:0:
163,152,232230,1,10,2:2:0:0:
239,300,232392,1,8,0:0:0:0:
237,346,232473,1,8,0:0:0:0:
204,379,232554,1,10,0:0:0:0:
158,382,232635,1,8,0:0:0:0:
122,353,232716,1,8,0:0:0:0:
115,307,232797,1,8,0:0:0:0:
140,268,232878,5,14,0:0:0:0:
343,361,233041,2,0,P|390:356|422:272,1,140.8,0|2,3:0|3:0,0:0:0:0:
376,211,233446,1,0,3:0:0:0:
376,211,233528,2,0,P|322:173|327:100,1,140.8,10|0,2:2|0:0,0:0:0:0:
324,103,234014,1,0,3:0:0:0:
495,174,234176,5,2,3:2:0:0:
383,35,234338,2,0,P|330:15|253:51,1,140.8,8|2,0:2|3:0,0:0:0:0:
256,47,234744,1,0,3:0:0:0:
256,47,234825,1,10,2:2:0:0:
410,134,234987,1,0,3:0:0:0:
484,89,235149,5,0,3:0:0:0:
376,211,235311,1,0,3:0:0:0:
211,180,235474,6,0,P|227:263|232:324,1,140.8,2|2,3:2|0:0,0:0:0:0:
66,261,235960,1,0,3:0:0:0:
66,261,236041,1,0,3:0:0:0:
66,261,236122,2,0,P|71:207|76:164,1,70.4,10|0,2:2|3:0,0:0:0:0:
204,109,236446,2,0,P|207:144|211:180,1,70.4,2|0,3:2|0:0,0:0:0:0:
75,19,236771,6,0,L|158:28,1,70.4,2|8,3:2|2:2,0:0:0:0:
290,143,237095,2,0,L|373:134,1,70.4,2|0,3:0|3:0,0:0:0:0:
489,28,237419,1,10,0:0:0:0:
487,42,237501,1,4,0:3:0:0:
485,56,237582,1,4,0:3:0:0:
483,70,237663,1,4,0:3:0:0:
481,84,237744,2,0,L|475:132,3,35.2,2|0|0|0,3:2|3:0|3:2|3:0,0:0:0:0:
455,198,238068,6,0,L|464:306,1,105.599996777344,6|0,3:2|3:2,0:0:0:0:
241,157,238392,1,8,2:2:0:0:
332,331,238555,1,2,3:2:0:0:
332,331,238636,1,0,3:0:0:0:
332,331,238717,5,10,2:2:0:0:
361,103,238879,1,0,3:2:0:0:
188,268,239041,5,8,2:2:0:0:
455,198,239203,1,0,3:2:0:0:
183,82,239365,6,0,P|131:75|73:69,1,105.599996777344,14|0,2:2|3:2,0:0:0:0:
4,321,239690,1,8,2:2:0:0:
155,176,239852,1,2,3:2:0:0:
155,176,239933,1,0,3:0:0:0:
155,176,240014,5,10,2:2:0:0:
192,369,240176,1,0,3:2:0:0:
23,179,240338,1,8,2:2:0:0:
88,384,240501,1,0,3:2:0:0:
263,249,240663,6,0,P|282:193|281:141,1,105.599996777344,14|0,2:2|3:2,0:0:0:0:
166,12,240987,1,10,2:2:0:0:
409,137,241149,1,0,3:2:0:0:
409,137,241230,1,0,3:0:0:0:
409,137,241311,5,10,2:2:0:0:
155,176,241474,1,0,3:2:0:0:
305,0,241636,1,10,2:2:0:0:
430,278,241798,1,0,3:2:0:0:
78,225,241960,6,0,P|62:171|78:119,1,105.599996777344,14|0,2:2|3:2,0:0:0:0:
480,85,242284,2,0,P|496:139|480:191,1,105.599996777344,10|0,2:2|3:2,0:0:0:0:
157,328,242609,5,10,2:2:0:0:
107,52,242771,1,10,3:2:0:0:
382,4,242933,1,10,2:2:0:0:
430,278,243095,1,10,3:2:0:0:
430,278,243906,5,10,0:0:0:0:
397,240,243987,1,8,0:0:0:0:
350,223,244068,1,10,0:0:0:0:
300,231,244149,1,8,0:0:0:0:
260,261,244230,1,10,0:0:0:0:
240,307,244311,1,8,0:0:0:0:
200,337,244392,1,10,0:0:0:0:
150,345,244473,1,8,0:0:0:0:
103,328,244555,6,0,P|97:228|91:168,1,145.200004431152,6|0,3:2|0:0,0:0:0:0:
35,125,244879,2,0,P|90:103|141:117,1,96.8000029541017,10|0,2:2|0:0,0:0:0:0:
260,261,245203,2,0,P|213:224|200:173,1,96.8000029541017,2|0,3:2|3:2,0:0:0:0:
266,0,245528,1,10,2:2:0:0:
483,182,245690,6,0,B|435:207|382:179|400:172|347:144|299:174,1,193.600005908203,6|0,3:2|3:2,0:0:0:0:
427,8,246176,2,0,P|441:66|443:109,1,96.8000029541017,10|0,2:2|0:0,0:0:0:0:
260,261,246501,1,2,2:3:0:0:
424,338,246663,1,0,3:2:0:0:
298,174,246825,1,10,2:2:0:0:
126,365,246987,1,8,0:0:0:0:
126,365,247068,1,8,0:0:0:0:
126,365,247149,6,0,B|175:379|175:379|230:362,1,96.8000029541017,6|0,3:2|0:0,0:0:0:0:
176,133,247474,2,0,B|127:119|127:119|83:132,1,96.8000029541017,10|0,2:2|0:0,0:0:0:0:
83,131,247717,1,0,3:2:0:0:
83,131,247798,1,2,3:2:0:0:
174,294,247960,1,0,3:2:0:0:
298,174,248122,1,10,2:2:0:0:
7,101,248284,6,0,P|-1:165|54:217,1,145.200004431152,6|0,3:2|0:0,0:0:0:0:
132,217,248609,1,8,0:0:0:0:
317,30,248771,2,0,P|308:95|297:179,1,145.200004431152,6|0,3:2|3:2,0:0:0:0:
327,255,249095,1,14,0:0:0:0:
174,294,249257,1,0,3:2:0:0:
377,336,249419,5,14,2:0:0:0:
403,311,249500,1,4,2:3:0:0:
418,278,249581,1,8,2:3:0:0:
420,242,249662,1,8,2:3:0:0:
409,208,249744,5,12,3:2:0:0:
190,142,249906,1,10,2:2:0:0:
281,323,250068,1,10,2:2:0:0:
298,174,250230,1,10,2:2:0:0:
95,97,250392,5,10,2:2:0:0:
84,131,250474,1,8,2:2:0:0:
86,167,250555,1,10,2:2:0:0:
101,200,250636,1,8,2:2:0:0:
128,225,250717,2,0,L|184:219,1,48.4000014770508,10|8,3:2|2:2,0:0:0:0:
362,61,250879,6,0,B|306:49|272:88|272:88|244:46|191:53,1,193.600005908203,14|2,3:2|3:2,0:0:0:0:
6,217,251365,1,10,2:2:0:0:
249,320,251528,2,0,P|200:325|150:335,1,96.8000029541017,2|12,3:2|2:2,0:0:0:0:
6,217,251852,1,2,3:2:0:0:
190,142,252014,1,14,2:2:0:0:
249,320,252176,1,2,0:0:0:0:
128,225,252338,5,10,0:0:0:0:
284,209,252501,1,10,0:0:0:0:
405,304,252663,1,10,0:0:0:0:
491,265,252825,2,0,P|499:215|506:166,1,96.8000029541017,10|8,0:0|0:0,0:0:0:0:
377,118,253149,5,10,0:0:0:0:
507,53,253311,1,10,0:0:0:0:
338,12,253474,1,10,0:0:0:0:
235,101,253636,1,10,0:0:0:0:
154,65,253798,2,0,P|102:56|56:49,1,96.8000029541017,10|8,0:0|0:0,0:0:0:0:
258,198,254122,5,10,0:0:0:0:
38,291,254284,1,10,0:0:0:0:
312,270,254446,1,10,0:0:0:0:
24,293,254609,5,10,0:0:0:0:
366,345,254771,1,10,0:0:0:0:
256,192,254852,12,0,256230,0:0:0:0:
