osu file format v14

[General]
AudioFilename: Yume no Tsuzuki.mp3
AudioLeadIn: 0
PreviewTime: 57187
Countdown: 1
SampleSet: Normal
StackLeniency: 0.7
Mode: 0
LetterboxInBreaks: 1
WidescreenStoryboard: 0

[Editor]
Bookmarks: 6278,88460
DistanceSpacing: 1.1
BeatDivisor: 2
GridSize: 4
TimelineZoom: 1.4

[Metadata]
Title:Yume no Tsuzuki (TV Size)
TitleUnicode:Yume no Tsuzuki (TV Size)
Artist:Suzuki Konomi
ArtistUnicode:Suzuki Konomi
Creator:tutuhara
Version:Easy
Source:Sakurasou no Pet na Kanojo
Tags:op opening soundtrack -bakari- J. ะก. Staff
BeatmapID:430755
BeatmapSetID:179174

[Difficulty]
HPDrainRate:2
CircleSize:3
OverallDifficulty:2
ApproachRate:3
SliderMultiplier:0.8
SliderTickRate:1

[Events]
//Background and Video events
Video,0,"Sakurasou.avi"
0,0,"sakurasou-bg.jpg",0,0
//Break Periods
//Storyboard Layer 0 (Background)
//Storyboard Layer 1 (Fail)
//Storyboard Layer 2 (Pass)
//Storyboard Layer 3 (Foreground)
//Storyboard Sound Samples

[TimingPoints]
-267,363.636363636364,4,1,0,100,1,0
7005,-100,4,2,0,80,0,0
57187,-100,4,2,0,80,0,1
57914,-100,4,1,0,60,0,1
87005,-100,4,1,0,60,0,0

[HitObjects]
64,188,7005,6,0,P|104:268|184:284,1,160,8|8,0:0|0:0,0:0:0:0:
256,284,8096,1,0,0:0:0:0:
344,288,8460,2,0,P|412:268|447:189,1,160,8|8,0:0|0:0,0:0:0:0:
368,148,9551,1,0,0:0:0:0:
296,96,9914,5,8,0:0:0:0:
208,88,10278,2,0,P|164:164|208:212,1,160,0|0,0:0|0:0,0:0:0:0:
260,276,11369,1,8,0:0:0:0:
436,276,12096,1,8,0:0:0:0:
440,100,12823,5,8,0:0:0:0:
352,92,13187,2,0,B|284:80|284:80|248:96|184:92,1,160,0|0,0:0|0:0,0:0:0:0:
120,140,14278,2,0,P|88:240|128:296,1,160,8|8,0:0|0:0,0:0:0:0:
192,320,15369,1,0,0:0:0:0:
280,340,15733,5,8,0:0:0:0:
248,168,16460,2,0,P|415:112|424:287,1,400,8|8,0:0|0:0,0:0:0:0:
348,248,18642,6,0,B|272:244|200:312,1,160,4|0,0:0|0:0,0:0:0:0:
132,260,19733,1,8,0:0:0:0:
164,180,20096,2,0,L|204:80,1,80,0|8,0:0|0:0,0:0:0:0:
128,52,20823,2,0,L|76:113,1,80,0|8,0:0|0:0,0:0:0:0:
16,176,21551,5,0,0:0:0:0:
156,284,22278,2,0,L|240:284,1,80,0|8,0:0|0:0,0:0:0:0:
324,268,23005,1,0,0:0:0:0:
392,212,23369,2,0,P|387:116|335:99,1,160,8|8,0:0|0:0,0:0:0:0:
280,164,24460,5,0,0:0:0:0:
220,228,24823,1,8,0:0:0:0:
152,280,25187,2,0,L|88:192,1,80,0|8,0:0|0:0,0:0:0:0:
152,140,25914,1,0,0:0:0:0:
240,140,26278,2,0,B|292:184|344:112|417:159,1,160,8|8,0:0|0:0,0:0:0:0:
416,232,27369,5,0,0:0:0:0:
408,320,27733,2,0,B|357:356|305:284|253:328,1,160,8|8,0:0|0:0,0:0:0:0:
172,280,28823,5,0,0:0:0:0:
176,104,29551,1,8,0:0:0:0:
24,196,30278,6,0,L|24:276,2,80,0|0|0,0:0|0:0|0:0,0:0:0:0:
112,188,31369,1,0,0:0:0:0:
200,188,31733,2,0,L|200:96,1,80,0|0,0:0|0:0,0:0:0:0:
200,20,32460,2,0,L|280:20,1,80,0|0,0:0|0:0,0:0:0:0:
356,68,33187,6,0,L|288:136,1,80,0|0,0:0|0:0,0:0:0:0:
252,192,33914,2,0,L|328:248,1,80,0|0,0:0|0:0,0:0:0:0:
384,300,34642,2,0,L|492:300,2,80,0|0|0,0:0|0:0|0:0,0:0:0:0:
296,296,35733,1,0,0:0:0:0:
332,216,36096,6,0,P|380:164|388:140,1,80,0|0,0:0|0:3,0:0:0:0:
336,84,36823,2,0,P|308:44|268:32,1,80,0|0,0:3|0:0,0:0:0:0:
196,64,37551,1,0,0:0:0:0:
120,112,37914,2,0,P|60:140|36:164,2,80,0|0|0,0:0|0:0|0:0,0:0:0:0:
208,144,39005,6,0,P|312:248|408:212,1,240,0|0,0:0|0:0,0:0:0:0:
404,140,40460,2,0,L|328:76,1,80,0|0,0:0|0:0,0:0:0:0:
256,80,41187,2,0,L|176:84,1,80,0|0,0:0|0:0,0:0:0:0:
112,136,41914,5,0,0:0:0:0:
48,200,42278,1,8,0:0:0:0:
104,268,42642,2,0,B|114:285|159:325,1,80,0|8,0:0|0:0,0:0:0:0:
248,336,43369,1,0,0:0:0:0:
336,328,43733,1,8,0:0:0:0:
352,240,44096,2,0,P|339:202|318:168,1,80,0|8,0:0|0:0,0:0:0:0:
240,208,44823,6,0,P|207:184|188:150,1,80,0|8,0:0|0:0,0:0:0:0:
264,108,45551,2,0,P|304:60|300:28,1,80,0|8,0:0|0:0,0:0:0:0:
216,32,46278,1,0,0:0:0:0:
168,104,46642,2,0,B|104:156|104:156|12:180,1,160,8|8,0:0|0:0,0:0:0:0:
44,264,47733,6,0,B|88:304|132:312|140:312,1,80,0|8,0:0|0:0,0:0:0:0:
200,288,48460,2,0,P|268:300|300:300,1,80,0|8,0:0|0:0,0:0:0:0:
260,216,49187,2,0,P|244:176|212:144,1,80,0|8,0:0|0:0,0:0:0:0:
284,88,49914,2,0,P|336:104|380:144,1,80,0|8,0:0|0:0,0:0:0:0:
424,176,50642,6,0,L|472:268,1,80,0|8,0:0|0:0,0:0:0:0:
404,312,51369,1,0,0:0:0:0:
324,276,51733,1,0,0:0:0:0:
252,228,52096,2,0,B|196:216|196:216|152:256|152:256|144:188|144:188|76:144,1,240,0|0,0:0|0:0,0:0:0:0:
128,76,53551,5,0,0:0:0:0:
216,68,53914,2,0,P|288:32|360:60,1,160,8|8,0:0|0:0,0:0:0:0:
320,152,55005,2,0,B|273:227|201:227|192:144|160:144|153:227|89:227|45:143,1,320,0|0,0:0|0:0,0:0:0:0:
388,64,57914,5,0,0:0:0:0:
304,84,58278,2,0,P|236:112|188:184,1,160,8|8,0:0|0:0,0:0:0:0:
152,260,59369,1,0,0:0:0:0:
212,324,59733,2,0,L|320:324,1,80,8|0,0:0|0:0,0:0:0:0:
344,260,60460,1,8,0:0:0:0:
320,176,60823,6,0,P|395:155|469:183,1,160,0|0,0:0|0:0,0:0:0:0:
448,268,61914,1,8,0:0:0:0:
388,332,62278,2,0,L|228:332,1,160,0|0,0:0|0:0,0:0:0:0:
164,272,63369,1,0,0:0:0:0:
152,184,63733,5,0,0:0:0:0:
240,172,64096,2,0,L|320:172,1,80,8|0,0:0|0:0,0:0:0:0:
328,84,64823,1,8,0:0:0:0:
244,52,65187,2,0,P|176:40|116:100,1,160,0|0,0:0|0:0,0:0:0:0:
144,184,66278,1,8,0:0:0:0:
216,236,66642,5,0,0:0:0:0:
304,224,67005,2,0,P|321:136|390:130,1,160,8|8,0:0|0:0,0:0:0:0:
420,204,68096,2,0,L|481:136,1,80,0|8,0:0|0:0,0:0:0:0:
452,60,68823,2,0,L|360:36,1,80,0|8,0:0|0:0,0:0:0:0:
288,52,69551,6,0,P|224:80|212:104,1,80,0|8,0:0|0:0,0:0:0:0:
148,136,70278,2,0,P|136:196|112:236,1,80,0|8,0:0|0:0,0:0:0:0:
184,280,71005,1,0,0:0:0:0:
264,316,71369,2,0,P|344:316|388:248,1,160,8|8,0:0|0:0,0:0:0:0:
432,180,72460,6,0,L|360:132,1,80,0|8,0:0|0:0,0:0:0:0:
276,128,73187,1,0,0:0:0:0:
236,208,73551,1,8,0:0:0:0:
140,188,73914,2,0,L|216:29,1,160,0|0,0:0|0:0,0:0:0:0:
292,68,75005,1,8,0:0:0:0:
356,128,75369,6,0,P|335:201|261:217,1,160,0|0,0:0|0:0,0:0:0:0:
172,216,76460,1,8,0:0:0:0:
172,128,76823,2,0,L|172:16,1,80,0|8,0:0|0:0,0:0:0:0:
88,52,77551,2,0,L|88:144,1,80,0|8,0:0|0:0,0:0:0:0:
256,192,78278,12,0,79733,0:0:0:0:
344,280,81187,5,0,0:0:0:0:
404,216,81551,2,0,P|428:120|376:84,1,160,8|8,0:0|0:0,0:0:0:0:
304,112,82642,2,0,P|284:148|288:212,1,80,0|8,0:0|0:0,0:0:0:0:
212,240,83369,2,0,P|168:280|116:288,1,80,0|8,0:0|0:0,0:0:0:0:
256,192,84096,12,4,87005,0:0:0:0:
