osu file format v14

[General]
AudioFilename: audio.mp3
AudioLeadIn: 0
PreviewTime: 75285
Countdown: 0
SampleSet: Soft
StackLeniency: 0.7
Mode: 0
LetterboxInBreaks: 0
WidescreenStoryboard: 0

[Editor]
Bookmarks: 1662,20850,31819,53757,75695,96291,97649,108618,119587,138787,141545,160725,163483,168957,184060,188176,199188,209964
DistanceSpacing: 1
BeatDivisor: 4
GridSize: 4
TimelineZoom: 1.8

[Metadata]
Title:White clover
TitleUnicode:White clover
Artist:Suzuki Konomi
ArtistUnicode:鈴木このみ
Creator:FuJu
Version:Normal
Source:
Tags:japanese rock j-rock jrock female vocals so0p soop kudosu yuyoyuppe ゆよゆっぺ カオスシンドローム Chaos Syndrome
BeatmapID:2350724
BeatmapSetID:1125034

[Difficulty]
HPDrainRate:3
CircleSize:3
OverallDifficulty:4
ApproachRate:5.5
SliderMultiplier:1.05
SliderTickRate:1

[Events]
//Background and Video events
0,0,"bg.jpg",0,0
//Break Periods
2,73181,74599
2,141895,154827
2,184267,186713
//Storyboard Layer 0 (Background)
//Storyboard Layer 1 (Fail)
//Storyboard Layer 2 (Pass)
//Storyboard Layer 3 (Foreground)
//Storyboard Layer 4 (Overlay)
//Storyboard Sound Samples

[TimingPoints]
1667,342.857142857143,4,2,1,50,1,0
1667,-111.111111111111,4,2,1,40,0,0
12638,-111.111111111111,4,2,1,50,0,0
20867,-100,4,2,1,70,0,0
31838,-111.111111111111,4,2,1,45,0,0
53781,-111.111111111111,4,2,1,50,0,0
70924,-111.111111111111,4,2,1,53,0,0
71267,-111.111111111111,4,2,1,56,0,0
71609,-111.111111111111,4,2,1,59,0,0
71952,-111.111111111111,4,2,1,63,0,0
72295,-111.111111111111,4,2,1,66,0,0
72638,-111.111111111111,4,2,1,69,0,0
72981,-111.111111111111,4,2,1,50,0,0
75381,-111.111111111111,4,2,1,35,0,0
75724,-100,4,2,1,70,0,1
96295,-100,4,2,1,70,0,0
97667,-111.111111111111,4,2,1,70,0,0
141895,-111.111111111111,4,2,1,50,0,0
160752,-111.111111111111,4,2,1,30,0,0
163152,-111.111111111111,4,2,1,40,0,0
163495,-111.111111111111,4,2,1,70,0,0
168981,-100,4,2,1,70,0,1
184067,-100,4,2,1,40,0,0
188181,-105.263157894737,4,2,1,70,0,0

[Colours]
Combo1 : 101,209,117
Combo2 : 204,102,0
Combo3 : 0,136,0
Combo4 : 255,255,64

[HitObjects]
75,50,1667,6,0,P|123:23|178:35,1,94.4999971160888,2|2,0:0|0:0,0:0:0:0:
200,52,2181,2,0,L|221:157,1,94.499997116089,2|2,0:0|0:0,0:0:0:0:
248,181,2695,2,0,P|285:154|332:157,1,94.499997116089,2|0,0:0|0:0,0:0:0:0:
423,180,3381,1,2,0:0:0:0:
441,87,3724,1,2,0:0:0:0:
372,21,4067,1,2,0:0:0:0:
291,70,4409,6,0,P|244:59|176:53,1,94.4999971160888,2|2,0:0|0:0,0:0:0:0:
151,61,4924,2,0,P|141:113|163:164,1,94.499997116089,2|2,0:0|0:0,0:0:0:0:
182,189,5438,1,2,0:0:0:0:
224,273,5781,2,0,B|115:261|137:338|33:332,1,188.999994232178
182,189,7152,6,0,P|236:182|294:173,1,94.4999971160888,2|2,0:0|0:0,0:0:0:0:
325,163,7667,1,2,0:0:0:0:
411,121,8008,1,0,0:0:0:0:
411,121,8181,2,0,P|424:166|399:222,1,94.4999971160888,2|0,0:0|0:0,0:0:0:0:
335,269,8867,1,2,0:0:0:0:
246,236,9209,1,2,0:0:0:0:
166,287,9552,1,2,0:0:0:0:
86,236,9895,6,0,P|73:189|100:135,1,94.4999971160888,2|2,0:0|0:0,0:0:0:0:
123,115,10409,1,2,0:0:0:0:
83,35,10752,1,2,0:0:0:0:
83,35,10924,1,2,0:0:0:0:
177,25,11267,2,0,L|367:56,1,188.999994232178
499,186,12638,6,0,P|489:230|478:283,1,94.4999971160888,6|2,1:2|0:0,0:0:0:0:
465,323,13152,1,2,0:0:0:0:
376,348,13495,1,2,0:0:0:0:
376,348,13667,2,0,L|280:321,1,94.499997116089,2|0,0:0|0:0,0:0:0:0:
195,293,14352,1,2,0:0:0:0:
102,312,14695,1,2,0:0:0:0:
25,256,15038,1,2,0:0:0:0:
47,164,15381,6,0,P|54:116|62:58,1,94.499997116089,2|2,0:0|0:0,0:0:0:0:
69,23,15895,2,0,P|117:17|159:41,1,94.499997116089,2|2,0:0|0:0,0:0:0:0:
182,77,16409,1,2,0:0:0:0:
252,14,16752,2,0,P|345:5|420:59,1,188.999994232178
291,198,18124,6,0,L|310:307,1,94.499997116089,2|2,1:2|0:0,0:0:0:0:
303,338,18638,1,2,0:0:0:0:
215,318,18981,1,2,0:0:0:0:
215,318,19152,2,0,L|196:209,1,94.499997116089,2|0,0:0|0:0,0:0:0:0:
227,134,19838,2,0,B|269:113|269:113|325:126,2,94.499997116089,2|0|0,0:0|0:0|0:0,0:0:0:0:
277,226,20867,6,0,L|344:247,1,52.5,6|2,1:2|1:2,0:0:0:0:
362,280,21209,2,0,L|429:259,1,52.5,2|2,1:2|0:0,0:0:0:0:
461,244,21552,1,10,0:0:0:0:
483,141,21895,2,0,P|480:105|467:70,1,52.5,2|2,1:2|1:2,0:0:0:0:
441,49,22238,2,0,P|391:60|315:76,1,105,0|2,1:2|1:2,0:0:0:0:
235,95,22924,2,0,P|227:64|219:22,2,52.5,10|2|2,0:0|1:2|1:2,0:0:0:0:
225,149,23438,1,0,1:2:0:0:
225,149,23609,6,0,L|157:142,1,52.5,6|2,1:2|1:2,0:0:0:0:
120,151,23952,2,0,L|142:269,1,105,2|10,1:2|0:0,0:0:0:0:
201,339,24638,2,0,P|234:339|270:324,1,52.5,2|2,1:2|1:2,0:0:0:0:
299,310,24981,2,0,P|347:305|412:322,1,105,0|2,1:2|1:2,0:0:0:0:
450,348,25495,1,0,1:2:0:0:
450,348,25667,2,0,L|464:280,1,52.5,10|2,0:0|1:2,0:0:0:0:
477,247,26009,1,10,0:2:0:0:
443,147,26352,6,0,P|417:152|392:159,1,52.5,6|2,1:2|1:2,0:0:0:0:
341,174,26696,2,0,P|330:121|314:48,1,105,2|10,1:2|0:0,0:0:0:0:
237,5,27381,2,0,P|206:14|172:20,1,52.5,2|2,1:2|1:2,0:0:0:0:
141,46,27724,2,0,P|151:98|168:172,1,105,0|2,1:2|1:2,0:0:0:0:
177,252,28409,2,0,P|150:256|115:244,2,52.5,10|2|2,0:0|1:2|1:2,0:0:0:0:
233,246,28924,1,0,1:2:0:0:
233,246,29095,6,0,L|300:266,1,52.5,8|2,0:0|1:2,0:0:0:0:
333,276,29438,1,8,0:3:0:0:
434,303,29781,1,8,0:0:0:0:
494,219,30124,1,2,1:2:0:0:
494,219,30295,1,6,1:2:0:0:
34,299,31838,5,0,1:0:0:0:
46,205,32181,2,0,P|54:159|64:96,1,94.499997116089,2|2,0:0|0:0,0:0:0:0:
111,31,32867,1,2,0:0:0:0:
186,87,33209,2,0,B|234:93|234:93|287:61,1,94.499997116089,2|0,0:0|0:0,0:0:0:0:
339,1,33895,1,2,0:0:0:0:
405,67,34238,1,2,0:0:0:0:
465,139,34581,6,0,L|456:196,1,47.2499985580445,2|2,0:0|0:0,0:0:0:0:
446,231,34924,1,2,0:0:0:0:
391,308,35267,2,0,P|308:269|221:307,1,188.999994232178
48,375,36638,2,0,L|30:273,1,94.499997116089,0|2,0:0|0:0,0:0:0:0:
46,193,37324,5,2,0:0:0:0:
145,32,38009,1,2,0:0:0:0:
204,106,38352,2,0,L|311:89,1,94.499997116089,2|0,0:0|0:0,0:0:0:0:
391,104,39038,2,0,P|404:151|379:204,1,94.499997116089,2|0,0:0|0:0,0:0:0:0:
304,235,39724,1,2,0:0:0:0:
335,324,40067,6,0,L|442:341,1,94.499997116089,2|0,0:0|0:0,0:0:0:0:
490,267,40752,1,2,0:0:0:0:
420,202,41095,2,0,P|412:154|441:101,1,94.499997116089,2|0,0:0|0:0,0:0:0:0:
483,34,41781,1,2,0:0:0:0:
298,77,42467,2,0,L|288:138,1,47.2499985580445
260,155,42809,6,0,L|249:263,1,94.499997116089,0|2,0:0|0:0,0:0:0:0:
238,343,43495,1,2,0:0:0:0:
143,334,43838,1,2,0:0:0:0:
49,322,44181,1,2,0:0:0:0:
16,135,44867,2,0,L|29:20,1,94.499997116089,2|2,0:0|0:0,0:0:0:0:
117,15,45552,5,2,0:0:0:0:
178,86,45895,1,2,0:0:0:0:
250,24,46238,1,0,0:0:0:0:
250,24,46409,2,0,P|300:19|339:44,1,94.499997116089
365,78,46924,2,0,L|337:217,1,141.749995674133
290,350,47952,1,2,0:0:0:0:
212,296,48295,5,2,0:0:0:0:
24,272,48981,1,2,0:0:0:0:
3,179,49324,2,0,P|1:133|37:85,1,94.499997116089,2|0,0:0|0:0,0:0:0:0:
106,44,50009,1,2,0:0:0:0:
294,37,50695,1,2,0:0:0:0:
351,114,51038,6,0,P|357:163|324:216,1,94.499997116089,2|0,0:0|0:0,0:0:0:0:
259,255,51724,1,2,0:0:0:0:
340,303,52067,2,0,L|451:289,1,94.499997116089,2|0,0:0|0:0,0:0:0:0:
467,202,52752,1,2,0:0:0:0:
453,108,53095,2,0,L|387:91,1,47.2499985580445,8|8,0:0|0:3,0:0:0:0:
373,63,53438,2,0,L|307:80,1,47.2499985580445,8|8,0:0|0:0,0:0:0:0:
282,89,53781,6,0,L|168:64,1,94.499997116089,6|2,1:2|0:0,0:0:0:0:
96,50,54467,2,0,P|64:85|66:149,1,94.499997116089,10|2,0:0|0:0,0:0:0:0:
75,174,54981,1,0,1:2:0:0:
137,301,55495,1,2,1:2:0:0:
207,238,55838,1,10,0:0:0:0:
267,310,56181,1,2,1:2:0:0:
344,256,56524,6,0,P|358:210|360:154,1,94.499997116089,2|2,1:2|0:0,0:0:0:0:
338,71,57209,2,0,P|292:64|233:52,1,94.499997116089,8|0,0:0|0:0,0:0:0:0:
197,49,57724,1,0,1:2:0:0:
173,188,58238,1,0,1:2:0:0:
210,274,58581,1,8,0:0:0:0:
116,289,58924,2,0,P|88:287|57:274,1,47.2499985580445,2|2,1:2|0:0,0:0:0:0:
32,252,59267,6,0,B|19:208|19:208|48:149,1,94.499997116089,0|2,1:2|0:0,0:0:0:0:
98,89,59952,2,0,P|141:64|194:77,1,94.499997116089,10|2,0:0|0:0,0:0:0:0:
224,99,60467,1,0,1:2:0:0:
356,48,60981,1,2,1:2:0:0:
389,136,61324,2,0,P|380:180|372:243,1,94.499997116089,10|2,0:0|1:2,0:0:0:0:
320,307,62009,6,0,B|279:307|279:307|255:317|255:317|210:317,1,94.499997116089,2|0,1:2|0:0,0:0:0:0:
132,311,62695,2,0,B|163:239|110:239|140:160,1,141.749995674133,10|0,0:0|1:2,0:0:0:0:
143,125,63381,2,0,P|191:116|242:154,1,94.499997116089,2|0,0:0|1:2,0:0:0:0:
282,215,64067,1,10,0:0:0:0:
326,131,64409,2,0,L|313:65,1,47.2499985580445,2|8,1:2|0:3,0:0:0:0:
298,40,64752,6,0,P|253:34|195:25,1,94.499997116089,4|2,1:2|0:0,0:0:0:0:
132,88,65438,2,0,P|87:94|29:103,1,94.499997116089,10|2,0:0|0:0,0:0:0:0:
4,134,65952,1,0,1:2:0:0:
47,269,66467,1,2,1:2:0:0:
110,199,66809,1,10,0:0:0:0:
170,271,67152,2,0,L|155:332,1,47.2499985580445,2|0,1:2|0:0,0:0:0:0:
144,362,67495,5,0,1:2:0:0:
238,368,67838,2,0,B|278:347|278:347|333:355,1,94.499997116089,2|8,0:0|0:0,0:0:0:0:
403,297,68524,1,2,0:0:0:0:
422,204,68867,2,0,P|421:157|404:104,1,94.499997116089,2|2,0:0|1:2,0:0:0:0:
349,36,69552,1,10,0:0:0:0:
254,31,69895,2,0,L|144:50,1,94.499997116089,2|0,1:2|1:2,0:0:0:0:
94,115,70581,5,8,0:0:0:0:
183,149,70924,2,0,L|293:129,2,94.499997116089,8|8|8,1:2|0:2|1:2,0:0:0:0:
108,207,71952,1,10,0:2:0:0:
43,276,72295,1,10,1:2:0:0:
87,359,72638,1,10,0:2:0:0:
156,294,72981,5,2,1:2:0:0:
466,40,75724,6,0,P|420:52|351:67,1,105,6|2,1:2|0:0,0:0:0:0:
318,86,76238,1,2,1:2:0:0:
318,86,76409,2,0,P|316:116|324:140,1,52.5,8|2,0:0|0:0,0:0:0:0:
356,177,76752,2,0,B|271:173|285:224|199:221,1,157.5,6|0,1:2|1:2,0:0:0:0:
155,213,77438,1,2,1:2:0:0:
82,137,77781,1,10,0:0:0:0:
136,47,78124,1,2,1:2:0:0:
209,121,78467,6,0,P|262:125|324:133,1,105,6|2,1:2|0:0,0:0:0:0:
366,132,78981,2,0,L|359:72,2,52.5,2|8|2,1:2|0:0|1:2,0:0:0:0:
399,172,79495,2,0,B|416:247|416:247|370:329,1,157.5,6|0,1:2|1:2,0:0:0:0:
345,359,80181,1,0,1:0:0:0:
267,287,80524,2,0,L|202:301,1,52.5,8|0,0:0|1:2,0:0:0:0:
171,326,80867,2,0,L|106:312,1,52.5,2|0,1:2|1:2,0:0:0:0:
69,301,81209,6,0,P|48:257|78:195,1,105,6|2,1:2|0:0,0:0:0:0:
103,169,81724,1,2,1:2:0:0:
191,110,82067,1,2,0:0:0:0:
191,110,82238,2,0,B|239:115|239:115|288:156|288:156|355:161,1,157.5,6|0,1:2|1:2,0:0:0:0:
384,146,82924,1,2,1:2:0:0:
356,44,83267,1,10,0:0:0:0:
253,22,83609,1,2,1:2:0:0:
194,108,83952,6,0,P|171:154|183:204,1,105,6|2,1:2|0:0,0:0:0:0:
219,242,84467,2,0,L|274:228,2,52.5,2|8|2,1:2|0:0|1:2,0:0:0:0:
209,293,84981,2,0,B|111:310|111:310|91:342|46:353,1,157.5,6|0,1:2|1:2,0:0:0:0:
16,331,85667,1,8,0:0:0:0:
0,227,86009,2,0,L|13:158,1,52.5,8|8,0:0|0:0,0:0:0:0:
46,137,86352,2,0,L|33:68,1,52.5,10|8,0:0|0:0,0:0:0:0:
34,32,86695,6,0,P|114:47|201:65,1,157.5,6|2,1:2|1:2,0:0:0:0:
238,78,87381,1,8,0:0:0:0:
336,42,87724,2,0,P|375:113|354:207,1,157.5,6|0,1:2|1:2,0:0:0:0:
339,231,88409,1,2,1:2:0:0:
419,298,88752,1,10,0:0:0:0:
350,377,89095,1,2,1:2:0:0:
269,309,89438,6,0,P|216:301|169:327,1,105,6|2,1:2|0:0,0:0:0:0:
146,371,89952,1,2,1:2:0:0:
146,371,90124,2,0,L|77:366,1,52.5,8|2,0:0|1:2,0:0:0:0:
40,367,90467,2,0,B|67:294|2:294|32:206,1,157.5,6|0,1:2|1:2,0:0:0:0:
46,165,91152,1,0,1:0:0:0:
120,90,91495,2,0,P|153:87|181:101,1,52.5,8|0,0:0|1:2,0:0:0:0:
209,129,91838,2,0,P|242:132|270:118,1,52.5,2|2,1:2|1:2,0:0:0:0:
304,98,92181,6,0,B|357:94|357:94|418:128,1,105,6|2,1:2|0:0,0:0:0:0:
446,157,92695,1,0,1:2:0:0:
446,157,92867,1,10,0:0:0:0:
406,254,93209,2,0,B|353:254|353:254|299:285|299:285|246:286,1,157.5,6|0,1:2|1:2,0:0:0:0:
204,277,93895,1,2,1:2:0:0:
99,268,94238,2,0,P|86:292|83:326,2,52.5,10|2|6,0:0|1:2|1:2,0:0:0:0:
160,182,94924,5,8,0:2:0:0:
94,99,95267,1,8,0:2:0:0:
173,31,95609,1,8,0:0:0:0:
239,112,95952,2,0,P|290:135|353:122,1,105,10|2,0:2|1:2,0:0:0:0:
46,353,97667,6,0,L|56:285,1,47.2499985580445,6|2,1:2|1:2,0:0:0:0:
79,267,98009,2,0,L|68:200,1,47.2499985580445,2|2,1:2|0:0,0:0:0:0:
59,174,98352,1,10,0:0:0:0:
100,89,98695,2,0,P|129:87|164:101,1,47.2499985580445,2|2,1:2|1:2,0:0:0:0:
182,122,99038,2,0,P|235:129|278:97,1,94.499997116089,0|2,1:2|1:2,0:0:0:0:
351,62,99724,2,0,L|366:1,2,47.2499985580445,10|2|2,0:0|1:2|1:2,0:0:0:0:
360,113,100238,1,0,1:2:0:0:
360,113,100409,6,0,L|422:130,1,47.2499985580445,6|2,1:2|1:2,0:0:0:0:
430,165,100752,2,0,P|421:209|414:274,1,94.499997116089,2|10,1:2|0:0,0:0:0:0:
378,345,101438,2,0,L|313:331,1,47.2499985580445,2|2,1:2|1:2,0:0:0:0:
285,323,101781,2,0,L|175:344,1,94.499997116089,0|2,1:2|1:2,0:0:0:0:
150,356,102295,1,0,1:2:0:0:
150,356,102467,2,0,L|135:298,1,47.2499985580445,10|2,0:0|1:2,0:0:0:0:
127,264,102809,1,10,0:2:0:0:
170,179,103152,6,0,P|195:173|226:165,1,47.2499985580445,6|2,1:2|1:2,0:0:0:0:
260,150,103495,2,8,P|249:101|235:48,1,94.499997116089,2|10,1:2|0:0,0:0:0:0:
153,14,104181,2,0,P|128:20|97:28,1,47.2499985580445,2|2,1:2|1:2,0:0:0:0:
64,46,104524,2,8,P|75:95|89:148,1,94.499997116089,2|2,1:2|1:2,0:0:0:0:
122,225,105209,2,0,P|92:233|64:228,2,47.2499985580445,10|2|2,0:2|1:2|1:2,0:0:0:0:
169,210,105724,1,0,1:2:0:0:
169,210,105895,6,0,P|205:217|235:227,1,47.2499985580445,8|2,0:0|1:2,0:0:0:0:
257,241,106238,1,8,0:3:0:0:
349,212,106581,1,8,0:0:0:0:
306,133,106924,1,2,1:2:0:0:
306,133,107095,2,0,P|313:84|321:26,1,94.499997116089,6|0,1:2|1:0,0:0:0:0:
354,7,107609,2,0,L|414:14,1,47.2499985580445,8|0,0:0|1:0,0:0:0:0:
432,47,107952,2,0,P|424:95|417:154,1,94.499997116089,8|0,0:0|1:0,0:0:0:0:
389,230,108638,6,0,L|399:292,1,47.2499985580445,6|2,1:2|1:2,0:0:0:0:
406,323,108981,2,0,P|367:350|304:338,1,94.499997116089,2|10,1:2|0:0,0:0:0:0:
245,290,109667,2,0,L|255:228,2,47.2499985580445,2|0|0,1:2|1:2|1:2,0:0:0:0:
170,348,110352,1,2,1:2:0:0:
79,320,110695,2,0,P|72:299|77:268,1,47.2499985580445,10|2,0:0|1:2,0:0:0:0:
101,235,111038,2,0,P|108:214|103:183,1,47.2499985580445,0|0,1:2|1:2,0:0:0:0:
83,147,111381,5,6,1:2:0:0:
126,62,111724,1,2,1:2:0:0:
212,98,112067,2,0,L|226:158,1,47.2499985580445,10|0,0:0|0:0,0:0:0:0:
244,186,112409,2,0,L|230:247,1,47.2499985580445,2|0,1:2|1:2,0:0:0:0:
218,276,112752,1,0,1:2:0:0:
279,347,113095,2,0,P|326:339|382:330,1,94.499997116089,2|8,1:2|0:0,0:0:0:0:
423,339,113609,1,2,1:2:0:0:
423,339,113781,2,0,L|434:274,1,47.2499985580445,10|8,0:0|0:0,0:0:0:0:
442,246,114124,5,4,1:2:0:0:
421,153,114467,2,0,L|354:163,1,47.2499985580445,2|2,1:2|0:0,0:0:0:0:
327,163,114809,2,0,P|308:121|325:66,1,94.499997116089,10|0,0:0|1:2,0:0:0:0:
352,42,115324,1,0,1:2:0:0:
352,42,115495,1,0,1:0:0:0:
264,5,115838,1,2,1:2:0:0:
197,71,116181,1,10,0:0:0:0:
111,29,116524,2,0,L|51:18,1,47.2499985580445,2|0,1:2|1:2,0:0:0:0:
17,23,116867,6,0,P|1:71|31:125,1,94.499997116089,6|2,1:2|1:2,0:0:0:0:
96,159,117552,2,0,P|142:149|188:141,1,94.499997116089,10|2,0:0|1:2,0:0:0:0:
258,77,118238,2,0,P|304:86|350:94,1,94.499997116089,6|2,1:2|1:2,0:0:0:0:
417,162,118924,2,0,L|407:217,1,47.2499985580445,10|8,0:0|0:0,0:0:0:0:
387,251,119267,2,0,L|332:241,1,47.2499985580445,10|8,0:0|0:0,0:0:0:0:
294,252,119609,6,0,L|201:282,1,94.499997116089,6|0,1:2|1:2,0:0:0:0:
174,190,120295,2,0,L|270:160,2,94.499997116089,2|0|10,1:2|1:2|0:0,0:0:0:0:
104,253,121324,1,0,1:2:0:0:
13,230,121667,2,0,P|6:190|31:143,1,94.499997116089,2|0,1:2|1:2,0:0:0:0:
122,165,122352,6,0,P|126:209|102:254,1,94.499997116089,4|0,1:2|1:2,0:0:0:0:
143,339,123038,2,0,L|239:332,1,94.499997116089,2|0,1:2|1:2,0:0:0:0:
313,276,123724,2,0,P|331:318|326:369,2,94.499997116089,10|0|10,0:0|1:2|0:0,0:0:0:0:
225,239,124752,1,8,0:3:0:0:
283,164,125095,6,0,P|332:169|385:176,1,94.499997116089,4|0,1:2|1:0,0:0:0:0:
469,194,125781,2,0,P|476:150|483:93,1,94.499997116089,2|0,1:2|1:0,0:0:0:0:
390,81,126467,2,0,P|382:129|375:182,2,94.499997116089,10|0|2,0:0|1:0|1:2,0:0:0:0:
452,9,127495,1,0,1:0:0:0:
361,1,127838,6,0,P|320:11|260:24,1,94.499997116089,2|0,1:2|1:0,0:0:0:0:
227,107,128524,1,0,1:0:0:0:
154,46,128867,1,2,1:2:0:0:
136,138,129209,2,0,P|153:178|142:238,1,94.499997116089,10|0,0:0|1:0,0:0:0:0:
104,312,129895,2,0,L|9:298,1,94.499997116089,8|10,0:0|0:3,0:0:0:0:
3,203,130581,6,0,B|40:129|-15:144|21:66,1,141.749995674133,6|0,1:2|1:2,0:0:0:0:
53,32,131267,1,10,0:0:0:0:
95,116,131609,2,0,P|157:157|229:134,1,141.749995674133,6|0,1:2|1:2,0:0:0:0:
257,115,132295,1,0,1:2:0:0:
320,44,132638,2,0,L|301:-23,2,47.2499985580445,8|0|10,0:0|1:2|0:0,0:0:0:0:
351,133,133324,6,0,P|341:180|332:235,1,94.499997116089,6|0,1:2|0:0,0:0:0:0:
336,322,134009,1,10,0:0:0:0:
249,359,134352,2,0,B|202:355|202:355|163:372|163:372|109:364,1,141.749995674133,6|0,1:2|1:2,0:0:0:0:
68,345,135037,1,0,1:2:0:0:
61,250,135381,2,0,P|38:253|17:264,2,47.2499985580445,8|0|10,0:0|1:2|0:0,0:0:0:0:
112,252,135895,1,8,0:0:0:0:
112,252,136067,6,0,L|123:149,1,94.499997116089,10|8,0:2|0:2,0:0:0:0:
167,74,136752,2,0,P|213:71|264:90,1,94.499997116089,8|10,0:0|0:0,0:0:0:0:
328,150,137438,2,0,B|350:110|350:110|342:49,2,94.499997116089,10|8|8,0:0|0:0|0:0,0:0:0:0:
272,226,138467,1,10,0:0:0:0:
297,316,138809,2,0,P|372:370|460:344,1,188.999994232178,6|0,1:2|0:0,0:0:0:0:
512,166,140181,5,10,0:0:0:0:
512,166,140352,2,0,L|417:138,1,94.499997116089,0|8,1:2|0:3,0:0:0:0:
374,131,140867,2,0,L|390:78,1,47.2499985580445,8|0,0:0|0:0,0:0:0:0:
412,45,141209,2,0,L|367:29,1,47.2499985580445,8|0,0:0|0:0,0:0:0:0:
324,10,141552,5,4,1:2:0:0:
256,192,155952,12,2,160752,0:0:0:0:
51,110,163152,5,2,0:0:0:0:
51,110,163495,2,0,P|148:128|251:152,1,188.999994232178,6|0,1:2|0:0,0:0:0:0:
364,287,164867,2,0,P|282:315|222:240,1,188.999994232178,6|2,1:2|0:0,0:0:0:0:
236,148,165895,2,0,P|243:117|252:84,1,47.2499985580445,10|8,0:0|0:0,0:0:0:0:
291,86,166238,2,0,B|343:82|343:82|422:118|422:118|483:110,1,188.999994232178,6|0,1:2|1:2,0:0:0:0:
317,1,167609,6,0,L|261:5,1,47.2499985580445,8|0,0:0|1:2,0:0:0:0:
223,16,167952,2,0,L|168:10,1,47.2499985580445,8|0,0:0|1:2,0:0:0:0:
133,7,168295,1,8,0:0:0:0:
133,7,168467,1,0,1:2:0:0:
27,124,168981,6,0,P|35:176|43:236,1,105,6|2,1:2|0:0,0:0:0:0:
72,277,169495,1,2,1:2:0:0:
72,277,169667,1,8,0:0:0:0:
163,226,170009,2,0,B|249:247|249:247|260:291|303:304,1,157.5,6|0,1:2|1:2,0:0:0:0:
342,303,170695,1,2,1:2:0:0:
425,239,171038,1,10,0:0:0:0:
396,137,171381,1,2,1:2:0:0:
309,78,171724,6,0,L|182:102,1,105,6|2,1:2|0:0,0:0:0:0:
158,112,172238,1,2,1:2:0:0:
158,112,172409,2,0,L|166:188,1,52.5,8|2,0:0|1:2,0:0:0:0:
178,214,172752,2,0,L|302:192,1,105,6|0,1:2|0:0,0:0:0:0:
334,190,173267,2,0,L|342:266,1,52.5,0|8,1:2|0:0,0:0:0:0:
347,346,173781,2,0,P|317:345|283:328,2,52.5,8|8|10,0:0|0:2|0:2,0:0:0:0:
403,343,174295,1,8,0:2:0:0:
403,343,174467,6,0,B|436:269|436:269|423:175,1,157.5,6|2,1:2|1:2,0:0:0:0:
411,142,175152,1,8,0:0:0:0:
346,58,175495,2,0,B|265:45|278:109|178:101,1,157.5,6|0,1:2|1:2,0:0:0:0:
147,91,176181,1,2,1:2:0:0:
71,164,176524,1,10,0:0:0:0:
139,243,176867,1,2,1:2:0:0:
108,343,177209,6,0,P|166:342|211:316,1,105,6|2,1:2|0:0,0:0:0:0:
241,281,177724,1,2,1:2:0:0:
241,281,177895,2,0,L|239:206,1,52.5,8|2,0:0|1:2,0:0:0:0:
237,175,178238,2,0,P|262:126|370:145,1,157.5,6|0,1:2|1:2,0:0:0:0:
393,162,178924,1,8,0:0:0:0:
494,133,179267,2,0,L|481:74,2,52.5,8|8|10,0:0|0:0|0:0,0:0:0:0:
484,188,179781,1,10,0:0:0:0:
484,188,179952,6,0,L|456:303,1,105,6|2,1:2|0:0,0:0:0:0:
445,344,180467,1,2,1:2:0:0:
445,344,180638,1,8,0:0:0:0:
346,308,180981,2,0,B|294:319|294:319|254:354|254:354|200:366,1,157.5,6|0,1:2|1:2,0:0:0:0:
151,358,181667,1,2,1:2:0:0:
65,297,182009,2,0,P|72:245|81:176,1,105,10|2,0:0|1:2,0:0:0:0:
119,95,182695,6,0,P|174:107|245:121,2,105,8|8|8,0:0|0:0|0:0,0:0:0:0:
33,33,183724,1,10,0:0:0:0:
10,135,184067,1,2,1:2:0:0:
470,36,187838,5,10,0:0:0:0:
389,94,188181,6,0,L|399:159,1,49.8749986681939,6|2,1:2|1:2,0:0:0:0:
413,190,188524,2,0,L|403:255,1,49.8749986681939,2|2,1:2|0:0,0:0:0:0:
393,287,188867,1,10,0:0:0:0:
315,224,189209,2,0,L|325:159,1,49.8749986681939,2|2,1:2|1:2,0:0:0:0:
301,129,189552,2,0,P|255:112|204:137,1,99.7499973363877,0|2,1:2|1:2,0:0:0:0:
141,202,190238,2,0,L|156:267,2,49.8749986681939,10|2|2,0:0|1:2|1:2,0:0:0:0:
123,160,190752,1,0,1:2:0:0:
123,160,190924,6,0,L|136:88,1,49.8749986681939,6|2,1:2|1:2,0:0:0:0:
139,61,191267,2,0,L|26:73,1,99.7499973363877,2|10,1:2|0:0,0:0:0:0:
12,167,191952,2,0,P|16:192|21:237,1,49.8749986681939,2|2,1:2|1:2,0:0:0:0:
36,263,192295,2,0,P|29:310|21:383,1,99.7499973363877,0|2,1:2|1:2,0:0:0:0:
75,380,192809,1,0,1:2:0:0:
75,380,192981,2,0,P|105:371|137:362,1,49.8749986681939,10|2,0:0|1:2,0:0:0:0:
170,351,193324,1,10,0:2:0:0:
207,258,193667,6,0,P|176:249|145:240,1,49.8749986681939,6|2,1:2|1:2,0:0:0:0:
114,221,194009,2,0,L|146:121,1,99.7499973363877,2|10,1:2|0:0,0:0:0:0:
234,81,194695,2,0,P|264:89|296:99,1,49.8749986681939,2|2,1:2|1:2,0:0:0:0:
324,120,195038,2,0,L|292:220,1,99.7499973363877,0|2,1:2|1:2,0:0:0:0:
247,304,195724,2,0,P|219:299|182:318,2,49.8749986681939,10|2|2,0:0|1:2|1:2,0:0:0:0:
291,337,196238,1,0,1:2:0:0:
291,337,196409,6,0,L|357:328,1,49.8749986681939,8|2,0:0|1:2,0:0:0:0:
390,325,196752,1,8,0:3:0:0:
460,253,197095,1,8,0:0:0:0:
425,164,197438,1,2,1:2:0:0:
425,164,197609,2,0,L|318:190,1,99.7499973363877,6|0,1:2|1:2,0:0:0:0:
281,205,198124,1,8,0:0:0:0:
214,130,198467,2,0,L|230:66,2,49.8749986681939,8|8|8,0:0|0:0|0:0,0:0:0:0:
186,173,198981,1,8,0:0:0:0:
186,173,199152,6,0,P|157:172|126:159,1,49.8749986681939,6|2,1:2|1:2,0:0:0:0:
96,135,199495,2,0,P|67:136|36:149,1,49.8749986681939,2|2,1:2|0:0,0:0:0:0:
6,171,199838,1,10,0:0:0:0:
6,270,200181,2,0,L|13:330,1,49.8749986681939,2|2,1:2|1:2,0:0:0:0:
25,367,200524,2,0,P|76:369|125:339,1,99.7499973363877,0|2,1:2|1:2,0:0:0:0:
186,273,201209,2,0,L|172:208,2,49.8749986681939,10|2|2,0:0|1:2|1:2,0:0:0:0:
210,323,201724,1,0,1:2:0:0:
210,323,201895,6,0,L|281:330,1,49.8749986681939,6|2,1:2|1:2,0:0:0:0:
308,336,202238,2,0,L|379:329,1,49.8749986681939,2|2,1:2|0:0,0:0:0:0:
407,329,202581,1,10,0:0:0:0:
463,246,202924,2,0,L|456:175,1,49.8749986681939,2|2,1:2|1:2,0:0:0:0:
450,146,203267,2,0,P|407:113|347:120,1,99.7499973363877,0|2,1:2|1:2,0:0:0:0:
281,169,203952,1,10,0:0:0:0:
241,83,204295,1,10,0:2:0:0:
241,83,204467,1,8,0:2:0:0:
202,51,204638,6,0,P|176:43|146:41,1,49.8749986681939,6|2,1:2|1:2,0:0:0:0:
111,14,204981,2,0,P|85:22|55:24,1,49.8749986681939,2|2,1:2|0:0,0:0:0:0:
12,24,205324,1,10,0:0:0:0:
5,123,205667,2,0,P|-3:154|5:188,1,49.8749986681939,2|2,1:2|1:2,0:0:0:0:
28,211,206009,2,0,P|36:258|17:324,1,99.7499973363877,0|2,1:2|1:2,0:0:0:0:
102,371,206695,2,0,L|159:359,1,49.8749986681939,10|2,0:0|1:2,0:0:0:0:
199,348,207038,2,0,L|256:360,1,49.8749986681939,2|0,1:2|1:2,0:0:0:0:
297,365,207381,6,0,L|283:253,2,99.7499973363877,6|10|10,1:2|0:0|0:0,0:0:0:0:
395,377,208409,1,10,0:0:0:0:
445,290,208752,1,10,0:0:0:0:
378,215,209095,1,10,0:0:0:0:
428,130,209438,2,0,L|437:69,1,49.8749986681939,10|2,0:0|0:0,0:0:0:0:
416,40,209781,1,10,0:0:0:0:
416,40,209952,1,2,1:2:0:0:
