osu file format v14

[General]
AudioFilename: audio.mp3
AudioLeadIn: 0
PreviewTime: 53634
Countdown: 0
SampleSet: Soft
StackLeniency: 0.7
Mode: 3
LetterboxInBreaks: 0
SpecialStyle: 0
WidescreenStoryboard: 1

[Editor]
DistanceSpacing: 1
BeatDivisor: 4
GridSize: 4
TimelineZoom: 1.9

[Metadata]
Title:Watashi o Kureta Minna e
TitleUnicode:わたしをくれたみんなへ
Artist:Suzuki Konomi
ArtistUnicode:鈴木このみ
Creator:[ Lovega ]
Version:HS
Source:
Tags:japanese short ver
BeatmapID:2045682
BeatmapSetID:977387

[Difficulty]
HPDrainRate:7
CircleSize:5
OverallDifficulty:7
ApproachRate:5
SliderMultiplier:1.4
SliderTickRate:1

[Events]
//Background and Video events
0,0,"img.jpg",0,0
//Break Periods
//Storyboard Layer 0 (Background)
//Storyboard Layer 1 (Fail)
//Storyboard Layer 2 (Pass)
//Storyboard Layer 3 (Foreground)
//Storyboard Sound Samples

[TimingPoints]
1092,324.324324324324,4,2,1,100,1,0
54281,-100,4,2,1,100,0,1
77632,-100,4,2,1,100,0,0

[HitObjects]
51,192,1092,5,2,0:0:0:0:
256,192,1092,1,4,0:0:0:0:
51,192,1416,1,2,0:0:0:0:
51,192,1740,1,2,0:0:0:0:
51,192,2064,1,2,0:0:0:0:
51,192,2389,1,2,0:0:0:0:
51,192,2713,1,2,0:0:0:0:
51,192,3037,1,2,0:0:0:0:
51,192,3362,1,2,0:0:0:0:
51,192,3686,1,2,0:0:0:0:
460,192,3686,1,0,0:0:0:70:soft-hitnormal02.wav
51,192,4010,1,2,0:0:0:0:
460,192,4010,1,0,0:0:0:70:soft-hitnormal02.wav
51,192,4335,1,2,0:0:0:0:
460,192,4335,1,0,0:0:0:70:soft-hitnormal02.wav
51,192,4659,1,2,0:0:0:0:
460,192,4659,1,0,0:0:0:70:soft-hitnormal02.wav
51,192,4983,1,2,0:0:0:0:
256,192,4983,1,4,0:0:0:0:
460,192,4983,1,0,0:0:0:70:soft-hitnormal02.wav
256,192,6281,1,4,0:0:0:0:
256,192,6605,1,4,0:0:0:0:
153,192,6929,1,8,0:0:0:0:
51,192,6929,1,2,0:0:0:0:
358,192,7010,1,0,0:0:0:70:tom2.wav
358,192,7173,1,0,0:0:0:70:tom3.wav
153,192,7254,1,8,0:0:0:0:
256,192,7254,1,4,0:0:0:0:
358,192,7416,1,8,0:0:0:70:tom4.wav
51,192,7456,1,2,0:0:0:0:
51,192,7578,1,2,0:0:0:0:
256,192,7578,1,4,0:0:0:0:
51,192,7740,1,2,0:0:0:0:
51,192,7902,1,2,0:0:0:0:
153,192,8064,1,8,0:0:0:0:
256,192,8064,1,4,0:0:0:0:
51,192,8227,1,2,0:0:0:0:
51,192,8389,1,2,0:0:0:0:
153,192,8551,1,8,0:0:0:0:
51,192,8713,1,2,0:0:0:0:
153,192,8875,1,8,0:0:0:0:
256,192,8875,1,4,0:0:0:0:
51,192,9037,1,2,0:0:0:0:
51,192,9200,1,2,0:0:0:0:
153,192,9362,1,8,0:0:0:0:
256,192,9362,1,4,0:0:0:0:
51,192,9524,1,2,0:0:0:0:
51,192,9686,1,2,0:0:0:0:
153,192,9848,1,8,0:0:0:0:
51,192,10010,1,2,0:0:0:0:
153,192,10173,1,8,0:0:0:0:
256,192,10173,1,4,0:0:0:0:
51,192,10335,1,2,0:0:0:0:
51,192,10497,1,2,0:0:0:0:
153,192,10659,1,8,0:0:0:0:
256,192,10659,1,4,0:0:0:0:
51,192,10821,1,2,0:0:0:0:
51,192,10983,1,2,0:0:0:0:
153,192,11146,1,8,0:0:0:0:
256,192,11146,1,4,0:0:0:0:
51,192,11308,1,2,0:0:0:0:
153,192,11470,1,8,0:0:0:0:
256,192,11470,1,4,0:0:0:0:
51,192,11632,1,2,0:0:0:0:
51,192,11794,1,2,0:0:0:0:
153,192,11956,1,8,0:0:0:0:
256,192,11956,1,4,0:0:0:0:
51,192,12119,1,2,0:0:0:0:
51,192,12281,1,2,0:0:0:0:
153,192,12443,1,8,0:0:0:0:
256,192,12443,1,4,0:0:0:0:
51,192,12605,1,2,0:0:0:0:
153,192,12767,1,8,0:0:0:0:
256,192,12767,1,4,0:0:0:0:
51,192,12929,1,2,0:0:0:0:
51,192,13091,1,2,0:0:0:0:
153,192,13254,1,8,0:0:0:0:
256,192,13254,1,4,0:0:0:0:
51,192,13416,1,2,0:0:0:0:
51,192,13578,1,2,0:0:0:0:
153,192,13740,1,8,0:0:0:0:
256,192,13740,1,4,0:0:0:0:
51,192,13902,1,2,0:0:0:0:
153,192,14064,1,8,0:0:0:0:
256,192,14064,1,4,0:0:0:0:
51,192,14227,1,2,0:0:0:0:
358,192,14389,1,0,0:0:0:70:tom3.wav
256,192,14551,1,4,0:0:0:0:
51,192,14551,1,2,0:0:0:0:
51,192,14713,1,2,0:0:0:0:
153,192,14713,1,8,0:0:0:0:
153,192,14956,1,8,0:0:0:0:
153,192,15037,1,8,0:0:0:0:
51,192,15037,1,2,0:0:0:0:
153,192,15119,1,8,0:0:0:0:
153,192,15200,1,8,0:0:0:0:
153,192,15281,1,8,0:0:0:0:
256,192,15362,1,4,0:0:0:0:
51,192,15362,1,2,0:0:0:0:
51,192,15686,1,2,0:0:0:0:
51,192,16010,1,2,0:0:0:0:
51,192,16335,1,2,0:0:0:0:
51,192,16659,1,2,0:0:0:0:
51,192,16983,1,2,0:0:0:0:
256,192,17308,1,4,0:0:0:0:
256,192,17632,1,4,0:0:0:0:
51,192,17956,1,2,0:0:0:0:
256,192,17956,1,4,0:0:0:0:
460,192,17956,1,0,0:0:0:70:soft-hitnormal02.wav
51,192,18281,1,2,0:0:0:0:
460,192,18281,1,0,0:0:0:70:soft-hitnormal02.wav
153,192,18443,1,8,0:0:0:0:
460,192,18605,1,0,0:0:0:70:soft-hitnormal02.wav
51,192,18767,1,2,0:0:0:0:
153,192,18929,1,8,0:0:0:0:
460,192,18929,1,0,0:0:0:70:soft-hitnormal02.wav
460,192,19254,1,0,0:0:0:70:soft-hitnormal02.wav
51,192,19254,1,2,0:0:0:0:
51,192,19416,1,2,0:0:0:70:Drum.wav
460,192,19578,1,0,0:0:0:70:soft-hitnormal02.wav
153,192,19740,1,8,0:0:0:0:
460,192,19902,1,0,0:0:0:70:soft-hitnormal02.wav
51,192,20064,1,2,0:0:0:0:
153,192,20227,1,8,0:0:0:0:
51,192,20551,1,2,0:0:0:0:
460,192,20551,1,0,0:0:0:70:soft-hitnormal02.wav
51,192,20875,1,2,0:0:0:0:
460,192,20875,1,0,0:0:0:70:soft-hitnormal02.wav
153,192,21037,1,8,0:0:0:0:
460,192,21200,1,0,0:0:0:70:soft-hitnormal02.wav
51,192,21362,1,2,0:0:0:0:
153,192,21524,1,8,0:0:0:0:
51,192,21848,1,2,0:0:0:0:
460,192,21848,1,0,0:0:0:70:soft-hitnormal02.wav
51,192,22010,1,2,0:0:0:70:Drum.wav
460,192,22173,1,0,0:0:0:70:soft-hitnormal02.wav
153,192,22335,1,8,0:0:0:0:
460,192,22497,1,0,0:0:0:70:soft-hitnormal02.wav
51,192,22659,1,2,0:0:0:0:
153,192,22821,1,8,0:0:0:0:
51,192,23146,1,2,0:0:0:0:
460,192,23146,1,0,0:0:0:70:soft-hitnormal02.wav
51,192,23470,1,2,0:0:0:0:
460,192,23470,1,0,0:0:0:70:soft-hitnormal02.wav
153,192,23632,1,8,0:0:0:0:
460,192,23794,1,0,0:0:0:70:soft-hitnormal02.wav
51,192,23956,1,2,0:0:0:0:
153,192,24119,1,8,0:0:0:0:
51,192,24443,1,2,0:0:0:0:
460,192,24443,1,0,0:0:0:70:soft-hitnormal02.wav
51,192,24605,1,2,0:0:0:70:Drum.wav
460,192,24767,1,0,0:0:0:70:soft-hitnormal02.wav
153,192,24929,1,8,0:0:0:0:
460,192,25091,1,0,0:0:0:70:soft-hitnormal02.wav
51,192,25254,1,2,0:0:0:0:
153,192,25416,1,8,0:0:0:0:
51,192,25740,1,2,0:0:0:0:
460,192,25740,1,0,0:0:0:70:soft-hitnormal02.wav
51,192,26064,1,2,0:0:0:0:
460,192,26064,1,0,0:0:0:70:soft-hitnormal02.wav
153,192,26227,1,8,0:0:0:0:
460,192,26389,1,0,0:0:0:70:soft-hitnormal02.wav
51,192,26551,1,2,0:0:0:0:
153,192,26713,1,8,0:0:0:0:
51,192,27037,1,2,0:0:0:0:
460,192,27037,1,0,0:0:0:70:soft-hitnormal02.wav
51,192,27200,1,2,0:0:0:0:
153,192,27362,1,8,0:0:0:0:
460,192,27362,1,0,0:0:0:70:soft-hitnormal02.wav
51,192,27524,1,2,0:0:0:0:
256,192,27686,1,4,0:0:0:0:
51,192,27686,1,2,0:0:0:0:
460,192,27686,1,0,0:0:0:70:soft-hitnormal02.wav
153,192,27848,1,8,0:0:0:0:
153,192,27929,1,8,0:0:0:0:
51,192,28010,1,2,0:0:0:0:
153,192,28010,1,8,0:0:0:0:
153,192,28091,1,8,0:0:0:0:
153,192,28173,1,8,0:0:0:0:
153,192,28254,1,8,0:0:0:0:
51,192,28335,1,2,0:0:0:0:
256,192,28335,1,0,0:0:0:70:Drum Finish.wav
51,192,28497,1,2,0:0:0:0:
460,192,28497,1,0,0:0:0:70:soft-hitnormal02.wav
153,192,28659,1,8,0:0:0:0:
460,192,28821,1,0,0:0:0:70:soft-hitnormal02.wav
51,192,28983,1,2,0:0:0:0:
51,192,29146,1,2,0:0:0:0:
460,192,29146,1,0,0:0:0:70:soft-hitnormal02.wav
153,192,29308,1,8,0:0:0:0:
460,192,29470,1,0,0:0:0:70:soft-hitnormal02.wav
51,192,29632,1,2,0:0:0:0:
51,192,29794,1,2,0:0:0:0:
460,192,29794,1,0,0:0:0:70:soft-hitnormal02.wav
153,192,29956,1,8,0:0:0:0:
460,192,30119,1,0,0:0:0:70:soft-hitnormal02.wav
51,192,30281,1,2,0:0:0:0:
51,192,30443,1,2,0:0:0:0:
460,192,30443,1,0,0:0:0:70:soft-hitnormal02.wav
153,192,30605,1,8,0:0:0:0:
460,192,30767,1,0,0:0:0:70:soft-hitnormal02.wav
51,192,30929,1,2,0:0:0:0:
51,192,31091,1,2,0:0:0:0:
460,192,31091,1,0,0:0:0:70:soft-hitnormal02.wav
153,192,31254,1,8,0:0:0:0:
460,192,31416,1,0,0:0:0:70:soft-hitnormal02.wav
51,192,31578,1,2,0:0:0:0:
51,192,31740,1,2,0:0:0:0:
460,192,31740,1,0,0:0:0:70:soft-hitnormal02.wav
153,192,31902,1,8,0:0:0:0:
460,192,32064,1,0,0:0:0:70:soft-hitnormal02.wav
51,192,32227,1,2,0:0:0:0:
51,192,32389,1,2,0:0:0:0:
460,192,32389,1,0,0:0:0:70:soft-hitnormal02.wav
153,192,32551,1,8,0:0:0:0:
460,192,32713,1,0,0:0:0:70:soft-hitnormal02.wav
51,192,32875,1,2,0:0:0:0:
460,192,33037,1,0,0:0:0:70:soft-hitnormal02.wav
51,192,33037,1,2,0:0:0:0:
153,192,33200,1,8,0:0:0:0:
460,192,33362,1,0,0:0:0:70:soft-hitnormal02.wav
51,192,33524,1,2,0:0:0:0:
256,192,33524,1,4,0:0:0:0:
51,192,33686,1,2,0:0:0:0:
460,192,33686,1,0,0:0:0:70:soft-hitnormal02.wav
153,192,33848,1,8,0:0:0:0:
460,192,34010,1,0,0:0:0:70:soft-hitnormal02.wav
51,192,34173,1,2,0:0:0:0:
51,192,34335,1,2,0:0:0:0:
460,192,34335,1,0,0:0:0:70:soft-hitnormal02.wav
153,192,34497,1,8,0:0:0:0:
460,192,34659,1,0,0:0:0:70:soft-hitnormal02.wav
51,192,34821,1,2,0:0:0:0:
51,192,34983,1,2,0:0:0:0:
460,192,34983,1,0,0:0:0:70:soft-hitnormal02.wav
153,192,35146,1,8,0:0:0:0:
460,192,35308,1,0,0:0:0:70:soft-hitnormal02.wav
51,192,35470,1,2,0:0:0:0:
51,192,35632,1,2,0:0:0:0:
460,192,35632,1,0,0:0:0:70:soft-hitnormal02.wav
153,192,35794,1,8,0:0:0:0:
460,192,35956,1,0,0:0:0:70:soft-hitnormal02.wav
51,192,36119,1,2,0:0:0:0:
51,192,36281,1,2,0:0:0:0:
460,192,36281,1,0,0:0:0:70:soft-hitnormal02.wav
153,192,36443,1,8,0:0:0:0:
153,192,36686,1,8,0:0:0:0:
51,192,36767,1,2,0:0:0:0:
51,192,36929,1,2,0:0:0:0:
153,192,37010,1,8,0:0:0:0:
153,192,37091,1,8,0:0:0:0:
51,192,37091,1,2,0:0:0:0:
153,192,37254,1,8,0:0:0:0:
153,192,37335,1,8,0:0:0:0:
256,192,37416,1,4,0:0:0:0:
153,192,37416,1,8,0:0:0:0:
51,192,37416,1,2,0:0:0:0:
153,192,37578,1,8,0:0:0:0:
153,192,37659,1,8,0:0:0:0:
153,192,37740,1,8,0:0:0:0:
256,192,37740,1,4,0:0:0:0:
51,192,37902,1,2,0:0:0:0:
256,192,37902,1,4,0:0:0:0:
51,192,38227,1,2,0:0:0:0:
153,192,38389,1,8,0:0:0:0:
51,192,38551,1,2,0:0:0:0:
153,192,38713,1,8,0:0:0:0:
256,192,38713,1,4,0:0:0:0:
51,192,38875,1,2,0:0:0:0:
51,192,39037,1,2,0:0:0:0:
153,192,39200,1,8,0:0:0:0:
51,192,40010,1,2,0:0:0:0:
51,192,40335,1,2,0:0:0:0:
51,192,40659,1,2,0:0:0:0:
51,192,40983,1,2,0:0:0:0:
256,192,40983,1,4,0:0:0:0:
153,192,41308,1,8,0:0:0:0:
153,192,41470,1,8,0:0:0:0:
153,192,41551,1,8,0:0:0:0:
153,192,41632,1,8,0:0:0:0:
153,192,41794,1,8,0:0:0:0:
51,192,41794,1,2,0:0:0:0:
51,192,42119,1,2,0:0:0:0:
153,192,42281,1,8,0:0:0:0:
256,192,42281,1,4,0:0:0:0:
51,192,42605,1,2,0:0:0:0:
51,192,42767,1,2,0:0:0:0:
51,192,42929,1,2,0:0:0:0:
153,192,43091,1,8,0:0:0:0:
256,192,43254,1,4,0:0:0:0:
51,192,43254,1,2,0:0:0:0:
153,192,43335,1,8,0:0:0:0:
153,192,43416,1,8,0:0:0:0:
153,192,43497,1,8,0:0:0:0:
51,192,43578,1,2,0:0:0:0:
256,192,43902,1,4,0:0:0:0:
153,192,43902,1,8,0:0:0:0:
460,192,44227,1,0,0:0:0:70:Hat.wav
51,192,44389,1,2,0:0:0:0:
153,192,44551,1,8,0:0:0:0:
256,192,44551,1,4,0:0:0:0:
51,192,44875,1,2,0:0:0:0:
460,192,44875,1,0,0:0:0:70:Hat.wav
51,192,45200,1,2,0:0:0:0:
460,192,45200,1,0,0:0:0:70:Hat.wav
153,192,45362,1,8,0:0:0:0:
256,192,45362,1,4,0:0:0:0:
51,192,45524,1,2,0:0:0:0:
460,192,45524,1,0,0:0:0:70:Hat.wav
51,192,45686,1,2,0:0:0:0:
153,192,45848,1,8,0:0:0:0:
256,192,45848,1,4,0:0:0:0:
51,192,46010,1,2,0:0:0:0:
153,192,46173,1,8,0:0:0:0:
460,192,46173,1,4,0:0:0:70:Hat.wav
51,192,46497,1,2,0:0:0:0:
256,192,46497,1,4,0:0:0:0:
460,192,46821,1,0,0:0:0:70:Hat.wav
51,192,46983,1,2,0:0:0:0:
153,192,47146,1,8,0:0:0:0:
51,192,47470,1,2,0:0:0:0:
460,192,47470,1,0,0:0:0:70:Hat.wav
51,192,47632,1,2,0:0:0:0:
153,192,47794,1,8,0:0:0:0:
51,192,47956,1,2,0:0:0:0:
153,192,48119,1,8,0:0:0:0:
256,192,48119,1,4,0:0:0:0:
153,192,48281,1,8,0:0:0:0:
153,192,48362,1,8,0:0:0:0:
153,192,48443,1,8,0:0:0:0:
51,192,48443,1,2,0:0:0:0:
358,192,48605,1,0,0:0:0:70:tom1.wav
358,192,48767,1,0,0:0:0:70:tom2.wav
358,192,49010,1,0,0:0:0:70:tom3.wav
153,192,49091,1,8,0:0:0:0:
256,192,49091,1,4,0:0:0:0:
153,192,51686,1,8,0:0:0:0:
51,192,51686,1,2,0:0:0:0:
153,192,51848,1,8,0:0:0:0:
51,192,51848,1,2,0:0:0:0:
153,192,52173,1,8,0:0:0:0:
51,192,52173,1,2,0:0:0:0:
51,192,52335,1,2,0:0:0:0:
153,192,52335,1,8,0:0:0:0:
153,192,52659,1,8,0:0:0:0:
51,192,52659,1,2,0:0:0:0:
153,192,52821,1,8,0:0:0:0:
256,192,52821,1,4,0:0:0:0:
51,192,52821,1,2,0:0:0:0:
256,192,54281,1,4,0:0:0:0:
51,192,54281,1,2,0:0:0:0:
460,192,54281,1,0,0:0:0:70:soft-hitnormal02.wav
51,192,54605,1,2,0:0:0:0:
460,192,54605,1,0,0:0:0:70:soft-hitnormal02.wav
153,192,54848,1,8,0:0:0:0:
51,192,54929,1,2,0:0:0:0:
460,192,54929,1,0,0:0:0:70:soft-hitnormal02.wav
51,192,55091,1,2,0:0:0:70:Drum.wav
153,192,55254,1,8,0:0:0:0:
460,192,55254,1,0,0:0:0:70:soft-hitnormal02.wav
51,192,55416,1,2,0:0:0:70:Drum.wav
51,192,55578,1,2,0:0:0:0:
460,192,55578,1,0,0:0:0:70:soft-hitnormal02.wav
153,192,55902,1,8,0:0:0:0:
460,192,55902,1,0,0:0:0:70:soft-hitnormal02.wav
51,192,56227,1,2,0:0:0:0:
460,192,56227,1,0,0:0:0:70:soft-hitnormal02.wav
51,192,56389,1,2,0:0:0:70:Drum.wav
153,192,56551,1,8,0:0:0:0:
460,192,56551,1,0,0:0:0:70:soft-hitnormal02.wav
51,192,56713,1,2,0:0:0:70:Drum.wav
51,192,56875,1,2,0:0:0:0:
460,192,56875,1,0,0:0:0:70:soft-hitnormal02.wav
153,192,57200,1,8,0:0:0:0:
460,192,57200,1,0,0:0:0:70:soft-hitnormal02.wav
153,192,57443,1,8,0:0:0:0:
460,192,57524,1,0,0:0:0:70:soft-hitnormal02.wav
51,192,57524,1,2,0:0:0:0:
51,192,57686,1,2,0:0:0:70:Drum.wav
460,192,57848,1,0,0:0:0:70:soft-hitnormal02.wav
153,192,57848,1,8,0:0:0:0:
51,192,58010,1,2,0:0:0:70:Drum.wav
460,192,58173,1,0,0:0:0:70:soft-hitnormal02.wav
51,192,58173,1,2,0:0:0:0:
460,192,58497,1,0,0:0:0:70:soft-hitnormal02.wav
153,192,58497,1,8,0:0:0:0:
460,192,58821,1,0,0:0:0:70:soft-hitnormal02.wav
51,192,58821,1,2,0:0:0:0:
51,192,58983,1,2,0:0:0:70:Drum.wav
153,192,59146,1,8,0:0:0:0:
256,192,59146,1,4,0:0:0:0:
256,192,59470,1,4,0:0:0:0:
51,192,59470,1,2,0:0:0:0:
460,192,59470,1,0,0:0:0:70:soft-hitnormal02.wav
460,192,59794,1,0,0:0:0:70:soft-hitnormal02.wav
153,192,59794,1,8,0:0:0:0:
460,192,60119,1,0,0:0:0:70:soft-hitnormal02.wav
51,192,60119,1,2,0:0:0:0:
51,192,60281,1,2,0:0:0:70:Drum.wav
460,192,60443,1,0,0:0:0:70:soft-hitnormal02.wav
153,192,60443,1,8,0:0:0:0:
460,192,60767,1,0,0:0:0:70:soft-hitnormal02.wav
51,192,60767,1,2,0:0:0:0:
460,192,61091,1,0,0:0:0:70:soft-hitnormal02.wav
153,192,61091,1,8,0:0:0:0:
460,192,61416,1,0,0:0:0:70:soft-hitnormal02.wav
51,192,61416,1,2,0:0:0:0:
51,192,61578,1,2,0:0:0:70:Drum.wav
460,192,61740,1,0,0:0:0:70:soft-hitnormal02.wav
153,192,61740,1,8,0:0:0:0:
51,192,61902,1,2,0:0:0:70:Drum.wav
460,192,62064,1,0,0:0:0:70:soft-hitnormal02.wav
51,192,62064,1,2,0:0:0:0:
460,192,62389,1,0,0:0:0:70:soft-hitnormal02.wav
153,192,62389,1,8,0:0:0:0:
460,192,62713,1,0,0:0:0:70:soft-hitnormal02.wav
51,192,62713,1,2,0:0:0:0:
51,192,62875,1,2,0:0:0:70:Drum.wav
460,192,63037,1,0,0:0:0:70:soft-hitnormal02.wav
153,192,63037,1,8,0:0:0:0:
460,192,63362,1,0,0:0:0:70:soft-hitnormal02.wav
51,192,63524,1,2,0:0:0:70:Drum.wav
460,192,63686,1,0,0:0:0:70:soft-hitnormal02.wav
153,192,63686,1,8,0:0:0:0:
51,192,63848,1,2,0:0:0:70:Drum.wav
460,192,64010,1,0,0:0:0:70:soft-hitnormal02.wav
153,192,64010,1,8,0:0:0:0:
153,192,64173,1,8,0:0:0:0:
153,192,64254,1,8,0:0:0:0:
153,192,64335,1,8,0:0:0:0:
51,192,64335,1,2,0:0:0:0:
153,192,64416,1,8,0:0:0:0:
153,192,64497,1,8,0:0:0:0:
153,192,64578,1,8,0:0:0:0:
51,192,64659,1,2,0:0:0:0:
256,192,64659,1,4,0:0:0:0:
51,192,64983,1,2,0:0:0:70:Kick.wav
51,192,65308,1,2,0:0:0:0:
51,192,65632,1,2,0:0:0:70:Kick.wav
51,192,65956,1,2,0:0:0:0:
51,192,66281,1,2,0:0:0:70:Kick.wav
51,192,66605,1,2,0:0:0:0:
51,192,66929,1,2,0:0:0:70:Kick.wav
51,192,67254,1,2,0:0:0:0:
51,192,67578,1,2,0:0:0:70:Kick.wav
51,192,67902,1,2,0:0:0:0:
51,192,68227,1,2,0:0:0:70:Kick.wav
51,192,68551,1,2,0:0:0:0:
51,192,68875,1,2,0:0:0:70:Kick.wav
51,192,69200,5,2,0:0:0:70:Kick.wav
51,192,69524,1,2,0:0:0:70:Kick.wav
51,192,69848,1,2,0:0:0:0:
256,192,69848,1,4,0:0:0:0:
358,192,70173,5,0,0:0:0:70:Hat.wav
153,192,70173,1,8,0:0:0:0:
358,192,70497,1,0,0:0:0:70:Hat.wav
51,192,70497,1,2,0:0:0:0:
358,192,70821,1,0,0:0:0:70:Hat.wav
153,192,70821,1,8,0:0:0:0:
256,192,71146,1,4,0:0:0:0:
51,192,71146,1,2,0:0:0:0:
358,192,71470,1,0,0:0:0:70:Hat.wav
153,192,71470,1,8,0:0:0:0:
358,192,71794,1,0,0:0:0:70:Hat.wav
51,192,71794,1,2,0:0:0:0:
358,192,72119,1,0,0:0:0:70:Hat.wav
153,192,72119,1,8,0:0:0:0:
256,192,72443,1,4,0:0:0:0:
153,192,72443,1,8,0:0:0:0:
358,192,72767,1,0,0:0:0:70:Hat.wav
153,192,72767,1,8,0:0:0:0:
358,192,73091,1,0,0:0:0:70:Hat.wav
51,192,73091,1,2,0:0:0:0:
358,192,73416,1,0,0:0:0:70:Hat.wav
153,192,73416,1,8,0:0:0:0:
51,192,73740,1,2,0:0:0:0:
153,192,73902,1,8,0:0:0:0:
256,192,73902,1,4,0:0:0:0:
51,192,74064,1,2,0:0:0:0:
51,192,74227,1,2,0:0:0:0:
153,192,74389,1,8,0:0:0:0:
256,192,74389,1,4,0:0:0:0:
153,192,74551,1,8,0:0:0:0:
153,192,74632,1,8,0:0:0:0:
153,192,74713,1,8,0:0:0:0:
51,192,74713,1,2,0:0:0:0:
256,192,75037,1,4,0:0:0:0:
51,192,75037,1,2,0:0:0:0:
51,192,75524,1,2,0:0:0:0:
153,192,75686,1,8,0:0:0:0:
256,192,75686,1,4,0:0:0:0:
153,192,75848,1,8,0:0:0:0:
153,192,75929,1,8,0:0:0:0:
153,192,76010,1,8,0:0:0:0:
51,192,76010,1,2,0:0:0:0:
153,192,76335,1,8,0:0:0:0:
256,192,76335,1,4,0:0:0:0:
256,192,76983,1,4,0:0:0:0:
153,192,77146,1,8,0:0:0:0:
51,192,77146,1,2,0:0:0:0:
153,192,77227,1,8,0:0:0:0:
153,192,77308,1,8,0:0:0:0:
51,192,77470,1,2,0:0:0:0:
153,192,77632,1,8,0:0:0:0:
51,192,77794,1,2,0:0:0:0:
51,192,77956,1,2,0:0:0:0:
153,192,78119,1,8,0:0:0:0:
256,192,78119,1,0,0:0:0:30:soft-hitfinish.wav
51,192,78281,1,2,0:0:0:0:
51,192,78443,1,2,0:0:0:0:
153,192,78605,1,8,0:0:0:0:
256,192,78605,1,0,0:0:0:40:soft-hitfinish.wav
51,192,78767,1,2,0:0:0:0:
153,192,78929,1,8,0:0:0:0:
51,192,79091,1,2,0:0:0:0:
51,192,79254,1,2,0:0:0:0:
153,192,79416,1,8,0:0:0:0:
256,192,79416,1,4,0:0:0:50:soft-hitfinish.wav
51,192,79578,1,2,0:0:0:0:
51,192,79740,1,2,0:0:0:0:
153,192,79902,1,8,0:0:0:0:
256,192,79902,1,4,0:0:0:0:
51,192,80064,1,2,0:0:0:0:
153,192,80227,1,8,0:0:0:0:
256,192,80227,1,4,0:0:0:50:soft-hitfinish.wav
51,192,80389,1,2,0:0:0:0:
51,192,80551,1,2,0:0:0:0:
153,192,80713,1,8,0:0:0:0:
256,192,80713,1,4,0:0:0:0:
51,192,80875,1,2,0:0:0:0:
51,192,81037,1,2,0:0:0:0:
153,192,81200,1,8,0:0:0:0:
256,192,81200,1,0,0:0:0:40:Drum Finish.wav
51,192,81362,1,2,0:0:0:0:
153,192,81524,1,8,0:0:0:0:
256,192,81524,1,4,0:0:0:40:soft-hitfinish.wav
51,192,81686,1,2,0:0:0:0:
51,192,81848,1,2,0:0:0:0:
153,192,82010,1,8,0:0:0:0:
256,192,82010,1,4,0:0:0:40:soft-hitfinish.wav
51,192,82173,1,2,0:0:0:0:
51,192,82335,1,2,0:0:0:0:
153,192,82497,1,8,0:0:0:0:
256,192,82497,1,4,0:0:0:40:Drum Finish.wav
51,192,82659,1,2,0:0:0:0:
153,192,82821,1,8,0:0:0:0:
256,192,82821,1,4,0:0:0:50:Drum Finish.wav
51,192,82983,1,2,0:0:0:0:
51,192,83146,1,2,0:0:0:0:
153,192,83308,1,8,0:0:0:0:
256,192,83308,1,4,0:0:0:0:
51,192,83470,1,2,0:0:0:0:
51,192,83632,1,2,0:0:0:0:
153,192,83794,1,8,0:0:0:0:
256,192,83794,1,4,0:0:0:40:Drum Finish.wav
51,192,83956,1,2,0:0:0:0:
153,192,84119,1,8,0:0:0:0:
51,192,84281,1,2,0:0:0:0:
153,192,84443,1,8,0:0:0:0:
256,192,84443,1,4,0:0:0:0:
51,192,84605,1,2,0:0:0:0:
153,192,84767,1,8,0:0:0:0:
256,192,84767,1,4,0:0:0:0:
358,192,84929,1,0,0:0:0:70:tom1.wav
358,192,85010,1,0,0:0:0:70:tom1.wav
358,192,85091,1,0,0:0:0:70:tom2.wav
153,192,85091,1,8,0:0:0:0:
358,192,85173,1,0,0:0:0:70:tom2.wav
358,192,85254,1,0,0:0:0:70:tom3.wav
358,192,85335,1,0,0:0:0:70:tom3.wav
153,192,85416,1,8,0:0:0:0:
256,192,85416,1,0,0:0:0:50:Drum Finish.wav
51,192,85578,1,2,0:0:0:0:
51,192,85740,1,2,0:0:0:0:
153,192,85902,1,8,0:0:0:0:
256,192,85902,1,0,0:0:0:40:soft-hitfinish.wav
51,192,86064,1,2,0:0:0:0:
51,192,86227,1,2,0:0:0:0:
153,192,86389,1,8,0:0:0:0:
256,192,86389,1,0,0:0:0:30:soft-hitfinish.wav
51,192,86551,1,2,0:0:0:0:
153,192,86713,1,8,0:0:0:0:
256,192,86713,1,4,0:0:0:50:soft-hitfinish.wav
51,192,86875,1,2,0:0:0:0:
51,192,87037,1,2,0:0:0:0:
153,192,87200,1,8,0:0:0:0:
256,192,87200,1,4,0:0:0:40:soft-hitfinish.wav
51,192,87362,1,2,0:0:0:0:
51,192,87524,1,2,0:0:0:0:
153,192,87686,1,8,0:0:0:0:
256,192,87686,1,4,0:0:0:60:soft-hitfinish.wav
51,192,87848,1,2,0:0:0:0:
153,192,88010,1,8,0:0:0:0:
256,192,88010,1,4,0:0:0:0:
51,192,88173,1,2,0:0:0:0:
51,192,88335,1,2,0:0:0:0:
153,192,88497,1,8,0:0:0:0:
256,192,88497,1,0,0:0:0:50:soft-hitfinish.wav
51,192,88659,1,2,0:0:0:0:
51,192,88821,1,2,0:0:0:0:
153,192,88983,1,8,0:0:0:0:
256,192,88983,1,4,0:0:0:0:
51,192,89146,1,2,0:0:0:0:
153,192,89308,1,8,0:0:0:0:
256,192,89308,1,4,0:0:0:50:soft-hitfinish.wav
51,192,89470,1,2,0:0:0:0:
51,192,89632,1,2,0:0:0:0:
153,192,89794,1,8,0:0:0:0:
256,192,89794,1,4,0:0:0:40:soft-hitfinish.wav
51,192,89956,1,2,0:0:0:0:
51,192,90119,1,2,0:0:0:0:
256,192,90281,1,0,0:0:0:30:soft-hitfinish.wav
153,192,90281,1,8,0:0:0:0:
51,192,90443,1,2,0:0:0:0:
153,192,90605,1,8,0:0:0:0:
256,192,90605,1,4,0:0:0:30:soft-hitfinish.wav
51,192,90767,1,2,0:0:0:0:
51,192,90929,1,2,0:0:0:0:
153,192,91091,1,8,0:0:0:0:
256,192,91091,1,4,0:0:0:0:
51,192,91254,1,2,0:0:0:0:
51,192,91416,1,2,0:0:0:0:
153,192,91578,1,8,0:0:0:0:
256,192,91578,1,4,0:0:0:30:soft-hitfinish.wav
51,192,91740,1,2,0:0:0:0:
153,192,91902,1,8,0:0:0:0:
256,192,91902,1,4,0:0:0:50:Drum Finish.wav
153,192,92064,1,8,0:0:0:0:
153,192,92146,1,8,0:0:0:0:
153,192,92227,1,8,0:0:0:0:
51,192,92227,1,2,0:0:0:0:
153,192,92389,1,8,0:0:0:0:
51,192,92389,1,2,0:0:0:0:
358,192,92551,1,0,0:0:0:70:tom4.wav
153,192,92551,1,8,0:0:0:0:
358,192,92713,1,0,0:0:0:70:tom3.wav
358,192,92875,1,0,0:0:0:70:tom2.wav
358,192,93037,1,0,0:0:0:70:tom1.wav
153,192,93037,1,8,0:0:0:0:
153,192,93200,1,8,0:0:0:0:
256,192,93200,1,4,0:0:0:0:
51,192,93524,1,2,0:0:0:0:
460,192,93524,1,0,0:0:0:70:soft-hitnormal02.wav
51,192,93686,1,2,0:0:0:0:
256,192,93848,1,4,0:0:0:0:
153,192,93848,1,8,0:0:0:0:
51,192,94173,1,2,0:0:0:0:
460,192,94173,1,0,0:0:0:70:soft-hitnormal02.wav
153,192,94335,1,8,0:0:0:0:
51,192,94497,1,2,0:0:0:0:
460,192,94497,1,0,0:0:0:70:soft-hitnormal02.wav
153,192,94659,1,8,0:0:0:0:
51,192,94821,1,2,0:0:0:0:
256,192,94821,1,4,0:0:0:0:
51,192,94983,1,2,0:0:0:0:
153,192,95146,1,8,0:0:0:0:
256,192,95146,1,4,0:0:0:50:Drum Finish.wav
51,192,95308,1,2,0:0:0:0:
153,192,95470,1,8,0:0:0:0:
51,192,95632,1,2,0:0:0:0:
153,192,95794,1,8,0:0:0:0:
256,192,95794,1,4,0:0:0:0:
