osu file format v14

[General]
AudioFilename: audio.mp3
AudioLeadIn: 0
PreviewTime: 54251
Countdown: 0
SampleSet: Normal
StackLeniency: 0.7
Mode: 1
LetterboxInBreaks: 0
WidescreenStoryboard: 1

[Editor]
Bookmarks: 6458,11944,17430,22915,28401,39373
DistanceSpacing: 1.3
BeatDivisor: 4
GridSize: 32
TimelineZoom: 2.3

[Metadata]
Title:Utaeba Soko ni Kimi ga Iru kara (TV Size)
TitleUnicode:歌えばそこに君がいるから (TV Size)
Artist:Suzuki Konomi
ArtistUnicode:鈴木このみ
Creator:-Flashlight-
Version:Futsuu
Source:LOST SONG
Tags:anime opening op japanese j-pop jpop pop Shake Up! 白戸佑輔 shirato yusuke
BeatmapID:4016504
BeatmapSetID:1941738

[Difficulty]
HPDrainRate:8
CircleSize:5
OverallDifficulty:3
ApproachRate:5
SliderMultiplier:1.4
SliderTickRate:1

[Events]
//Background and Video events
0,0,"bg.jpg",0,120
//Break Periods
//Storyboard Layer 0 (Background)
//Storyboard Layer 1 (Fail)
//Storyboard Layer 2 (Pass)
//Storyboard Layer 3 (Foreground)
//Storyboard Layer 4 (Overlay)
//Storyboard Sound Samples

[TimingPoints]
343,342.857142857143,4,1,0,60,1,0
5785,-100,4,1,0,90,0,0
16971,-100,4,1,0,70,0,0
22243,-100,4,1,0,80,0,0
27728,-100,4,1,0,90,0,0
38700,-100,4,1,0,80,0,0
49671,-100,4,1,0,90,0,0
55157,-100,4,1,0,100,0,0
55200,-100,4,1,0,100,0,1
76800,-100,4,1,0,100,0,0
77143,-100,4,1,0,100,0,1
82628,-100,4,1,0,100,0,0
82757,-100,4,1,0,60,0,0

[HitObjects]
256,192,343,5,8,0:0:0:0:
256,192,685,1,0,0:0:0:0:
256,192,857,1,8,0:0:0:0:
256,192,1200,1,0,0:0:0:0:
256,192,1371,1,8,0:0:0:0:
256,192,1543,1,0,0:0:0:0:
256,192,1714,1,0,0:0:0:0:
256,192,1885,1,8,0:0:0:0:
256,192,2228,1,8,0:0:0:0:
256,192,2400,1,8,0:0:0:0:
256,192,2743,1,0,0:0:0:0:
256,192,2914,1,8,0:0:0:0:
256,192,3085,1,0,0:0:0:0:
256,192,4457,1,8,0:0:0:0:
256,192,5143,1,0,0:0:0:0:
256,192,5314,1,0,0:0:0:0:
256,192,5485,1,8,0:0:0:0:
256,192,5828,1,4,0:0:0:0:
256,192,6171,1,8,0:0:0:0:
256,192,6514,1,0,0:0:0:0:
256,192,6685,1,0,0:0:0:0:
256,192,6857,1,8,0:0:0:0:
256,192,7200,1,0,0:0:0:0:
256,192,7371,1,0,0:0:0:0:
256,192,7543,1,8,0:0:0:0:
256,192,7714,1,0,0:0:0:0:
256,192,7885,1,0,0:0:0:0:
256,192,8228,1,8,0:0:0:0:
256,192,8571,1,8,0:0:0:0:
256,192,8743,1,0,0:0:0:0:
256,192,8914,1,8,0:0:0:0:
256,192,9085,1,8,0:0:0:0:
256,192,9257,1,0,0:0:0:0:
256,192,9600,1,8,0:0:0:0:
256,192,9943,1,0,0:0:0:0:
256,192,10285,1,0,0:0:0:0:
256,192,10457,1,8,0:0:0:0:
256,192,10628,1,8,0:0:0:0:
256,192,11314,1,12,0:0:0:0:
256,192,11657,1,0,0:0:0:0:
256,192,12000,1,8,0:0:0:0:
256,192,12171,1,0,0:0:0:0:
256,192,12343,1,8,0:0:0:0:
256,192,12685,1,0,0:0:0:0:
256,192,13028,1,8,0:0:0:0:
256,192,13200,1,0,0:0:0:0:
256,192,13371,1,8,0:0:0:0:
256,192,13543,1,8,0:0:0:0:
256,192,13714,1,0,0:0:0:0:
256,192,14057,1,12,0:0:0:0:
256,192,14400,1,0,0:0:0:0:
256,192,14571,1,12,0:0:0:0:
256,192,14914,1,0,0:0:0:0:
256,192,15085,1,8,0:0:0:0:
256,192,15428,1,8,0:0:0:0:
256,192,15600,1,8,0:0:0:0:
256,192,15771,1,0,0:0:0:0:
256,192,16114,1,8,0:0:0:0:
256,192,16285,1,8,0:0:0:0:
256,192,16457,1,8,0:0:0:0:
256,192,16800,1,4,0:0:0:0:
256,192,17828,1,0,0:0:0:0:
256,192,18171,1,8,0:0:0:0:
256,192,18514,1,0,0:0:0:0:
256,192,18857,1,8,0:0:0:0:
256,192,19200,1,0,0:0:0:0:
256,192,19543,1,8,0:0:0:0:
256,192,20057,1,0,0:0:0:0:
256,192,20571,1,8,0:0:0:0:
256,192,21085,1,0,0:0:0:0:
256,192,21257,1,8,0:0:0:0:
256,192,21428,1,0,0:0:0:0:
256,192,21600,1,8,0:0:0:0:
256,192,22285,1,12,0:0:0:0:
256,192,22628,1,8,0:0:0:0:
256,192,22971,1,0,0:0:0:0:
256,192,23314,1,0,0:0:0:0:
256,192,23485,1,0,0:0:0:0:
256,192,23657,1,8,0:0:0:0:
256,192,24000,1,0,0:0:0:0:
256,192,24343,1,8,0:0:0:0:
256,192,24514,1,8,0:0:0:0:
256,192,24685,1,0,0:0:0:0:
256,192,25028,1,0,0:0:0:0:
256,192,25371,1,8,0:0:0:0:
256,192,25543,1,0,0:0:0:0:
256,192,25714,1,8,0:0:0:0:
256,192,26057,1,0,0:0:0:0:
256,192,26228,1,12,0:0:0:0:
256,192,26571,1,0,0:0:0:0:
256,192,26743,1,8,0:0:0:0:
256,192,26914,1,8,0:0:0:0:
256,192,27085,1,0,0:0:0:0:
256,192,27771,1,12,0:0:0:0:
256,192,28114,1,8,0:0:0:0:
256,192,28457,1,0,0:0:0:0:
256,192,28800,1,0,0:0:0:0:
256,192,28971,1,0,0:0:0:0:
256,192,29143,1,8,0:0:0:0:
256,192,29485,1,0,0:0:0:0:
256,192,29828,1,8,0:0:0:0:
256,192,30000,1,0,0:0:0:0:
256,192,30171,1,8,0:0:0:0:
256,192,30514,1,0,0:0:0:0:
256,192,30857,1,0,0:0:0:0:
256,192,31028,1,8,0:0:0:0:
256,192,31371,1,8,0:0:0:0:
256,192,31543,1,0,0:0:0:0:
256,192,32228,1,8,0:0:0:0:
256,192,32571,1,0,0:0:0:0:
256,192,32743,1,0,0:0:0:0:
256,192,32914,1,8,0:0:0:0:
256,192,33257,1,0,0:0:0:0:
256,192,33600,1,0,0:0:0:0:
256,192,33771,1,8,0:0:0:0:
256,192,33943,1,8,0:0:0:0:
256,192,34285,1,8,0:0:0:0:
256,192,34457,1,0,0:0:0:0:
256,192,34800,1,0,0:0:0:0:
256,192,34971,1,8,0:0:0:0:
256,192,35314,1,0,0:0:0:0:
256,192,35485,1,0,0:0:0:0:
256,192,35657,1,8,0:0:0:0:
256,192,36000,1,0,0:0:0:0:
256,192,36343,1,0,0:0:0:0:
256,192,36514,1,8,0:0:0:0:
256,192,36685,1,0,0:0:0:0:
256,192,37028,1,8,0:0:0:0:
256,192,37200,1,0,0:0:0:0:
256,192,37371,1,0,0:0:0:0:
256,192,37543,1,12,0:0:0:0:
256,192,38057,1,12,0:0:0:0:
256,192,38743,1,12,0:0:0:0:
256,192,39085,1,8,0:0:0:0:
256,192,39257,1,8,0:0:0:0:
256,192,39600,1,0,0:0:0:0:
256,192,39943,1,8,0:0:0:0:
256,192,40285,1,0,0:0:0:0:
256,192,40628,1,8,0:0:0:0:
256,192,40971,1,8,0:0:0:0:
256,192,41314,1,0,0:0:0:0:
256,192,41657,1,8,0:0:0:0:
256,192,41828,1,0,0:0:0:0:
256,192,42171,1,8,0:0:0:0:
256,192,42514,1,8,0:0:0:0:
256,192,42685,1,8,0:0:0:0:
256,192,43028,1,0,0:0:0:0:
256,192,43371,1,0,0:0:0:0:
256,192,44228,1,12,0:0:0:0:
256,192,44571,1,8,0:0:0:0:
256,192,44743,1,8,0:0:0:0:
256,192,45085,1,8,0:0:0:0:
256,192,45428,1,0,0:0:0:0:
256,192,45771,1,0,0:0:0:0:
256,192,46114,1,8,0:0:0:0:
256,192,46457,1,8,0:0:0:0:
256,192,46628,1,0,0:0:0:0:
256,192,46800,1,8,0:0:0:0:
256,192,47143,1,8,0:0:0:0:
256,192,47314,1,0,0:0:0:0:
256,192,47657,1,8,0:0:0:0:
256,192,48000,1,0,0:0:0:0:
256,192,48171,1,12,0:0:0:0:
256,192,48514,1,8,0:0:0:0:
256,192,48857,1,0,0:0:0:0:
256,192,49714,1,12,0:0:0:0:
256,192,50057,1,8,0:0:0:0:
256,192,50400,1,8,0:0:0:0:
256,192,50571,1,0,0:0:0:0:
256,192,50743,1,0,0:0:0:0:
256,192,50914,1,8,0:0:0:0:
256,192,51257,1,8,0:0:0:0:
256,192,51428,1,8,0:0:0:0:
256,192,51771,1,0,0:0:0:0:
256,192,52114,1,8,0:0:0:0:
256,192,52285,1,0,0:0:0:0:
256,192,52457,1,12,0:0:0:0:
256,192,52800,1,0,0:0:0:0:
256,192,52971,1,12,0:0:0:0:
256,192,53314,1,0,0:0:0:0:
256,192,53485,1,12,0:0:0:0:
256,192,54343,1,0,0:0:0:0:
256,192,54514,1,8,0:0:0:0:
256,192,54857,1,8,0:0:0:0:
256,192,55028,1,0,0:0:0:0:
256,192,55200,1,12,0:0:0:0:
256,192,55543,1,0,0:0:0:0:
256,192,55714,1,8,0:0:0:0:
256,192,55885,1,8,0:0:0:0:
256,192,56228,1,0,0:0:0:0:
256,192,56400,1,0,0:0:0:0:
256,192,56571,1,8,0:0:0:0:
256,192,56914,1,0,0:0:0:0:
256,192,57257,1,8,0:0:0:0:
256,192,57428,1,0,0:0:0:0:
256,192,57600,1,0,0:0:0:0:
256,192,57943,1,8,0:0:0:0:
256,192,58285,1,8,0:0:0:0:
256,192,58457,1,0,0:0:0:0:
256,192,58628,1,8,0:0:0:0:
256,192,58971,1,8,0:0:0:0:
256,192,59143,1,0,0:0:0:0:
256,192,59314,1,8,0:0:0:0:
256,192,59485,1,0,0:0:0:0:
256,192,59657,1,8,0:0:0:0:
256,192,60000,1,0,0:0:0:0:
256,192,60685,1,12,0:0:0:0:
256,192,61028,1,0,0:0:0:0:
256,192,61200,1,8,0:0:0:0:
256,192,61371,1,0,0:0:0:0:
256,192,61714,1,0,0:0:0:0:
256,192,61885,1,8,0:0:0:0:
256,192,62057,1,8,0:0:0:0:
256,192,62400,1,0,0:0:0:0:
256,192,62743,1,8,0:0:0:0:
256,192,62914,1,0,0:0:0:0:
256,192,63085,1,0,0:0:0:0:
256,192,63428,1,8,0:0:0:0:
256,192,63771,1,0,0:0:0:0:
256,192,63943,1,8,0:0:0:0:
256,192,64114,1,8,0:0:0:0:
256,192,64285,1,0,0:0:0:0:
256,192,64628,1,12,0:0:0:0:
256,192,65314,1,0,0:0:0:0:
256,192,65485,1,8,0:0:0:0:
256,192,65657,1,8,0:0:0:0:
256,192,65828,1,0,0:0:0:0:
256,192,66171,1,12,0:0:0:0:
256,192,66514,1,0,0:0:0:0:
256,192,66685,1,8,0:0:0:0:
256,192,66857,1,8,0:0:0:0:
256,192,67200,1,8,0:0:0:0:
256,192,67371,1,0,0:0:0:0:
256,192,67885,1,8,0:0:0:0:
256,192,68228,1,8,0:0:0:0:
256,192,68400,1,0,0:0:0:0:
256,192,68571,1,0,0:0:0:0:
256,192,68743,1,8,0:0:0:0:
256,192,69257,1,8,0:0:0:0:
256,192,69428,1,8,0:0:0:0:
256,192,69771,1,8,0:0:0:0:
256,192,69943,1,8,0:0:0:0:
256,192,70114,1,0,0:0:0:0:
256,192,70457,1,8,0:0:0:0:
256,192,70628,1,8,0:0:0:0:
256,192,70971,1,0,0:0:0:0:
256,192,71657,1,8,0:0:0:0:
256,192,72000,1,0,0:0:0:0:
256,192,72343,1,8,0:0:0:0:
256,192,72685,1,8,0:0:0:0:
256,192,72857,1,0,0:0:0:0:
256,192,73028,1,0,0:0:0:0:
256,192,73371,1,0,0:0:0:0:
256,192,73714,1,8,0:0:0:0:
256,192,74057,1,0,0:0:0:0:
256,192,74228,1,8,0:0:0:0:
256,192,74400,1,8,0:0:0:0:
256,192,74743,1,8,0:0:0:0:
256,192,74914,1,0,0:0:0:0:
256,192,75085,1,0,0:0:0:0:
256,192,75428,1,8,0:0:0:0:
256,192,75771,1,8,0:0:0:0:
256,192,75943,1,0,0:0:0:0:
256,192,76114,1,8,0:0:0:0:
256,192,76457,1,0,0:0:0:0:
256,192,77143,1,12,0:0:0:0:
256,192,77485,1,8,0:0:0:0:
256,192,77657,1,0,0:0:0:0:
256,192,77828,1,8,0:0:0:0:
256,192,78000,1,0,0:0:0:0:
256,192,78171,1,8,0:0:0:0:
256,192,78514,1,8,0:0:0:0:
256,192,78857,1,8,0:0:0:0:
256,192,79028,1,0,0:0:0:0:
256,192,79200,1,8,0:0:0:0:
256,192,79371,1,8,0:0:0:0:
256,192,79543,1,0,0:0:0:0:
256,192,79885,1,8,0:0:0:0:
256,192,80228,1,8,0:0:0:0:
256,192,80400,1,0,0:0:0:0:
256,192,80571,1,8,0:0:0:0:
256,192,80914,1,0,0:0:0:0:
256,192,81085,1,12,0:0:0:0:
256,192,81428,1,8,0:0:0:0:
256,192,81600,1,8,0:0:0:0:
256,192,81771,1,0,0:0:0:0:
256,192,81943,1,0,0:0:0:0:
256,192,82628,1,4,0:0:0:0:
256,192,82971,1,8,0:0:0:0:
256,192,83143,1,0,0:0:0:0:
256,192,83314,1,8,0:0:0:0:
256,192,83657,1,0,0:0:0:0:
256,192,84000,1,8,0:0:0:0:
256,192,84171,1,0,0:0:0:0:
256,192,84343,1,0,0:0:0:0:
256,192,84685,1,8,0:0:0:0:
256,192,84857,1,8,0:0:0:0:
256,192,85028,1,0,0:0:0:0:
256,192,85371,1,8,0:0:0:0:
256,192,85714,1,0,0:0:0:0:
256,192,85885,1,0,0:0:0:0:
256,192,86057,1,8,0:0:0:0:
256,192,86400,1,0,0:0:0:0:
256,192,86743,1,8,0:0:0:0:
256,192,86914,1,0,0:0:0:0:
256,192,87085,1,0,0:0:0:0:
256,192,87428,1,8,0:0:0:0:
256,192,87600,1,8,0:0:0:0:
256,192,87771,1,0,0:0:0:0:
256,192,87943,1,0,0:0:0:0:
