osu file format v14

[General]
AudioFilename: audio.mp3
AudioLeadIn: 0
PreviewTime: 54887
Countdown: 0
SampleSet: Soft
StackLeniency: 0.7
Mode: 0
LetterboxInBreaks: 0
WidescreenStoryboard: 1

[Editor]
Bookmarks: 22915,50344,66801
DistanceSpacing: 1.3
BeatDivisor: 4
GridSize: 4
TimelineZoom: 1.6

[Metadata]
Title:Utaeba Soko ni Kimi ga Iru kara (TV Size)
TitleUnicode:歌えばそこに君がいるから (TV Size)
Artist:Suzuki Konomi
ArtistUnicode:鈴木このみ
Creator:Kyle73
Version:Sidetail73's Normal
Source:LOST SONG
Tags:Kibbleru ImpurePug cococolaco loli catgirl Sidetail BetaStar Yoshimaro LeeSinOrAfk Gaia
BeatmapID:1688334
BeatmapSetID:804290

[Difficulty]
HPDrainRate:4
CircleSize:3
OverallDifficulty:4
ApproachRate:6
SliderMultiplier:1
SliderTickRate:1

[Events]
//Background and Video events
0,0,"kyle73isalolicon.jpg",0,0
//Break Periods
//Storyboard Layer 0 (Background)
//Storyboard Layer 1 (Fail)
//Storyboard Layer 2 (Pass)
//Storyboard Layer 3 (Foreground)
//Storyboard Sound Samples

[TimingPoints]
973,342.857142857143,4,2,2,37,1,0
994,-100,4,2,1,37,0,0
1144,-100,4,2,3,37,0,0
1165,-100,4,2,1,37,0,0
1315,-100,4,2,4,37,0,0
1487,-100,4,2,5,37,0,0
1658,-100,4,2,6,37,0,0
1680,-100,4,2,1,37,0,0
1830,-100,4,2,3,37,0,0
1851,-100,4,2,1,37,0,0
2001,-100,4,2,7,37,0,0
2344,-100,4,2,9,37,0,0
2365,-100,4,2,1,37,0,0
2515,-100,4,2,6,37,0,0
2537,-100,4,2,1,37,0,0
2687,-100,4,2,8,37,0,0
2858,-100,4,2,7,37,0,0
3030,-100,4,2,6,37,0,0
3051,-100,4,2,1,37,0,0
3201,-100,4,2,10,37,0,0
3223,-100,4,2,1,37,0,0
3373,-100,4,2,11,37,0,0
3715,-100,4,2,12,37,0,0
5087,-100,4,2,13,37,0,0
6115,-80,4,2,1,70,0,0
17430,-100,4,2,16,70,0,0
17515,-100,4,2,1,30,0,0
18801,-100,4,2,4,45,0,0
18823,-100,4,2,1,30,0,0
20173,-100,4,2,14,45,0,0
20258,-100,4,2,1,30,0,0
21544,-100,4,2,3,45,0,0
21715,-100,4,2,15,45,0,0
22915,-100,4,2,1,45,0,0
27373,-100,4,2,15,45,0,0
27715,-100,4,2,1,50,0,0
38687,-100,4,2,15,50,0,0
39030,-100,4,2,1,50,0,0
39373,-100,4,2,15,70,0,0
39544,-100,4,2,1,70,0,0
48801,-100,4,2,15,70,0,0
49144,-100,4,2,1,70,0,0
54973,-100,4,2,1,37,0,0
55830,-80,4,2,1,73,0,1
81715,-80,4,2,1,73,0,1
81887,-80,4,2,15,73,0,1
82058,-80,4,2,1,73,0,1
83258,-80,4,2,4,73,0,1
83430,-80,4,2,4,37,0,0
84630,-80,4,2,6,37,0,0

[Colours]
Combo1 : 206,154,228
Combo2 : 122,182,226
Combo3 : 204,104,114
Combo4 : 245,193,122

[HitObjects]
283,128,972,6,0,L|328:87,2,50,2|2|2,0:0|0:0|0:0,0:0:0:0:
284,179,1487,1,2,0:0:0:0:
251,216,1658,2,0,L|296:256,2,50,2|2|2,0:0|0:0|0:0,0:0:0:0:
155,188,2344,6,0,L|110:229,2,50,2|2|2,0:0|0:0|0:0,0:0:0:0:
154,137,2859,1,2,0:0:0:0:
187,100,3030,2,0,L|142:60,2,50,2|2|2,0:0|0:0|0:0,0:0:0:0:
256,192,3715,12,2,5087,0:0:0:0:
436,188,6115,5,14,0:0:0:0:
320,232,6458,6,0,P|260:248|180:224,1,125,6|8,1:2|0:0,0:0:0:0:
88,180,7144,2,0,P|76:208|74:241,1,62.5,2|0,1:2|1:2,0:0:0:0:
92,300,7486,1,8,0:0:0:0:
199,235,7830,2,0,P|213:161|199:103,1,125,2|8,1:2|0:0,0:0:0:0:
120,20,8515,2,0,L|208:20,1,62.5,2|0,1:2|1:2,0:0:0:0:
244,20,8858,1,8,0:0:0:0:
368,20,9201,6,0,P|384:64|360:156,1,125,2|8,1:2|0:0,0:0:0:0:
244,144,9887,2,0,P|240:114|248:75,1,62.5,2|0,1:2|1:2,0:0:0:0:
244,20,10230,1,8,0:0:0:0:
368,20,10573,2,0,B|404:84|364:152|364:152|324:224|392:296|504:256|476:160,1,375,2|10,0:0|0:0,0:0:0:0:
504,312,11944,6,0,P|476:328|436:336,1,62.5,14|0,1:2|3:0,0:0:0:0:
384,336,12287,1,0,3:0:0:0:
280,264,12630,2,0,P|260:200|280:120,1,125,0|10,1:2|0:0,0:0:0:0:
184,52,13315,2,0,P|252:28|372:68,2,187.5,2|2|0,1:2|0:0|3:0,0:0:0:0:
84,128,14687,6,0,P|64:188|68:248,1,125,12|2,0:0|1:2,0:0:0:0:
68,312,15201,2,0,P|129:307|188:327,1,125,8|2,0:0|1:2,0:0:0:0:
252,340,15715,1,10,0:0:0:0:
296,224,16058,2,0,P|316:166|312:104,1,125,0|2,3:0|3:0,0:0:0:0:
432,140,16744,2,0,L|452:198,1,62.5,10|10,0:0|0:0,0:0:0:0:
403,237,17087,2,0,L|382:295,1,62.5,10|10,0:0|0:0,0:0:0:0:
336,316,17430,5,14,0:0:0:0:
336,316,18458,1,0,0:0:0:0:
240,348,18801,2,0,P|196:360|132:340,1,100,2|0,0:0|0:0,0:0:0:0:
192,260,19487,2,0,P|203:211|192:163,1,100,0|0,0:0|0:0,0:0:0:0:
104,212,20172,5,2,0:0:0:0:
48,72,20687,1,0,0:0:0:0:
196,64,21201,1,0,0:0:0:0:
192,164,21544,1,2,0:0:0:0:
192,212,21715,2,0,P|180:260|192:308,1,100,0|0,0:0|0:0,0:0:0:0:
220,343,22230,2,0,P|294:343|367:360,1,150,6|0,0:0|0:0,0:0:0:0:
402,324,22915,6,0,P|410:276|394:212,1,100,6|0,1:2|1:2,0:0:0:0:
305,191,23601,2,0,P|297:143|313:79,1,100,0|2,1:2|1:2,0:0:0:0:
208,68,24287,2,0,P|158:70|108:75,1,100,2|0,1:2|1:2,0:0:0:0:
20,120,24973,1,0,1:2:0:0:
100,180,25315,2,0,P|100:204|98:229,1,50,2|0,1:2|0:0,0:0:0:0:
80,276,25658,6,0,L|178:292,1,100,2|0,1:2|1:2,0:0:0:0:
272,332,26344,2,0,L|328:316,1,50,0|0,1:2|0:0,0:0:0:0:
368,300,26687,1,2,1:2:0:0:
368,300,26858,2,0,B|404:256|404:256|379:166,1,150,8|4,0:0|1:2,0:0:0:0:
400,68,27715,1,8,1:2:0:0:
400,68,27887,2,0,P|350:70|308:96,1,100,8|8,0:0|0:0,0:0:0:0:
264,120,28401,6,0,P|214:117|172:91,1,100,12|8,1:2|0:0,0:0:0:0:
96,28,29087,2,0,P|85:50|76:73,1,50,0|0,1:2|1:2,0:0:0:0:
56,120,29430,1,8,0:0:0:0:
8,208,29773,2,0,P|26:254|47:299,1,100,0|8,1:2|0:0,0:0:0:0:
128,360,30458,2,0,L|145:313,1,50,0|0,1:2|1:2,0:0:0:0:
168,268,30801,1,8,0:0:0:0:
196,171,31144,6,0,P|240:192|263:236,1,100,0|8,1:2|0:0,0:0:0:0:
348,288,31830,2,0,P|365:269|376:247,1,50,0|0,1:2|1:2,0:0:0:0:
396,200,32173,1,8,0:0:0:0:
423,104,32515,2,0,P|374:99|324:96,1,100,0|8,1:2|0:0,0:0:0:0:
236,48,33201,2,0,P|211:50|186:51,1,50,0|0,1:2|1:2,0:0:0:0:
140,72,33544,2,0,P|115:69|90:68,1,50,8|0,0:0|0:0,0:0:0:0:
44,88,33887,6,0,B|20:120|20:120|31:178,1,100,0|8,1:2|0:0,0:0:0:0:
108,244,34573,2,0,L|98:293,1,50,0|0,1:2|1:2,0:0:0:0:
116,340,34915,1,8,0:0:0:0:
208,304,35258,2,0,L|307:307,1,100,0|8,1:2|0:0,0:0:0:0:
340,212,35944,2,0,L|290:210,1,50,0|0,1:2|1:2,0:0:0:0:
252,176,36287,1,8,0:0:0:0:
327,108,36630,6,0,P|377:112|419:139,1,100,0|8,1:2|0:0,0:0:0:0:
472,223,37315,2,0,P|465:248|461:272,1,50,0|0,1:2|1:2,0:0:0:0:
460,324,37658,1,8,0:0:0:0:
368,284,38001,1,0,1:2:0:0:
368,284,38173,2,0,L|318:284,1,50,12|0,0:0|1:0,0:0:0:0:
275,311,38515,1,0,1:2:0:0:
275,311,38687,2,0,P|261:291|252:268,1,50,12|2,0:0|1:2,0:0:0:0:
268,220,39030,1,8,0:0:0:0:
199,152,39373,6,0,P|154:172|105:172,1,100,4|0,1:2|1:2,0:0:0:0:
80,76,40058,2,0,P|125:55|174:55,1,100,2|0,1:2|1:2,0:0:0:0:
272,80,40744,2,0,L|372:92,1,100,2|0,1:2|1:2,0:0:0:0:
412,184,41430,2,0,L|362:190,1,50,2|10,1:2|0:0,0:0:0:0:
312,192,41773,1,0,1:2:0:0:
214,223,42115,6,0,P|220:272|248:312,1,100,2|0,1:2|1:2,0:0:0:0:
347,282,42801,2,0,P|340:232|312:192,1,100,2|0,1:2|1:2,0:0:0:0:
328,144,43315,1,2,0:0:0:0:
244,92,43658,1,0,0:0:0:0:
165,153,44001,1,2,0:0:0:0:
123,62,44344,1,2,0:0:0:0:
123,62,44515,2,0,L|73:62,1,50,10|8,0:0|0:0,0:0:0:0:
50,107,44858,6,0,P|29:153|28:203,1,100,6|0,1:2|1:2,0:0:0:0:
120,244,45544,2,0,P|124:292|98:339,1,100,2|0,1:2|1:2,0:0:0:0:
200,352,46230,2,0,P|249:348|299:344,1,100,2|0,0:0|1:2,0:0:0:0:
348,256,46915,2,0,P|323:254|298:252,1,50,2|10,1:2|0:0,0:0:0:0:
260,220,47258,1,2,1:2:0:0:
161,215,47601,6,0,P|153:165|163:117,1,100,2|0,1:2|1:2,0:0:0:0:
263,122,48287,2,0,P|270:171|260:219,1,100,2|2,1:2|1:2,0:0:0:0:
298,252,48801,1,12,0:0:0:0:
388,296,49144,1,10,0:0:0:0:
308,356,49487,1,10,0:0:0:0:
216,316,49830,1,10,0:0:0:0:
216,316,50001,2,0,L|166:313,1,50,8|8,0:0|0:0,0:0:0:0:
116,306,50344,6,0,B|72:292|32:320|32:320|-10:226|36:114,1,300,14|10,1:2|1:2,0:0:0:0:
80,90,51544,2,0,B|44:71|44:71|94:35|152:76|152:76|214:42|256:80|256:80|227:91,1,300,2|0,3:2|3:0,0:0:0:0:
177,180,52915,1,2,3:2:0:0:
177,180,53087,6,0,P|165:228|185:284,1,100,14|0,0:0|1:2,0:0:0:0:
225,292,53601,2,0,P|273:280|329:300,1,100,8|0,0:0|1:2,0:0:0:0:
364,320,54115,2,0,P|319:289|430:288,1,300,12|0,0:0|0:0,0:0:0:0:
437,266,55830,6,0,P|449:212|433:140,1,125,6|8,1:2|0:0,0:0:0:0:
360,48,56515,2,0,L|228:36,1,125,2|8,1:2|0:0,0:0:0:0:
188,80,57030,1,2,0:0:0:0:
188,80,57201,2,0,L|180:156,1,62.5,2|0,1:2|0:0,0:0:0:0:
228,184,57544,1,8,0:0:0:0:
320,268,57887,2,0,L|244:284,1,62.5,2|0,1:2|0:0,0:0:0:0:
256,344,58230,2,0,L|180:328,1,62.5,10|0,0:0|0:0,0:0:0:0:
132,340,58573,6,0,P|140:284|124:200,1,125,2|8,1:2|0:0,0:0:0:0:
96,164,59087,1,2,0:0:0:0:
92,100,59258,2,0,P|148:112|224:96,1,125,2|10,1:2|0:0,0:0:0:0:
337,75,59944,1,2,1:2:0:0:
272,182,60287,1,10,0:0:0:0:
377,249,60630,1,10,1:2:0:0:
312,356,60973,1,8,0:0:0:0:
188,360,61315,6,0,P|160:308|172:228,1,125,14|8,1:2|0:0,0:0:0:0:
200,192,61830,1,2,0:0:0:0:
184,132,62001,2,0,P|128:151|51:127,1,125,2|8,1:2|0:0,0:0:0:0:
4,124,62515,1,2,0:0:0:0:
4,188,62687,2,0,L|44:328,1,125,2|8,1:2|0:0,0:0:0:0:
164,312,63373,2,0,L|186:236,1,62.5,2|0,1:2|0:0,0:0:0:0:
220,204,63715,2,0,L|198:128,1,62.5,10|0,0:0|0:0,0:0:0:0:
228,88,64058,6,0,P|300:68|360:96,1,125,2|8,1:2|0:0,0:0:0:0:
404,104,64573,1,2,1:2:0:0:
464,88,64744,2,0,P|452:152|476:220,1,125,2|8,1:2|0:0,0:0:0:0:
504,260,65258,2,0,P|436:252|372:272,1,125,4|0,1:2|1:2,0:0:0:0:
328,300,65773,1,8,0:0:0:0:
332,180,66115,2,0,P|352:112|336:44,1,125,2|10,3:0|0:0,0:0:0:0:
284,36,66630,1,10,0:0:0:0:
224,52,66801,6,0,P|162:59|102:42,1,125,14|8,1:2|0:0,0:0:0:0:
4,120,67487,2,0,L|15:181,1,62.5,2|0,1:2|0:0,0:0:0:0:
20,244,67830,1,10,0:0:0:0:
80,260,68001,2,0,P|142:253|202:270,1,125,2|0,0:0|0:0,0:0:0:0:
248,312,68515,1,8,0:0:0:0:
368,276,68858,2,0,L|356:214,1,62.5,2|2,1:2|0:0,0:0:0:0:
380,156,69201,1,10,0:0:0:0:
344,108,69373,6,0,L|208:96,1,125,2|0,0:0|0:0,0:0:0:0:
164,128,69887,1,10,0:0:0:0:
56,64,70230,2,0,P|54:95|44:124,1,62.5,0|2,1:2|0:0,0:0:0:0:
24,184,70573,2,0,P|26:215|36:244,1,62.5,8|2,0:0|0:0,0:0:0:0:
88,280,70915,2,0,B|132:268|132:268|208:288,1,125,0|10,1:2|0:0,0:0:0:0:
328,328,71601,2,0,L|386:307,1,62.5,0|0,1:2|0:0,0:0:0:0:
428,260,71944,2,0,L|369:239,1,62.5,10|0,0:0|0:0,0:0:0:0:
323,195,72287,6,0,P|298:139|309:79,1,125,2|8,1:2|0:0,0:0:0:0:
190,40,72973,2,0,L|131:60,1,62.5,2|0,1:2|0:0,0:0:0:0:
90,108,73316,2,0,L|148:128,1,62.5,8|2,0:0|0:0,0:0:0:0:
194,172,73659,2,0,P|219:228|208:288,1,125,2|8,1:2|0:0,0:0:0:0:
308,364,74344,2,0,P|364:338|424:349,1,125,2|8,1:2|0:0,0:0:0:0:
480,320,74858,1,2,0:0:0:0:
480,320,75030,6,0,P|484:257|490:195,1,125,12|8,1:2|0:0,0:0:0:0:
388,124,75715,2,0,P|383:186|377:248,1,125,8|8,1:2|0:0,0:0:0:0:
280,168,76401,2,0,L|155:181,2,125,14|10|2,1:2|0:0|1:2,0:0:0:0:
316,48,77430,1,10,0:0:0:0:
192,20,77773,5,6,0:0:0:0:
68,48,78115,2,0,P|73:78|78:109,1,62.5,8|0,0:0|1:2,0:0:0:0:
120,156,78458,2,0,P|115:186|109:217,1,62.5,10|0,0:0|1:2,0:0:0:0:
68,264,78801,1,8,0:0:0:0:
188,300,79144,2,0,B|220:288|220:288|248:285,1,62.5,10|0,0:0|1:2,0:0:0:0:
308,304,79487,2,0,B|336:301|336:301|368:289,1,62.5,8|0,0:0|1:2,0:0:0:0:
428,268,79830,2,0,L|437:206,1,62.5,10|0,0:0|1:2,0:0:0:0:
469,152,80173,1,8,0:0:0:0:
364,84,80515,6,0,L|302:93,1,62.5,10|0,0:0|1:2,0:0:0:0:
240,80,80858,2,0,L|178:70,1,62.5,8|0,0:0|1:2,0:0:0:0:
128,108,81201,2,0,B|116:140|116:140|113:168,1,62.5,10|0,0:0|1:2,0:0:0:0:
144,224,81544,1,8,0:0:0:0:
144,224,81715,2,0,B|226:182|240:264|324:225,1,187.5,4|8,1:2|0:0,0:0:0:0:
420,144,82573,2,0,B|468:192|468:192|449:310,1,187.5,8|10,0:0|0:0,0:0:0:0:
400,348,83258,5,2,0:2:0:0:
256,192,83344,12,2,86001,0:0:0:0:
