osu file format v14

[General]
AudioFilename: audio.mp3
AudioLeadIn: 0
PreviewTime: 54887
Countdown: 0
SampleSet: Soft
StackLeniency: 0.7
Mode: 0
LetterboxInBreaks: 0
WidescreenStoryboard: 0

[Editor]
DistanceSpacing: 1.3
BeatDivisor: 4
GridSize: 4
TimelineZoom: 1.6

[Metadata]
Title:Utaeba Soko ni Kimi ga Iru kara (TV Size)
TitleUnicode:歌えばそこに君がいるから (TV Size)
Artist:Suzuki Konomi
ArtistUnicode:鈴木このみ
Creator:Kyle73
Version:For You
Source:LOST SONG
Tags:Kibbleru ImpurePug cococolaco loli catgirl Sidetail BetaStar Yoshimaro LeeSinOrAfk Gaia
BeatmapID:1688332
BeatmapSetID:804290

[Difficulty]
HPDrainRate:6
CircleSize:4
OverallDifficulty:9
ApproachRate:9.3
SliderMultiplier:1.73
SliderTickRate:1

[Events]
//Background and Video events
0,0,"kyle73isalolicon.jpg",0,0
//Break Periods
//Storyboard Layer 0 (Background)
//Storyboard Layer 1 (Fail)
//Storyboard Layer 2 (Pass)
//Storyboard Layer 3 (Foreground)
//Storyboard Sound Samples

[TimingPoints]
973,342.857142857143,4,2,2,37,1,0
1144,-100,4,2,3,37,0,0
1315,-100,4,2,4,37,0,0
1487,-100,4,2,5,37,0,0
1658,-100,4,2,6,37,0,0
1830,-100,4,2,3,37,0,0
2001,-100,4,2,7,37,0,0
2173,-100,4,2,8,37,0,0
2344,-136.986301369863,4,2,9,37,0,0
2365,-136.986301369863,4,2,1,37,0,0
2515,-136.986301369863,4,2,6,37,0,0
2537,-136.986301369863,4,2,1,37,0,0
2687,-136.986301369863,4,2,8,37,0,0
2858,-136.986301369863,4,2,7,37,0,0
2880,-136.986301369863,4,2,1,37,0,0
3030,-136.986301369863,4,2,6,37,0,0
3051,-136.986301369863,4,2,1,37,0,0
3201,-136.986301369863,4,2,10,37,0,0
3373,-136.986301369863,4,2,11,37,0,0
3394,-136.986301369863,4,2,1,37,0,0
3544,-222.222222222222,4,2,3,37,0,0
3715,-181.818181818182,4,2,12,37,0,0
5001,-66.6666666666667,4,2,7,37,0,0
5023,-136.986301369863,4,2,1,37,0,0
5087,-66.6666666666667,4,2,13,37,0,0
5773,-136.986301369863,4,2,1,70,0,0
6458,-100,4,2,1,70,0,0
13144,-80,4,2,1,70,0,0
16058,-100,4,2,1,70,0,0
17430,-136.986301369863,4,2,16,70,0,0
18458,-136.986301369863,4,2,1,30,0,0
18801,-136.986301369863,4,2,4,45,0,0
18887,-136.986301369863,4,2,1,30,0,0
20173,-136.986301369863,4,2,14,45,0,0
20258,-136.986301369863,4,2,1,30,0,0
21544,-136.986301369863,4,2,3,45,0,0
21565,-136.986301369863,4,2,15,45,0,0
22915,-136.986301369863,4,2,1,45,0,0
27373,-136.986301369863,4,2,15,45,0,0
27715,-136.986301369863,4,2,1,50,0,0
28401,-99.9999999999999,4,2,1,50,0,0
36287,-80,4,2,1,50,0,0
36630,-99.9999999999999,4,2,1,50,0,0
38687,-99.9999999999999,4,2,15,50,0,0
39030,-99.9999999999999,4,2,1,50,0,0
39373,-111.111111111111,4,2,15,70,0,0
39544,-111.111111111111,4,2,1,70,0,0
48801,-111.111111111111,4,2,15,70,0,0
49144,-111.111111111111,4,2,1,70,0,0
50344,-80,4,2,1,70,0,0
54115,-166.666666666667,4,2,1,70,0,0
54973,-166.666666666667,4,2,1,37,0,0
55144,-166.666666666667,4,2,1,37,0,0
55830,-90.9090909090909,4,2,1,73,0,1
77773,-90.9090909090909,4,2,1,73,0,1
81887,-90.9090909090909,4,2,15,73,0,1
82058,-80,4,2,1,73,0,1
83258,-136.986301369863,4,2,4,73,0,1
83430,-136.986301369863,4,2,4,37,0,0
84630,-136.986301369863,4,2,6,37,0,0
84651,-136.986301369863,4,2,1,37,0,0
86001,-136.986301369863,4,2,6,37,0,0
87373,-136.986301369863,4,2,3,37,0,0
87394,-136.986301369863,4,2,1,37,0,0

[Colours]
Combo1 : 206,154,228
Combo2 : 122,182,226
Combo3 : 204,104,114
Combo4 : 245,193,122

[HitObjects]
82,83,972,5,2,0:0:0:0:
76,104,1144,1,0,0:0:0:0:
94,117,1315,1,2,0:0:0:0:
212,88,1487,5,2,0:0:0:0:
196,72,1658,1,2,0:0:0:0:
176,81,1830,1,2,0:0:0:0:
144,196,2001,5,2,0:0:0:0:
165,190,2173,1,2,0:0:0:0:
167,168,2344,6,0,P|197:174|229:179,2,63.1450017343293,2|2|2,0:0|0:0|0:0,0:0:0:0:
329,200,2858,2,0,P|308:223|288:247,2,63.1450017343293,2|2|2,0:0|0:0|0:0,0:0:0:0:
224,323,3373,2,0,P|214:293|204:264,1,63.1450017343293,2|2,0:0|0:0,0:0:0:0:
167,168,3715,6,0,B|164:123|132:99|92:87|92:87|64:123|64:171|76:199|140:203|113:285,1,333.025010163117,2|0,0:0|0:0,0:0:0:0:
110,297,5001,6,0,P|117:312|124:327,2,32.4375012373925,2|0|2,0:0|0:0|0:0,0:0:0:0:
46,102,5773,6,0,P|58:132|65:163,1,63.1450017343293,10|10,0:0|0:0,0:0:0:0:
140,348,6115,1,14,0:0:0:0:
216,191,6287,1,8,0:0:0:0:
204,175,6373,1,8,0:0:0:0:
195,162,6458,6,0,P|130:162|65:162,1,129.75,14|0,1:2|0:0,0:0:0:0:
16,260,6801,2,0,P|60:259|103:259,1,86.5,8|0,0:0|0:0,0:0:0:0:
248,232,7144,1,2,1:2:0:0:
65,162,7315,1,0,1:2:0:0:
160,60,7487,2,0,L|171:145,1,86.5,8|0,0:0|0:0,0:0:0:0:
356,192,7830,6,0,L|367:106,1,86.5,2|0,1:2|0:0,0:0:0:0:
448,20,8173,1,8,0:0:0:0:
492,124,8344,1,0,1:2:0:0:
492,124,8430,1,0,1:2:0:0:
492,124,8515,1,2,1:2:0:0:
340,208,8687,1,0,1:2:0:0:
171,145,8858,2,0,P|214:142|257:139,1,86.5,8|0,0:0|0:0,0:0:0:0:
468,312,9201,6,0,B|416:288|416:288|348:315,1,129.75,2|0,1:2|0:0,0:0:0:0:
244,368,9544,2,0,P|237:325|226:283,1,86.5,8|0,0:0|0:0,0:0:0:0:
171,145,9887,1,2,1:2:0:0:
276,180,10058,1,0,1:2:0:0:
50,237,10230,2,0,P|93:238|136:240,1,86.5,8|0,0:0|0:0,0:0:0:0:
344,268,10573,5,2,0:0:0:0:
252,84,10744,1,10,0:0:0:0:
244,72,10830,1,10,0:0:0:0:
236,60,10915,1,10,0:0:0:0:
171,145,11087,5,8,0:0:0:0:
156,155,11173,1,8,0:0:0:0:
141,165,11258,1,10,0:0:0:0:
354,98,11430,5,8,0:0:0:0:
372,85,11515,1,8,0:0:0:0:
391,73,11601,1,10,0:0:0:0:
276,180,11773,5,10,0:0:0:0:
291,203,11859,1,8,0:0:0:0:
307,227,11944,1,14,1:2:0:0:
401,341,12115,5,0,3:0:0:0:
371,347,12200,1,0,3:0:0:0:
340,353,12286,1,0,3:0:0:0:
310,359,12372,1,0,3:0:0:0:
280,365,12457,1,8,3:2:0:0:
63,287,12630,5,0,1:2:0:0:
93,281,12715,1,0,3:0:0:0:
123,275,12801,1,0,3:0:0:0:
153,269,12887,1,0,3:0:0:0:
183,263,12972,1,10,0:0:0:0:
248,372,13144,5,10,0:0:0:0:
248,372,13230,1,10,3:2:0:0:
248,372,13315,2,0,P|221:375|194:377,1,54.0625,10|0,1:2|0:0,0:0:0:0:
97,306,13487,5,2,0:0:0:0:
73,269,13572,1,2,0:0:0:0:
75,225,13658,1,2,0:0:0:0:
95,186,13744,1,2,0:0:0:0:
134,166,13829,1,2,0:0:0:0:
155,127,13915,1,2,0:0:0:0:
168,84,14001,5,10,1:2:0:0:
156,41,14087,1,10,0:0:0:0:
120,16,14172,1,10,0:0:0:0:
76,9,14258,1,10,0:0:0:0:
43,38,14343,1,0,3:0:0:0:
46,83,14429,1,0,3:0:0:0:
91,87,14515,1,0,3:0:0:0:
300,52,14687,5,12,0:0:0:0:
440,144,14858,1,2,1:2:0:0:
316,252,15030,1,2,1:2:0:0:
456,16,15201,5,8,0:0:0:0:
344,148,15373,1,2,1:2:0:0:
456,280,15544,1,2,1:2:0:0:
155,152,15715,5,10,0:0:0:0:
504,208,15887,1,2,1:2:0:0:
244,120,16058,5,0,3:0:0:0:
248,148,16143,1,0,3:0:0:0:
253,176,16229,1,0,3:0:0:0:
258,205,16315,1,0,3:0:0:0:
280,252,16401,5,2,3:0:0:0:
275,280,16486,1,2,3:0:0:0:
270,308,16572,1,2,3:0:0:0:
265,337,16658,1,2,3:0:0:0:
243,384,16744,5,10,0:0:0:0:
105,249,16915,1,10,0:0:0:0:
363,169,17087,1,10,0:0:0:0:
125,355,17258,1,10,0:0:0:0:
140,75,17430,5,14,0:0:0:0:
140,74,18458,2,0,P|145:121|152:168,1,94.7175026014939
156,191,18801,5,2,0:0:0:0:
368,260,19144,1,0,0:0:0:0:
412,32,19487,1,0,0:0:0:0:
280,160,19830,2,0,P|326:153|373:146,1,94.7175026014939
396,141,20173,5,2,0:0:0:0:
264,256,20687,1,0,0:0:0:0:
154,365,21201,1,0,0:0:0:0:
140,356,21544,6,0,L|144:276,1,63.1450017343293,2|0,0:0|0:0,0:0:0:0:
104,144,21887,1,2,0:0:0:0:
204,204,22058,1,0,0:0:0:0:
182,206,22144,1,0,0:0:0:0:
161,209,22230,1,6,0:0:0:0:
235,288,22401,1,0,0:0:0:0:
317,258,22573,1,0,0:0:0:0:
287,174,22745,1,0,0:0:0:0:
204,204,22915,6,0,P|172:208|141:214,1,63.1450017343293,6|0,1:2|0:0,0:0:0:0:
36,208,23258,2,0,P|48:237|58:267,1,63.1450017343293,0|0,1:2|0:0,0:0:0:0:
104,360,23601,2,0,P|125:336|144:311,1,63.1450017343293,0|0,1:2|0:0,0:0:0:0:
204,203,23944,1,2,1:2:0:0:
264,368,24115,1,0,0:0:0:0:
378,261,24287,6,0,P|347:264|317:258,1,63.1450017343293,2|0,1:2|0:0,0:0:0:0:
204,203,24630,2,0,P|217:174|238:151,1,63.1450017343293,0|0,1:2|0:0,0:0:0:0:
320,75,24973,2,0,P|345:94|363:120,1,63.1450017343293,0|0,1:2|0:0,0:0:0:0:
452,184,25315,1,2,1:2:0:0:
316,257,25487,1,0,0:0:0:0:
416,344,25658,6,0,P|420:312|423:281,1,63.1450017343293,2|0,1:2|0:0,0:0:0:0:
323,194,26001,2,0,P|318:225|316:257,1,63.1450017343293,0|0,1:2|0:0,0:0:0:0:
244,308,26344,1,0,1:2:0:0:
236,220,26515,1,0,0:0:0:0:
156,184,26687,1,2,1:2:0:0:
100,274,26858,6,0,P|132:273|164:272,1,63.1450017343293,12|0,0:0|1:2,0:0:0:0:
236,220,27201,1,2,0:2:0:0:
80,136,27373,1,4,1:2:0:0:
163,272,27544,1,2,0:0:0:0:
228,128,27715,1,8,1:2:0:0:
8,256,27887,5,8,0:0:0:0:
33,255,27972,1,8,0:0:0:0:
58,254,28058,1,8,1:2:0:0:
83,253,28144,1,8,0:0:0:0:
108,252,28229,1,8,0:0:0:0:
134,252,28315,1,8,0:0:0:0:
163,272,28401,6,0,P|159:316|156:359,1,86.5,12|0,1:2|0:0,0:0:0:0:
335,293,28744,2,0,P|329:207|323:120,1,173,8|0,0:0|1:2,0:0:0:0:
232,56,29258,1,0,1:2:0:0:
131,148,29430,2,0,P|174:154|217:160,1,86.5,8|0,0:0|0:0,0:0:0:0:
447,259,29773,6,0,P|404:265|362:271,1,86.5,0|0,1:2|0:0,0:0:0:0:
135,279,30115,2,0,P|218:290|259:363,1,173,8|0,0:0|1:2,0:0:0:0:
76,360,30630,1,0,1:2:0:0:
143,180,30801,2,0,P|137:137|127:95,1,86.5,8|0,0:0|0:0,0:0:0:0:
396,176,31144,6,0,B|332:148|332:148|237:189,1,173,0|8,1:2|0:0,0:0:0:0:
356,272,31658,1,0,0:0:0:0:
440,80,31830,1,0,1:2:0:0:
320,124,32001,1,0,1:2:0:0:
472,255,32173,2,0,P|462:298|456:340,1,86.5,8|0,0:0|0:0,0:0:0:0:
236,216,32515,6,0,P|230:173|220:131,1,86.5,0|0,1:2|0:0,0:0:0:0:
82,330,32858,2,0,B|146:302|146:302|241:344,1,173,8|0,0:0|1:2,0:0:0:0:
356,272,33373,1,0,1:2:0:0:
236,216,33544,1,8,0:0:0:0:
336,368,33715,1,0,0:0:0:0:
428,136,33887,6,0,P|385:141|342:147,1,86.5,0|0,1:2|0:0,0:0:0:0:
205,45,34230,2,0,P|220:130|236:216,1,173,8|0,0:0|1:2,0:0:0:0:
241,344,34744,1,0,1:2:0:0:
48,296,34915,2,0,P|90:290|133:284,1,86.5,8|0,0:0|0:0,0:0:0:0:
352,280,35258,5,0,1:2:0:0:
236,216,35430,1,0,0:0:0:0:
328,88,35601,2,0,P|334:130|340:173,1,86.5,8|0,0:0|0:0,0:0:0:0:
133,283,35944,2,0,P|126:241|121:198,1,86.5,0|0,1:2|1:2,0:0:0:0:
12,92,36287,2,0,P|90:99|146:45,1,162.1875,8|0,0:0|0:0,0:0:0:0:
244,32,36630,6,0,P|237:74|231:117,1,86.5,0|0,1:2|0:0,0:0:0:0:
296,264,36973,1,8,0:0:0:0:
378,52,37144,1,0,0:0:0:0:
443,199,37315,1,0,1:2:0:0:
231,117,37487,1,0,1:2:0:0:
100,220,37658,2,0,P|143:219|186:217,1,86.5,8|0,0:0|0:0,0:0:0:0:
340,160,38001,5,0,1:2:0:0:
208,332,38173,1,12,0:0:0:0:
128,112,38344,1,0,1:0:0:0:
296,264,38515,5,0,1:2:0:0:
378,52,38687,1,12,0:0:0:0:
186,216,38858,1,2,1:2:0:0:
438,321,39030,5,8,0:0:0:0:
439,290,39115,1,8,0:0:0:0:
440,260,39201,1,8,0:0:0:0:
442,229,39286,1,8,0:0:0:0:
443,199,39373,6,0,P|440:160|433:121,1,77.8499976242066,4|0,1:2|0:0,0:0:0:0:
308,128,39715,1,0,1:2:0:0:
308,128,39887,2,0,P|310:166|317:205,1,77.8499976242066,0|2,0:0|1:2,0:0:0:0:
256,300,40230,2,0,P|217:291|179:285,1,77.8499976242066,0|0,0:0|1:2,0:0:0:0:
128,176,40573,6,0,P|166:167|204:161,1,77.8499976242066,0|2,0:0|1:2,0:0:0:0:
270,59,40915,2,0,P|290:93|307:128,1,77.8499976242066,0|0,0:0|1:2,0:0:0:0:
416,180,41258,2,0,P|390:209|362:236,1,77.8499976242066,0|2,0:0|1:2,0:0:0:0:
322,350,41601,1,8,0:0:0:0:
201,342,41773,2,0,P|165:358|130:376,1,77.8499976242066,0|2,1:2|0:0,0:0:0:0:
148,252,42115,6,0,P|159:214|164:176,1,77.8499976242066,0|2,1:2|0:0,0:0:0:0:
68,104,42458,2,0,P|56:141|51:179,1,77.8499976242066,2|0,1:2|0:0,0:0:0:0:
52,292,42801,2,0,P|90:286|128:277,1,77.8499976242066,0|0,1:2|0:0,0:0:0:0:
280,220,43144,1,2,1:2:0:0:
172,152,43315,1,0,0:0:0:0:
236,340,43487,5,0,1:2:0:0:
236,340,43658,2,0,P|273:331|312:325,1,77.8499976242066,0|2,0:0|1:2,0:0:0:0:
464,260,44001,2,0,P|425:254|387:245,1,77.8499976242066,0|0,0:0|0:0,0:0:0:0:
280,188,44344,1,2,0:0:0:0:
368,124,44515,1,10,0:0:0:0:
272,32,44687,1,8,0:0:0:0:
272,32,44773,1,8,0:0:0:0:
272,32,44858,6,0,P|267:70|263:109,1,77.8499976242066,6|0,1:2|0:0,0:0:0:0:
264,216,45201,1,0,1:2:0:0:
148,252,45373,2,0,P|143:213|139:174,1,77.8499976242066,0|2,0:0|1:2,0:0:0:0:
32,228,45715,2,0,P|36:266|40:305,1,77.8499976242066,0|0,0:0|1:2,0:0:0:0:
184,359,46058,6,0,P|220:345|258:340,1,77.8499976242066,0|2,0:0|1:2,0:0:0:0:
376,344,46401,2,0,P|414:338|450:324,1,77.8499976242066,0|0,0:0|1:2,0:0:0:0:
416,212,46744,2,0,P|377:217|341:231,1,77.8499976242066,2|0,0:0|1:2,0:0:0:0:
272,316,47087,1,10,0:0:0:0:
180,256,47258,2,0,P|183:217|186:178,1,77.8499976242066,2|0,1:2|0:0,0:0:0:0:
284,52,47601,6,0,P|287:90|290:129,1,77.8499976242066,0|0,1:2|0:0,0:0:0:0:
160,160,47944,2,0,P|157:121|153:82,1,77.8499976242066,2|0,1:2|0:0,0:0:0:0:
16,240,48287,2,0,P|54:243|93:249,1,77.8499976242066,0|0,1:2|0:0,0:0:0:0:
208,264,48630,1,2,1:2:0:0:
324,200,48801,5,12,0:0:0:0:
232,364,48973,1,0,1:2:0:0:
348,280,49144,5,10,0:0:0:0:
160,160,49315,1,0,1:2:0:0:
340,112,49487,5,10,0:0:0:0:
187,283,49658,1,0,1:2:0:0:
408,216,49830,5,10,0:0:0:0:
245,112,50001,1,8,0:0:0:0:
316,359,50173,1,8,0:0:0:0:
454,111,50344,5,14,1:2:0:0:
454,111,50430,1,0,3:0:0:0:
454,111,50516,2,0,P|426:111|400:108,1,54.0625,0|0,3:0|3:0,0:0:0:0:
296,48,50687,5,10,1:2:0:0:
296,48,50773,1,0,3:0:0:0:
296,48,50859,2,0,P|309:71|320:95,1,54.0625,0|0,3:0|3:0,0:0:0:0:
313,217,51029,5,10,1:2:0:0:
313,217,51115,1,0,3:0:0:0:
313,217,51201,2,0,P|326:193|342:171,1,54.0625,0|0,3:0|3:0,0:0:0:0:
260,148,51373,5,10,1:2:0:0:
224,144,51458,1,8,3:2:0:0:
188,140,51544,1,10,3:2:0:0:
124,16,51715,5,0,3:0:0:0:
15,120,51887,1,10,3:2:0:0:
15,120,51972,1,8,3:2:0:0:
15,120,52058,6,0,P|22:145|29:172,1,54.0625,10|0,1:2|3:0,0:0:0:0:
171,255,52230,2,0,P|163:280|156:307,1,54.0625,0|0,3:0|3:0,0:0:0:0:
24,318,52401,5,10,1:2:0:0:
66,310,52487,1,0,3:0:0:0:
108,316,52572,1,0,3:0:0:0:
146,337,52658,1,0,3:0:0:0:
182,359,52744,5,8,1:2:0:0:
225,367,52830,1,0,3:0:0:0:
267,360,52915,1,2,3:2:0:0:
305,340,53001,1,0,3:0:0:0:
327,302,53087,5,14,0:0:0:0:
245,95,53258,1,0,1:2:0:0:
446,227,53430,1,0,1:2:0:0:
229,271,53601,5,8,0:0:0:0:
395,97,53773,1,0,1:2:0:0:
131,179,53944,1,0,1:2:0:0:
354,285,54115,6,0,B|385:280|413:286|413:286|321:225|315:334|226:303,1,259.499992080689,12|0,0:0|0:0,0:0:0:0:
230,287,55830,6,0,P|233:215|236:144,1,142.725004355621,6|0,1:2|0:0,0:0:0:0:
132,112,56173,2,0,P|136:159|138:206,1,95.1500029037476,8|2,0:0|0:0,0:0:0:0:
155,347,56515,1,2,1:2:0:0:
320,232,56687,1,0,0:0:0:0:
415,341,56858,2,0,P|368:332|321:325,1,95.1500029037476,8|2,0:0|0:0,0:0:0:0:
119,199,57201,6,0,B|215:215|215:215|274:143,1,190.300005807495,2|8,1:2|0:0,0:0:0:0:
324,40,57715,1,0,0:0:0:0:
160,20,57887,2,0,P|172:65|179:112,1,95.1500029037476,2|0,1:2|0:0,0:0:0:0:
320,232,58230,1,10,0:0:0:0:
116,328,58401,1,0,0:0:0:0:
310,347,58573,6,0,P|317:300|329:254,1,95.1500029037476,2|0,1:2|0:0,0:0:0:0:
384,84,58915,1,8,0:0:0:0:
456,192,59087,1,2,1:2:0:0:
428,188,59173,1,2,1:2:0:0:
400,184,59258,1,2,1:2:0:0:
292,40,59430,5,0,0:0:0:0:
330,255,59601,1,10,0:0:0:0:
476,100,59773,1,2,0:0:0:0:
200,168,59944,5,2,1:2:0:0:
330,255,60115,1,0,0:0:0:0:
156,340,60287,1,10,0:0:0:0:
295,136,60458,1,0,0:0:0:0:
66,233,60630,5,10,1:2:0:0:
99,238,60715,1,10,0:0:0:0:
134,245,60801,1,10,0:0:0:0:
167,251,60887,1,10,0:0:0:0:
202,257,60972,1,8,0:0:0:0:
428,164,61144,1,8,0:0:0:0:
214,18,61315,6,0,B|188:72|188:72|209:152,1,142.725004355621,14|0,1:2|0:0,0:0:0:0:
304,225,61658,2,0,P|315:178|324:131,1,95.1500029037476,8|2,0:0|0:0,0:0:0:0:
408,60,62001,1,2,1:2:0:0:
209,152,62173,1,0,0:0:0:0:
412,292,62344,2,0,P|365:300|318:311,1,95.1500029037476,8|2,0:0|0:0,0:0:0:0:
66,233,62687,6,0,P|158:228|209:152,1,190.300005807495,2|8,1:2|0:0,0:0:0:0:
252,28,63201,1,0,0:0:0:0:
80,47,63373,2,0,P|95:92|106:139,1,95.1500029037476,2|0,1:2|0:0,0:0:0:0:
216,308,63715,1,10,0:0:0:0:
340,120,63887,1,0,0:0:0:0:
400,232,64058,6,0,P|352:228|305:229,1,95.1500029037476,2|0,1:2|0:0,0:0:0:0:
356,336,64401,1,8,0:0:0:0:
456,120,64573,1,2,1:2:0:0:
208,172,64744,1,8,1:2:0:0:
400,232,64915,1,0,1:2:0:0:
244,76,65087,1,8,0:0:0:0:
73,281,65258,6,0,B|161:241|161:318|257:280,1,190.300005807495,4|0,1:2|1:2,0:0:0:0:
407,326,65773,2,0,P|407:278|400:232,1,95.1500029037476,8|2,0:0|0:0,0:0:0:0:
244,76,66115,5,2,3:0:0:0:
248,107,66200,1,0,3:0:0:0:
253,138,66286,1,2,3:0:0:0:
258,170,66372,1,0,3:0:0:0:
297,212,66458,5,10,0:0:0:0:
293,243,66543,1,8,0:0:0:0:
288,274,66629,1,10,0:0:0:0:
283,306,66715,1,8,0:0:0:0:
244,348,66801,6,0,B|192:324|192:324|108:345,1,142.725004355621,14|0,1:2|0:0,0:0:0:0:
28,276,67144,2,0,P|74:264|120:252,1,95.1500029037476,8|2,0:0|0:0,0:0:0:0:
258,170,67487,1,2,1:2:0:0:
60,96,67658,1,0,0:0:0:0:
198,15,67830,1,10,0:0:0:0:
36,88,68001,6,0,P|50:133|61:179,1,95.1500029037476,2|0,0:0|1:2,0:0:0:0:
205,272,68344,1,0,0:0:0:0:
222,67,68515,1,8,0:0:0:0:
87,174,68687,1,0,0:0:0:0:
233,253,68858,2,0,P|244:206|258:161,1,95.1500029037476,2|2,1:2|0:0,0:0:0:0:
371,67,69201,1,10,0:0:0:0:
412,244,69373,6,0,B|348:236|348:236|300:268|300:268|233:253,1,190.300005807495,2|2,0:0|0:0,0:0:0:0:
376,344,69887,1,10,0:0:0:0:
495,193,70058,2,0,P|485:146|473:100,1,95.1500029037476,2|0,0:0|1:2,0:0:0:0:
309,69,70401,2,0,P|296:115|287:161,1,95.1500029037476,2|8,0:0|0:0,0:0:0:0:
221,357,70744,1,2,0:0:0:0:
52,189,70915,5,0,1:2:0:0:
233,253,71087,1,2,0:0:0:0:
325,147,71258,1,10,0:0:0:0:
120,316,71430,1,0,0:0:0:0:
188,128,71601,5,0,1:2:0:0:
233,253,71773,1,0,0:0:0:0:
24,285,71944,1,10,0:0:0:0:
220,351,72115,1,0,0:0:0:0:
220,351,72201,1,2,0:0:0:0:
220,351,72287,6,0,P|311:338|350:255,1,190.300005807495,2|8,1:2|0:0,0:0:0:0:
331,119,72801,1,0,0:0:0:0:
136,52,72973,2,0,B|92:96|92:96|119:221,1,190.300005807495,2|8,1:2|0:0,0:0:0:0:
220,351,73487,1,2,0:0:0:0:
432,224,73658,6,0,B|368:216|368:216|320:248|320:248|253:233,1,190.300005807495,2|8,1:2|0:0,0:0:0:0:
108,248,74173,1,0,0:0:0:0:
304,158,74344,2,0,P|299:110|291:63,1,95.1500029037476,2|0,1:2|0:0,0:0:0:0:
0,136,74687,2,0,P|4:183|12:230,1,95.1500029037476,8|2,0:0|0:0,0:0:0:0:
136,56,75030,5,12,1:2:0:0:
304,158,75201,1,0,0:0:0:0:
96,272,75373,1,8,0:0:0:0:
200,140,75544,1,0,0:0:0:0:
284,356,75715,5,8,1:2:0:0:
419,159,75887,1,0,0:0:0:0:
232,244,76058,1,8,0:0:0:0:
496,316,76230,1,0,0:0:0:0:
252,372,76401,6,0,P|242:325|227:280,1,95.1500029037476,14|0,1:2|3:2,0:0:0:0:
395,68,76744,2,0,P|405:114|420:160,1,95.1500029037476,10|0,0:0|3:2,0:0:0:0:
404,364,77087,1,2,1:2:0:0:
292,152,77258,1,0,3:2:0:0:
512,276,77430,2,0,P|464:270|417:263,1,95.1500029037476,10|0,0:0|0:0,0:0:0:0:
262,135,77773,5,14,0:0:0:0:
316,336,77944,1,0,1:2:0:0:
380,104,78115,5,8,0:0:0:0:
204,300,78286,1,0,1:2:0:0:
440,244,78458,5,10,0:0:0:0:
192,80,78630,1,0,1:2:0:0:
336,228,78801,5,8,0:0:0:0:
404,20,78973,1,0,1:2:0:0:
176,168,79144,5,10,0:0:0:0:
464,84,79315,1,0,1:2:0:0:
204,300,79487,5,8,0:0:0:0:
112,40,79658,1,0,1:2:0:0:
336,228,79830,5,10,0:0:0:0:
404,20,80001,1,0,1:2:0:0:
262,135,80173,5,8,0:0:0:0:
512,276,80344,1,0,1:2:0:0:
336,372,80515,5,10,0:0:0:0:
380,104,80687,1,0,1:2:0:0:
204,300,80858,5,8,0:0:0:0:
220,24,81030,1,0,1:2:0:0:
80,356,81201,5,10,0:0:0:0:
28,60,81373,1,0,1:2:0:0:
208,324,81544,5,8,0:0:0:0:
308,48,81715,1,4,1:2:0:0:
40,192,81887,5,4,0:0:0:0:
360,228,82058,1,8,0:0:0:0:
360,228,82144,1,8,0:0:0:0:
360,228,82230,1,8,0:0:0:0:
80,356,82401,1,0,1:2:0:0:
80,356,82487,1,0,1:2:0:0:
80,356,82573,1,8,0:0:0:0:
204,380,82744,5,10,0:0:0:0:
207,343,82829,1,10,0:0:0:0:
212,307,82915,1,10,0:0:0:0:
217,271,83001,1,10,0:0:0:0:
222,236,83086,1,10,0:0:0:0:
226,200,83172,1,10,0:0:0:0:
231,164,83258,5,2,0:2:0:0:
200,72,83430,1,0,0:0:0:0:
136,150,83601,1,0,0:0:0:0:
231,144,83772,1,0,0:0:0:0:
182,62,83944,5,0,0:0:0:0:
136,150,84115,1,0,0:0:0:0:
226,124,84287,1,0,0:0:0:0:
161,54,84459,1,0,0:0:0:0:
136,150,84630,6,0,P|149:178|162:208,3,63.1450017343293,2|0|0|0,0:2|0:0|0:0|0:0,0:0:0:0:
226,124,85315,2,0,P|212:95|200:66,2,63.1450017343293
360,228,86001,5,2,0:2:0:0:
451,194,86173,1,0,0:0:0:0:
430,293,86344,1,0,0:0:0:0:
375,215,86515,1,0,0:0:0:0:
470,202,86687,5,0,0:0:0:0:
430,293,86858,1,0,0:0:0:0:
393,206,87030,1,0,0:0:0:0:
489,213,87202,1,0,0:0:0:0:
430,293,87373,6,0,P|399:300|368:309,3,63.1450017343293,2|0|0|0,0:2|0:0|0:0|0:0,0:0:0:0:
393,206,88058,2,0,P|422:196|453:187,3,63.1450017343293
