osu file format v14

[General]
AudioFilename: audio.mp3
AudioLeadIn: 0
PreviewTime: -1
Countdown: 0
SampleSet: None
StackLeniency: 0.7
Mode: 0
LetterboxInBreaks: 0
WidescreenStoryboard: 0

[Editor]
Bookmarks: 317,6847,13378,26439,39500,54194,67255,83582,85214,86847
DistanceSpacing: 0.6
BeatDivisor: 4
GridSize: 4
TimelineZoom: 4.399998

[Metadata]
Title:This game (TV Size)
TitleUnicode:This game (TV Size)
Artist:Suzuki Konomi
ArtistUnicode:鈴木このみ
Creator:WillCookie
Version:gamer
Source:ノーゲーム・ノーライフ
Tags:
BeatmapID:1936623
BeatmapSetID:927222

[Difficulty]
HPDrainRate:5
CircleSize:3
OverallDifficulty:9
ApproachRate:9.5
SliderMultiplier:0.7
SliderTickRate:1

[Events]
//Background and Video events
//Break Periods
//Storyboard Layer 0 (Background)
//Storyboard Layer 1 (Fail)
//Storyboard Layer 2 (Pass)
//Storyboard Layer 3 (Foreground)
//Storyboard Sound Samples

[TimingPoints]
317,408.163265306122,4,2,0,100,1,0
6847,-66.6666666666667,4,2,0,100,0,0
13378,-80,4,2,0,100,0,0
54194,204.081632653061,4,2,0,75,1,0
54194,-100,4,2,0,75,0,1
66847,-100,4,2,0,50,0,1
83581,-100,4,2,0,100,0,0

[HitObjects]
66,245,317,6,0,L|83:305,2,52.5
273,31,1337,6,0,L|321:37,2,35
330,147,1949,6,0,L|284:177,2,52.5
169,302,2970,6,0,L|172:340,2,35
237,178,3582,6,0,L|183:149,2,52.5
441,354,4602,6,0,L|446:308,2,35
405,199,5214,6,0,L|454:163,2,52.5
103,87,6235,6,0,L|106:44,2,35
70,207,6847,6,0,L|134:214,1,52.5000020027161
145,264,7153,2,0,L|201:258,1,52.5000020027161
234,217,7459,2,0,L|295:226,1,52.5000020027161
339,315,7868,6,0,L|400:301,3,52.5000020027161
393,163,8684,6,0,L|350:160,1,26.2500010013581
417,153,8990,2,0,L|391:163,1,26.2500010013581
288,106,9296,6,0,L|328:61,4,52.5000020027161
124,129,10316,6,0,L|115:169,1,26.2500010013581
406,135,10623,2,0,L|412:174,1,26.2500010013581
162,255,10929,6,0,L|217:268,3,52.5000020027161
255,40,11745,6,0,L|275:38,1,13.125000500679
179,362,12051,2,0,L|195:360,1,13.125000500679
83,19,12357,2,0,L|101:17,1,13.125000500679
357,355,12765,6,0,L|368:314,1,26.2500010013581
341,260,12970,2,0,L|335:237,7,13.125000500679
299,216,13378,6,0,L|302:199,1,10.9375
177,254,13582,2,0,L|181:217,1,26.2500010013581
248,104,13990,6,0,L|231:102,7,10.9375
199,86,14398,2,0,L|192:73,1,10.9375
185,210,14602,2,0,L|230:215,1,43.75
259,198,14908,2,0,L|261:186,1,10.9375
191,336,15419,6,0,L|148:309,1,43.75
305,277,15827,2,0,L|308:231,1,43.75
23,198,16235,2,0,L|59:169,1,43.75
251,67,16643,6,0,L|319:77,2,65.625
142,344,17663,6,0,L|170:308,2,43.75
359,273,18276,6,0,L|386:284,2,21.875
262,209,18582,2,0,L|248:230,2,21.875
344,92,18888,2,0,L|368:82,2,21.875
170,178,19194,2,0,L|142:186,1,21.875
90,73,19398,6,0,L|119:82,1,21.875
256,73,19602,2,0,L|268:91,2,21.875
225,298,19908,2,0,L|229:314,1,10.9375
397,242,20112,6,0,L|403:215,1,21.875
251,188,20521,2,0,P|279:146|317:130,1,87.5
277,298,21133,2,0,L|246:296,3,21.875
261,268,21541,2,0,L|259:255,1,10.9375
384,239,21949,6,0,P|393:217|394:191,1,43.75
74,92,22357,6,0,L|95:87,1,21.875
129,211,22561,2,0,L|153:213,1,21.875
115,353,22765,2,0,P|143:362|163:356,1,43.75
266,45,23174,6,0,P|290:82|294:110,2,65.625
434,334,24194,6,0,P|410:342|388:338,2,43.75
476,211,24806,6,0,L|463:208,1,10.9375
343,361,25112,2,0,L|330:357,1,10.9375
405,68,25419,2,0,L|392:62,1,10.9375
184,375,25725,2,0,L|168:369,1,10.9375
161,10,26031,2,0,L|150:22,7,10.9375
174,54,26439,6,0,L|188:64,1,10.9375
152,344,26643,6,0,P|177:339|192:326,1,43.75
381,313,27051,6,0,L|388:290,1,21.875
258,180,27357,2,0,L|305:165,1,43.75
397,161,27663,6,0,L|399:150,1,10.9375
68,138,27868,2,0,L|74:125,1,10.9375
161,328,28072,6,0,L|150:328,3,10.9375
145,240,28276,6,0,L|174:197,1,43.75
325,225,28684,2,0,L|315:195,1,21.875
410,127,28990,6,0,L|399:80,1,43.75
428,271,29296,6,0,L|433:253,1,10.9375
218,338,29500,2,0,L|231:335,1,10.9375
319,220,29704,6,0,L|324:202,3,10.9375
276,178,29908,6,0,L|274:159,1,10.9375
73,262,30112,2,0,L|75:249,1,10.9375
106,152,30316,6,0,L|113:143,1,10.9375
164,149,30419,2,0,L|166:135,1,10.9375
179,267,30623,6,0,L|228:268,1,43.75
282,348,30929,6,0,L|299:344,1,10.9375
386,220,31133,2,0,L|394:211,1,10.9375
237,26,31337,6,0,L|249:28,4,10.9375
253,295,31643,2,0,L|263:293,4,10.9375
374,35,31949,6,0,L|390:33,4,10.9375
134,233,32255,2,0,L|148:240,4,10.9375
435,306,32561,6,0,L|439:292,1,10.9375
345,173,32765,2,0,L|354:160,1,10.9375
254,371,32970,2,0,L|243:367,1,10.9375
208,145,33174,6,0,L|201:148,5,5.46875
361,84,33378,6,0,L|359:75,5,5.46875
368,234,33582,6,0,L|376:229,2,5.46875
312,248,33684,2,0,L|313:254,5,5.46875
288,158,33888,6,0,L|296:155,5,5.46875
135,210,34092,6,0,L|129:208,2,5.46875
191,225,34194,2,0,L|194:231,5,5.46875
140,89,34398,2,0,L|147:82,5,5.46875
279,66,34602,6,0,L|283:55,1,10.9375
366,161,34806,6,0,L|378:152,1,10.9375
366,161,35010,6,0,L|378:152,1,10.9375
366,161,35214,6,0,L|378:152,1,10.9375
366,161,35316,2,0,L|378:152,1,10.9375
366,161,35521,6,0,L|378:152,1,10.9375
366,161,35725,6,0,L|378:152,1,10.9375
366,161,35827,2,0,L|378:152,1,10.9375
366,161,36031,6,0,L|378:152,1,10.9375
283,266,36235,6,0,L|287:278,1,10.9375
175,213,36439,6,0,L|163:220,1,10.9375
150,95,36643,6,0,L|132:89,1,10.9375
175,213,36847,6,0,L|163:220,1,10.9375
150,95,36949,2,0,L|132:89,1,10.9375
175,213,37153,6,0,L|163:220,1,10.9375
150,95,37357,6,0,L|132:89,1,10.9375
175,213,37459,2,0,L|163:220,1,10.9375
150,95,37663,6,0,L|132:89,1,10.9375
308,86,37868,6,0,L|294:159,2,65.625
226,301,38684,2,0,L|166:338,2,65.625
438,346,39500,6,0,L|445:167,1,175
318,166,40623,2,0,L|356:105,1,65.625
263,328,41133,6,0,L|204:160,1,175
371,262,42357,2,0,L|381:250,1,10.9375
58,55,42765,6,0,L|235:47,1,175
132,151,43888,2,0,L|144:161,1,10.9375
107,288,44194,6,0,L|119:298,1,10.9375
165,300,44296,2,0,L|159:315,1,10.9375
145,251,44398,6,0,L|174:245,3,21.875
230,272,44806,2,0,L|266:240,1,43.75
341,346,45214,6,0,L|352:350,1,10.9375
396,218,45521,2,0,L|411:215,1,10.9375
288,51,45827,2,0,L|297:38,1,10.9375
145,83,46031,6,0,L|149:101,1,10.9375
145,83,46337,2,0,L|149:101,1,10.9375
145,83,46643,2,0,L|149:101,1,10.9375
195,182,46847,6,0,L|210:177,15,10.9375
307,220,47663,6,0,L|310:208,1,10.9375
307,220,47970,2,0,L|310:208,1,10.9375
307,220,48276,2,0,L|310:208,1,10.9375
403,151,48480,6,0,L|398:137,7,10.9375
316,89,48888,2,0,L|323:80,7,10.9375
224,53,49296,6,0,L|207:93,1,43.75
322,173,49704,2,0,L|270:171,1,43.75
121,65,50112,6,0,L|130:110,1,43.75
327,260,50521,2,0,L|277:253,1,43.75
139,249,50929,6,0,L|121:263,2,21.875
232,161,51235,2,0,L|206:161,2,21.875
332,122,51541,2,0,L|342:111,1,10.9375
104,209,51745,6,0,L|86:195,2,21.875
197,297,52051,2,0,L|171:297,2,21.875
297,336,52357,2,0,L|307:347,1,10.9375
503,378,52561,6,0,L|504:360,1,10.9375
348,88,52868,2,0,L|361:73,1,10.9375
40,43,53174,2,0,L|44:27,1,10.9375
302,222,53786,6,0,L|323:202,3,21.875
374,129,54194,6,0,L|376:109,15,17.5
318,279,55010,2,0,L|299:275,5,17.5
242,173,55316,2,0,L|222:168,5,17.5
180,299,55623,2,0,L|163:307,3,17.5
327,200,55827,6,0,L|341:189,15,17.5
375,286,56643,2,0,L|357:282,5,17.5
282,137,56949,2,0,L|260:129,5,17.5
106,143,57256,2,0,L|86:150,3,17.5
83,238,57459,6,0,L|100:246,15,17.5
138,339,58276,2,0,L|155:335,5,17.5
182,169,58582,2,0,L|205:177,5,17.5
298,309,58888,2,0,L|303:289,3,17.5
336,185,59091,6,0,L|356:177,5,17.5
270,69,59398,2,0,L|277:41,5,17.5
226,239,59704,2,0,L|205:249,7,17.5
79,150,60112,6,0,L|91:137,3,17.5
194,144,60316,2,0,L|189:120,7,17.5
308,194,60724,6,0,L|313:174,11,17.5
243,254,61336,2,0,L|226:242,3,17.5
301,341,61540,2,0,L|319:329,11,17.5
391,257,62153,6,0,L|387:239,1,17.5
391,257,62255,2,0,L|421:270,1,17.5
366,145,62357,6,0,L|383:130,11,17.5
259,100,62969,6,0,L|264:82,1,17.5
259,100,63071,2,0,L|266:131,1,17.5
145,149,63173,6,0,L|119:166,11,17.5
150,235,63785,2,0,L|159:257,1,17.5
267,317,63989,6,0,L|272:310,7,8.75
369,285,64296,2,0,L|374:278,7,8.75
235,219,64602,6,0,L|240:212,3,8.75
320,132,64806,6,0,L|325:125,7,8.75
169,103,65112,2,0,L|174:96,7,8.75
106,226,65418,2,0,L|111:219,3,8.75
175,320,65622,6,0,L|186:315,23,8.75
231,233,66234,2,0,L|232:220,7,8.75
320,280,66438,6,0,L|332:276,15,8.75
384,260,66847,2,0,L|389:258,31,4.375
408,190,67255,6,0,L|409:185,63,4.375
362,130,68071,6,0,L|363:125,23,4.375
319,165,68377,2,0,L|320:160,23,4.375
288,117,68683,2,0,L|289:112,15,4.375
248,94,68887,6,0,L|249:89,63,4.375
228,152,69704,6,0,L|229:147,23,4.375
215,184,70010,2,0,L|216:179,23,4.375
204,217,70316,2,0,L|205:212,15,4.375
237,262,70520,6,0,L|242:264,63,4.375
285,259,71336,6,0,L|284:264,23,4.375
314,227,71642,2,0,L|313:232,23,4.375
358,218,71948,2,0,L|357:223,15,4.375
329,164,72153,6,0,L|328:169,8,4.375
226,116,72459,2,0,L|225:121,8,4.375
222,292,72765,2,0,L|221:297,8,4.375
39,161,73173,6,0,L|52:142,1,21.875
446,306,73377,6,0,L|441:304,31,4.375
466,248,73785,6,0,L|467:241,8,4.375
376,260,73989,2,0,L|377:253,8,4.375
447,159,74193,6,0,L|448:152,8,4.375
284,150,74398,2,0,L|285:143,8,4.375
468,69,74602,6,0,L|469:62,8,4.375
174,54,74806,2,0,L|175:47,8,4.375
406,300,75010,6,0,L|407:293,8,4.375
153,350,75214,2,0,L|154:343,8,4.375
286,233,75418,6,0,L|289:229,3,4.375
238,220,75520,2,0,L|241:216,3,4.375
191,197,75622,2,0,L|194:193,3,4.375
308,131,75826,6,0,L|305:127,3,4.375
356,118,75928,2,0,L|353:114,3,4.375
403,95,76030,2,0,L|400:91,3,4.375
155,88,76234,6,0,L|152:84,3,4.375
108,304,76438,2,0,L|105:300,3,4.375
311,28,76642,6,0,L|308:24,3,4.375
411,274,76847,2,0,L|408:270,3,4.375
219,157,77051,6,0,L|216:153,3,4.375
202,221,77255,6,0,L|199:217,3,4.375
177,121,77459,6,0,L|174:117,3,4.375
160,252,77663,6,0,L|157:248,3,4.375
478,189,77867,6,0,L|475:185,3,4.375
444,153,77969,2,0,L|441:149,3,4.375
409,115,78071,2,0,L|406:111,3,4.375
375,78,78173,2,0,L|372:74,3,4.375
341,203,78275,2,0,L|338:199,31,4.375
253,206,78683,6,0,L|255:200,127,4.375
224,142,80316,6,0,L|221:136,8,4.375
262,288,80520,2,0,L|259:282,8,4.375
306,94,80724,6,0,L|303:88,8,4.375
254,362,80928,2,0,L|251:356,8,4.375
136,73,81132,6,0,L|133:67,8,4.375
408,344,81336,2,0,L|405:338,8,4.375
385,28,81540,6,0,L|382:22,8,4.375
150,326,81745,2,0,L|147:320,8,4.375
63,107,81949,6,0,L|60:101,8,4.375
471,231,82154,2,0,L|468:225,8,4.375
82,248,82357,6,0,L|84:244,31,4.375
176,251,82765,2,0,L|180:245,63,4.375
256,192,83581,12,0,83887,0:0:0:0:
256,192,83887,12,0,84193,0:0:0:0:
256,192,84193,12,0,84499,0:0:0:0:
256,192,84500,12,0,84806,0:0:0:0:
256,192,84806,12,0,85214,0:0:0:0:
256,192,85214,12,0,86847,0:0:0:0:
