osu file format v14

[General]
AudioFilename: audio.mp3
AudioLeadIn: 0
PreviewTime: 49454
Countdown: 0
SampleSet: Normal
StackLeniency: 0.7
Mode: 1
LetterboxInBreaks: 0
WidescreenStoryboard: 0

[Editor]
DistanceSpacing: 0.1
BeatDivisor: 4
GridSize: 32
TimelineZoom: 1.7

[Metadata]
Title:Theater of Life (TV Size)
TitleUnicode:Theater of Life (TV Size)
Artist:Suzuki Konomi
ArtistUnicode:鈴木このみ
Creator:taiko_maniac1811
Version:Oni
Source:デカダンス
Tags:Deca-Dence decadence dekadansu opening op anime japanese jpop j-pop pop jrock j-rock rock theatre
BeatmapID:2539953
BeatmapSetID:1220994

[Difficulty]
HPDrainRate:6
CircleSize:5
OverallDifficulty:5.5
ApproachRate:8
SliderMultiplier:1.4
SliderTickRate:1

[Events]
//Background and Video events
0,0,"bg.jpg",0,0
//Break Periods
//Storyboard Layer 0 (Background)
//Storyboard Layer 1 (Fail)
//Storyboard Layer 2 (Pass)
//Storyboard Layer 3 (Foreground)
//Storyboard Layer 4 (Overlay)
//Storyboard Sound Samples

[TimingPoints]
-15,303.030303030303,4,1,0,90,1,0
1045,-100,4,1,0,90,0,1
1197,303.030303030303,4,1,0,90,1,1
10742,-100,4,1,0,90,0,0
11197,-100,4,1,0,70,0,0
18469,-100,4,1,0,75,0,0
18772,-100,4,1,0,80,0,0
19985,-100,4,1,0,70,0,0
20136,-100,4,1,0,75,0,0
20288,-100,4,1,0,80,0,0
20439,-100,4,1,0,90,0,0
30591,-100,4,1,0,75,0,0
37409,-100,4,1,0,90,0,0
37712,-100,4,1,0,75,0,0
37863,-100,4,1,0,80,0,0
38015,-100,4,1,0,90,0,0
38318,-100,4,1,0,75,0,0
38469,-100,4,1,0,80,0,0
38621,-100,4,1,0,90,0,0
38924,-100,4,1,0,75,0,0
39075,-100,4,1,0,80,0,0
39227,-100,4,1,0,75,0,0
39681,-100,4,1,0,80,0,0
39833,-100,4,1,0,90,0,0
44681,-100,4,1,0,80,0,0
47106,-100,4,1,0,85,0,0
49530,-100,4,1,0,90,0,1
77409,-100,4,1,0,90,0,0
78621,-100,4,1,0,90,0,1
88318,-100,4,1,0,90,0,0

[HitObjects]
256,192,1045,5,4,0:0:0:0:
256,192,1348,1,0,0:0:0:0:
256,192,1500,1,8,0:0:0:0:
256,192,1575,1,8,0:0:0:0:
256,192,1651,1,0,0:0:0:0:
256,192,1803,1,0,0:0:0:0:
256,192,1954,1,0,0:0:0:0:
256,192,2106,1,8,0:0:0:0:
256,192,2257,1,0,0:0:0:0:
256,192,2560,1,0,0:0:0:0:
256,192,2712,1,8,0:0:0:0:
256,192,2787,1,8,0:0:0:0:
256,192,2863,1,0,0:0:0:0:
256,192,3015,1,0,0:0:0:0:
256,192,3166,1,8,0:0:0:0:
256,192,3318,1,8,0:0:0:0:
256,192,3469,1,0,0:0:0:0:
256,192,3772,1,0,0:0:0:0:
256,192,3924,1,8,0:0:0:0:
256,192,4000,1,8,0:0:0:0:
256,192,4075,1,0,0:0:0:0:
256,192,4227,1,0,0:0:0:0:
256,192,4378,1,8,0:0:0:0:
256,192,4530,1,8,0:0:0:0:
256,192,4681,1,8,0:0:0:0:
256,192,4757,1,8,0:0:0:0:
256,192,4833,1,0,0:0:0:0:
256,192,4984,1,8,0:0:0:0:
256,192,5136,1,0,0:0:0:0:
256,192,5287,1,8,0:0:0:0:
256,192,5363,1,8,0:0:0:0:
256,192,5439,1,0,0:0:0:0:
256,192,5590,1,8,0:0:0:0:
256,192,5666,1,8,0:0:0:0:
256,192,5742,1,8,0:0:0:0:
256,192,5893,1,4,0:0:0:0:
256,192,6197,1,0,0:0:0:0:
256,192,6348,1,8,0:0:0:0:
256,192,6424,1,8,0:0:0:0:
256,192,6500,1,0,0:0:0:0:
256,192,6651,1,0,0:0:0:0:
256,192,6803,1,0,0:0:0:0:
256,192,6954,1,8,0:0:0:0:
256,192,7106,1,0,0:0:0:0:
256,192,7409,1,0,0:0:0:0:
256,192,7560,1,8,0:0:0:0:
256,192,7636,1,8,0:0:0:0:
256,192,7712,1,0,0:0:0:0:
256,192,7863,1,0,0:0:0:0:
256,192,8015,1,8,0:0:0:0:
256,192,8166,1,8,0:0:0:0:
256,192,8318,1,0,0:0:0:0:
256,192,8621,1,0,0:0:0:0:
256,192,8697,1,0,0:0:0:0:
256,192,8772,1,8,0:0:0:0:
256,192,8924,1,0,0:0:0:0:
256,192,9075,1,8,0:0:0:0:
256,192,9227,1,0,0:0:0:0:
256,192,9303,1,0,0:0:0:0:
256,192,9378,1,8,0:0:0:0:
256,192,9530,1,0,0:0:0:0:
256,192,9833,1,0,0:0:0:0:
256,192,9909,1,8,0:0:0:0:
256,192,9984,1,8,0:0:0:0:
256,192,10136,1,0,0:0:0:0:
256,192,10287,1,8,0:0:0:0:
256,192,10363,1,8,0:0:0:0:
256,192,10439,1,0,0:0:0:0:
256,192,10590,1,8,0:0:0:0:
256,192,10742,1,0,0:0:0:0:
256,192,11197,1,8,0:0:0:0:
256,192,11500,1,8,0:0:0:0:
256,192,11803,1,8,0:0:0:0:
256,192,12106,1,8,0:0:0:0:
256,192,12409,1,8,0:0:0:0:
256,192,12712,1,8,0:0:0:0:
256,192,12863,1,0,0:0:0:0:
256,192,13015,1,8,0:0:0:0:
256,192,13166,1,0,0:0:0:0:
256,192,13318,1,8,0:0:0:0:
256,192,13621,1,8,0:0:0:0:
256,192,13924,1,8,0:0:0:0:
256,192,14227,1,8,0:0:0:0:
256,192,14530,1,8,0:0:0:0:
256,192,14833,1,8,0:0:0:0:
256,192,15136,1,8,0:0:0:0:
256,192,15287,1,0,0:0:0:0:
256,192,15439,1,8,0:0:0:0:
256,192,15590,1,0,0:0:0:0:
256,192,15742,1,8,0:0:0:0:
256,192,16045,1,8,0:0:0:0:
256,192,16348,1,8,0:0:0:0:
256,192,16500,1,0,0:0:0:0:
256,192,16651,1,8,0:0:0:0:
256,192,16803,1,0,0:0:0:0:
256,192,16954,1,8,0:0:0:0:
256,192,17257,1,8,0:0:0:0:
256,192,17560,1,8,0:0:0:0:
256,192,17712,1,0,0:0:0:0:
256,192,17863,1,8,0:0:0:0:
256,192,18015,1,0,0:0:0:0:
256,192,18166,1,8,0:0:0:0:
256,192,18469,1,8,0:0:0:0:
256,192,18772,1,8,0:0:0:0:
256,192,18924,1,0,0:0:0:0:
256,192,19075,1,8,0:0:0:0:
256,192,19227,1,8,0:0:0:0:
256,192,19530,1,0,0:0:0:0:
256,192,19681,1,8,0:0:0:0:
256,192,19833,1,0,0:0:0:0:
256,192,19909,1,0,0:0:0:0:
256,192,19984,1,8,0:0:0:0:
256,192,20136,1,0,0:0:0:0:
256,192,20287,1,8,0:0:0:0:
256,192,20439,1,4,0:0:0:0:
256,192,20742,1,0,0:0:0:0:
256,192,20893,1,8,0:0:0:0:
256,192,21197,1,0,0:0:0:0:
256,192,21424,1,0,0:0:0:0:
256,192,21500,1,8,0:0:0:0:
256,192,21651,1,0,0:0:0:0:
256,192,21954,1,0,0:0:0:0:
256,192,22106,1,8,0:0:0:0:
256,192,22409,1,0,0:0:0:0:
256,192,22560,1,0,0:0:0:0:
256,192,22636,1,0,0:0:0:0:
256,192,22712,1,8,0:0:0:0:
256,192,22863,1,0,0:0:0:0:
256,192,23166,1,0,0:0:0:0:
256,192,23318,1,8,0:0:0:0:
256,192,23469,1,0,0:0:0:0:
256,192,23621,1,0,0:0:0:0:
256,192,23772,1,0,0:0:0:0:
256,192,23848,1,0,0:0:0:0:
256,192,23924,1,8,0:0:0:0:
256,192,24075,1,0,0:0:0:0:
256,192,24378,1,0,0:0:0:0:
256,192,24530,1,8,0:0:0:0:
256,192,24681,1,0,0:0:0:0:
256,192,24984,1,0,0:0:0:0:
256,192,25060,1,0,0:0:0:0:
256,192,25136,1,8,0:0:0:0:
256,192,25287,1,4,0:0:0:0:
256,192,25590,1,0,0:0:0:0:
256,192,25742,1,8,0:0:0:0:
256,192,26045,1,0,0:0:0:0:
256,192,26272,1,0,0:0:0:0:
256,192,26348,1,8,0:0:0:0:
256,192,26500,1,0,0:0:0:0:
256,192,26803,1,0,0:0:0:0:
256,192,26954,1,8,0:0:0:0:
256,192,27257,1,0,0:0:0:0:
256,192,27409,1,0,0:0:0:0:
256,192,27484,1,0,0:0:0:0:
256,192,27560,1,8,0:0:0:0:
256,192,27712,1,0,0:0:0:0:
256,192,28015,1,0,0:0:0:0:
256,192,28166,1,8,0:0:0:0:
256,192,28318,1,0,0:0:0:0:
256,192,28469,1,0,0:0:0:0:
256,192,28696,1,0,0:0:0:0:
256,192,28772,1,8,0:0:0:0:
256,192,28924,1,0,0:0:0:0:
256,192,29227,1,0,0:0:0:0:
256,192,29378,1,8,0:0:0:0:
256,192,29681,1,0,0:0:0:0:
256,192,29757,1,0,0:0:0:0:
256,192,29833,1,0,0:0:0:0:
256,192,29909,1,0,0:0:0:0:
256,192,29984,1,8,0:0:0:0:
256,192,30136,1,0,0:0:0:0:
256,192,30590,1,0,0:0:0:0:
256,192,30893,1,0,0:0:0:0:
256,192,31196,1,0,0:0:0:0:
256,192,31348,1,8,0:0:0:0:
256,192,31500,1,0,0:0:0:0:
256,192,31651,1,8,0:0:0:0:
256,192,31803,1,0,0:0:0:0:
256,192,32106,1,0,0:0:0:0:
256,192,32257,1,8,0:0:0:0:
256,192,32560,1,8,0:0:0:0:
256,192,32712,1,0,0:0:0:0:
256,192,33015,1,0,0:0:0:0:
256,192,33318,1,0,0:0:0:0:
256,192,33621,1,0,0:0:0:0:
256,192,33772,1,8,0:0:0:0:
256,192,33924,1,0,0:0:0:0:
256,192,34075,1,8,0:0:0:0:
256,192,34227,1,0,0:0:0:0:
256,192,34530,1,0,0:0:0:0:
256,192,34681,1,8,0:0:0:0:
256,192,34833,1,0,0:0:0:0:
256,192,34984,1,8,0:0:0:0:
256,192,35136,1,0,0:0:0:0:
256,192,35439,1,0,0:0:0:0:
256,192,35742,1,0,0:0:0:0:
256,192,36045,1,0,0:0:0:0:
256,192,36197,1,8,0:0:0:0:
256,192,36348,1,0,0:0:0:0:
256,192,36651,1,8,0:0:0:0:
256,192,36954,1,0,0:0:0:0:
256,192,37106,1,0,0:0:0:0:
256,192,37409,1,4,0:0:0:0:
256,192,37712,1,0,0:0:0:0:
256,192,37863,1,8,0:0:0:0:
256,192,38015,1,4,0:0:0:0:
256,192,38318,1,0,0:0:0:0:
256,192,38469,1,8,0:0:0:0:
256,192,38621,1,4,0:0:0:0:
256,192,38924,1,0,0:0:0:0:
256,192,39075,1,8,0:0:0:0:
256,192,39227,1,0,0:0:0:0:
256,192,39303,1,0,0:0:0:0:
256,192,39378,1,0,0:0:0:0:
256,192,39530,1,0,0:0:0:0:
256,192,39681,1,8,0:0:0:0:
256,192,39833,1,4,0:0:0:0:
256,192,40136,1,0,0:0:0:0:
256,192,40287,1,8,0:0:0:0:
256,192,40439,1,0,0:0:0:0:
256,192,40515,1,0,0:0:0:0:
256,192,40590,1,8,0:0:0:0:
256,192,40742,1,0,0:0:0:0:
256,192,40893,1,8,0:0:0:0:
256,192,41045,1,0,0:0:0:0:
256,192,41121,1,0,0:0:0:0:
256,192,41197,1,8,0:0:0:0:
256,192,41348,1,0,0:0:0:0:
256,192,41500,1,8,0:0:0:0:
256,192,41651,1,0,0:0:0:0:
256,192,41954,1,0,0:0:0:0:
256,192,42106,1,8,0:0:0:0:
256,192,42257,1,0,0:0:0:0:
256,192,42333,1,0,0:0:0:0:
256,192,42409,1,0,0:0:0:0:
256,192,42560,1,0,0:0:0:0:
256,192,42712,1,8,0:0:0:0:
256,192,42863,1,0,0:0:0:0:
256,192,42939,1,0,0:0:0:0:
256,192,43015,1,0,0:0:0:0:
256,192,43166,1,0,0:0:0:0:
256,192,43318,1,8,0:0:0:0:
256,192,43469,1,4,0:0:0:0:
256,192,43772,1,0,0:0:0:0:
256,192,43924,1,8,0:0:0:0:
256,192,44227,1,8,0:0:0:0:
256,192,44303,1,8,0:0:0:0:
256,192,44378,1,8,0:0:0:0:
256,192,44454,1,8,0:0:0:0:
256,192,44530,1,8,0:0:0:0:
256,192,44681,1,0,0:0:0:0:
256,192,44984,1,0,0:0:0:0:
256,192,45136,1,8,0:0:0:0:
256,192,45363,1,0,0:0:0:0:
256,192,45439,1,0,0:0:0:0:
256,192,45590,1,0,0:0:0:0:
256,192,45742,1,8,0:0:0:0:
256,192,45893,1,0,0:0:0:0:
256,192,46196,1,0,0:0:0:0:
256,192,46348,1,8,0:0:0:0:
256,192,46575,1,0,0:0:0:0:
256,192,46651,1,0,0:0:0:0:
256,192,46803,1,0,0:0:0:0:
256,192,46954,1,8,0:0:0:0:
256,192,47106,1,0,0:0:0:0:
256,192,47409,1,0,0:0:0:0:
256,192,47560,2,0,L|313:191,8,35
256,192,48318,1,0,0:0:0:0:
256,192,48621,1,0,0:0:0:0:
256,192,48924,1,0,0:0:0:0:
256,192,49075,1,0,0:0:0:0:
256,192,49227,1,8,0:0:0:0:
256,192,49530,1,4,0:0:0:0:
256,192,49833,1,0,0:0:0:0:
256,192,49984,1,8,0:0:0:0:
256,192,50212,1,0,0:0:0:0:
256,192,50287,1,0,0:0:0:0:
256,192,50439,1,0,0:0:0:0:
256,192,50590,1,8,0:0:0:0:
256,192,50742,1,0,0:0:0:0:
256,192,51045,1,0,0:0:0:0:
256,192,51196,1,8,0:0:0:0:
256,192,51424,1,0,0:0:0:0:
256,192,51500,1,0,0:0:0:0:
256,192,51651,1,0,0:0:0:0:
256,192,51803,1,8,0:0:0:0:
256,192,51954,1,0,0:0:0:0:
256,192,52257,1,0,0:0:0:0:
256,192,52409,1,8,0:0:0:0:
256,192,52560,1,0,0:0:0:0:
256,192,52863,1,0,0:0:0:0:
256,192,52939,1,0,0:0:0:0:
256,192,53015,1,8,0:0:0:0:
256,192,53166,1,0,0:0:0:0:
256,192,53469,1,0,0:0:0:0:
256,192,53545,1,0,0:0:0:0:
256,192,53621,1,8,0:0:0:0:
256,192,53772,1,0,0:0:0:0:
256,192,53924,1,8,0:0:0:0:
256,192,54000,1,8,0:0:0:0:
256,192,54075,1,8,0:0:0:0:
256,192,54151,1,8,0:0:0:0:
256,192,54227,1,8,0:0:0:0:
256,192,54378,1,4,0:0:0:0:
256,192,54681,1,0,0:0:0:0:
256,192,54833,1,8,0:0:0:0:
256,192,55060,1,0,0:0:0:0:
256,192,55136,1,0,0:0:0:0:
256,192,55287,1,0,0:0:0:0:
256,192,55439,1,8,0:0:0:0:
256,192,55590,1,0,0:0:0:0:
256,192,55893,1,0,0:0:0:0:
256,192,56045,1,8,0:0:0:0:
256,192,56272,1,0,0:0:0:0:
256,192,56348,1,0,0:0:0:0:
256,192,56500,1,0,0:0:0:0:
256,192,56651,1,8,0:0:0:0:
256,192,56803,1,4,0:0:0:0:
256,192,57106,1,0,0:0:0:0:
256,192,57257,1,8,0:0:0:0:
256,192,57409,1,0,0:0:0:0:
256,192,57484,1,0,0:0:0:0:
256,192,57560,1,8,0:0:0:0:
256,192,57712,1,0,0:0:0:0:
256,192,57863,1,8,0:0:0:0:
256,192,58015,1,4,0:0:0:0:
256,192,58318,1,0,0:0:0:0:
256,192,58469,1,8,0:0:0:0:
256,192,58621,1,0,0:0:0:0:
256,192,58696,1,0,0:0:0:0:
256,192,58772,1,8,0:0:0:0:
256,192,58924,1,0,0:0:0:0:
256,192,59000,1,0,0:0:0:0:
256,192,59075,1,0,0:0:0:0:
256,192,59151,1,0,0:0:0:0:
256,192,59227,1,0,0:0:0:0:
256,192,59530,1,0,0:0:0:0:
256,192,59681,1,8,0:0:0:0:
256,192,59909,1,0,0:0:0:0:
256,192,59984,1,0,0:0:0:0:
256,192,60136,1,0,0:0:0:0:
256,192,60287,1,8,0:0:0:0:
256,192,60439,1,8,0:0:0:0:
256,192,60742,1,0,0:0:0:0:
256,192,60893,1,8,0:0:0:0:
256,192,61121,1,0,0:0:0:0:
256,192,61196,1,0,0:0:0:0:
256,192,61348,1,0,0:0:0:0:
256,192,61500,1,8,0:0:0:0:
256,192,61651,1,0,0:0:0:0:
256,192,61954,1,0,0:0:0:0:
256,192,62106,1,8,0:0:0:0:
256,192,62257,1,0,0:0:0:0:
256,192,62560,1,0,0:0:0:0:
256,192,62636,1,0,0:0:0:0:
256,192,62712,1,8,0:0:0:0:
256,192,62863,1,0,0:0:0:0:
256,192,63166,1,0,0:0:0:0:
256,192,63318,1,8,0:0:0:0:
256,192,63469,1,0,0:0:0:0:
256,192,63545,1,0,0:0:0:0:
256,192,63621,1,8,0:0:0:0:
256,192,63772,1,0,0:0:0:0:
256,192,63924,1,8,0:0:0:0:
256,192,64000,1,8,0:0:0:0:
256,192,64075,1,0,0:0:0:0:
256,192,64378,1,0,0:0:0:0:
256,192,64530,1,8,0:0:0:0:
256,192,64757,1,0,0:0:0:0:
256,192,64833,1,0,0:0:0:0:
256,192,64984,1,0,0:0:0:0:
256,192,65136,1,8,0:0:0:0:
256,192,65287,1,0,0:0:0:0:
256,192,65590,1,0,0:0:0:0:
256,192,65742,1,8,0:0:0:0:
256,192,65893,1,0,0:0:0:0:
256,192,66197,1,0,0:0:0:0:
256,192,66272,1,0,0:0:0:0:
256,192,66348,1,8,0:0:0:0:
256,192,66500,1,4,0:0:0:0:
256,192,66803,1,0,0:0:0:0:
256,192,66954,1,8,0:0:0:0:
256,192,67106,1,0,0:0:0:0:
256,192,67409,1,0,0:0:0:0:
256,192,67484,1,0,0:0:0:0:
256,192,67560,1,8,0:0:0:0:
256,192,67712,1,4,0:0:0:0:
256,192,68015,1,0,0:0:0:0:
256,192,68166,1,8,0:0:0:0:
256,192,68469,1,8,0:0:0:0:
256,192,68545,1,8,0:0:0:0:
256,192,68621,1,8,0:0:0:0:
256,192,68697,1,8,0:0:0:0:
256,192,68772,1,8,0:0:0:0:
256,192,68924,1,4,0:0:0:0:
256,192,69227,1,0,0:0:0:0:
256,192,69378,1,8,0:0:0:0:
256,192,69530,1,0,0:0:0:0:
256,192,69606,1,0,0:0:0:0:
256,192,69681,1,8,0:0:0:0:
256,192,69833,1,0,0:0:0:0:
256,192,69984,1,8,0:0:0:0:
256,192,70136,1,0,0:0:0:0:
256,192,70439,1,0,0:0:0:0:
256,192,70590,1,8,0:0:0:0:
256,192,70742,1,0,0:0:0:0:
256,192,70818,1,0,0:0:0:0:
256,192,70893,1,0,0:0:0:0:
256,192,71045,1,0,0:0:0:0:
256,192,71197,1,8,0:0:0:0:
256,192,71348,1,4,0:0:0:0:
256,192,71651,1,0,0:0:0:0:
256,192,71803,1,8,0:0:0:0:
256,192,71954,1,0,0:0:0:0:
256,192,72030,1,0,0:0:0:0:
256,192,72106,1,8,0:0:0:0:
256,192,72257,1,0,0:0:0:0:
256,192,72409,1,8,0:0:0:0:
256,192,72560,1,0,0:0:0:0:
256,192,72863,1,8,0:0:0:0:
256,192,72939,1,8,0:0:0:0:
256,192,73015,1,8,0:0:0:0:
256,192,73166,1,4,0:0:0:0:
256,192,73469,1,4,0:0:0:0:
256,192,73772,1,4,0:0:0:0:
256,192,74075,1,0,0:0:0:0:
256,192,74227,1,8,0:0:0:0:
256,192,74378,1,0,0:0:0:0:
256,192,74454,1,0,0:0:0:0:
256,192,74530,1,0,0:0:0:0:
256,192,74681,1,0,0:0:0:0:
256,192,74833,1,8,0:0:0:0:
256,192,74984,1,0,0:0:0:0:
256,192,75287,1,0,0:0:0:0:
256,192,75439,1,8,0:0:0:0:
256,192,75590,1,0,0:0:0:0:
256,192,75666,1,0,0:0:0:0:
256,192,75742,1,8,0:0:0:0:
256,192,75893,1,0,0:0:0:0:
256,192,76045,1,8,0:0:0:0:
256,192,76197,1,0,0:0:0:0:
256,192,76500,1,0,0:0:0:0:
256,192,76651,1,0,0:0:0:0:
256,192,76803,1,0,0:0:0:0:
256,192,76954,1,0,0:0:0:0:
256,192,77106,1,0,0:0:0:0:
256,192,77257,1,0,0:0:0:0:
256,192,77409,1,8,0:0:0:0:
256,192,78318,1,8,0:0:0:0:
256,192,78621,1,4,0:0:0:0:
256,192,78924,1,0,0:0:0:0:
256,192,79075,1,8,0:0:0:0:
256,192,79151,1,8,0:0:0:0:
256,192,79227,1,0,0:0:0:0:
256,192,79378,1,0,0:0:0:0:
256,192,79530,1,0,0:0:0:0:
256,192,79681,1,8,0:0:0:0:
256,192,79833,1,0,0:0:0:0:
256,192,80136,1,0,0:0:0:0:
256,192,80287,1,8,0:0:0:0:
256,192,80363,1,8,0:0:0:0:
256,192,80439,1,0,0:0:0:0:
256,192,80590,1,0,0:0:0:0:
256,192,80742,1,8,0:0:0:0:
256,192,80893,1,8,0:0:0:0:
256,192,81045,1,0,0:0:0:0:
256,192,81348,1,0,0:0:0:0:
256,192,81500,1,8,0:0:0:0:
256,192,81575,1,8,0:0:0:0:
256,192,81651,1,0,0:0:0:0:
256,192,81803,1,0,0:0:0:0:
256,192,81954,1,8,0:0:0:0:
256,192,82106,1,8,0:0:0:0:
256,192,82257,1,8,0:0:0:0:
256,192,82333,1,8,0:0:0:0:
256,192,82409,1,0,0:0:0:0:
256,192,82560,1,8,0:0:0:0:
256,192,82712,1,0,0:0:0:0:
256,192,82863,1,8,0:0:0:0:
256,192,82939,1,8,0:0:0:0:
256,192,83015,1,0,0:0:0:0:
256,192,83166,1,8,0:0:0:0:
256,192,83242,1,8,0:0:0:0:
256,192,83318,1,8,0:0:0:0:
256,192,83469,1,4,0:0:0:0:
256,192,83772,1,0,0:0:0:0:
256,192,83924,1,8,0:0:0:0:
256,192,84000,1,8,0:0:0:0:
256,192,84075,1,0,0:0:0:0:
256,192,84151,1,8,0:0:0:0:
256,192,84227,1,0,0:0:0:0:
256,192,84378,1,0,0:0:0:0:
256,192,84530,1,8,0:0:0:0:
256,192,84681,1,0,0:0:0:0:
256,192,84984,1,0,0:0:0:0:
256,192,85136,1,8,0:0:0:0:
256,192,85212,1,8,0:0:0:0:
256,192,85287,1,0,0:0:0:0:
256,192,85363,1,8,0:0:0:0:
256,192,85439,1,0,0:0:0:0:
256,192,85590,1,8,0:0:0:0:
256,192,85742,1,8,0:0:0:0:
256,192,85893,1,0,0:0:0:0:
256,192,86196,1,0,0:0:0:0:
256,192,86272,1,0,0:0:0:0:
256,192,86348,1,8,0:0:0:0:
256,192,86500,1,0,0:0:0:0:
256,192,86651,1,8,0:0:0:0:
256,192,86727,1,8,0:0:0:0:
256,192,86803,1,0,0:0:0:0:
256,192,86878,1,0,0:0:0:0:
256,192,86954,1,8,0:0:0:0:
256,192,87106,1,0,0:0:0:0:
256,192,87409,1,0,0:0:0:0:
256,192,87484,1,8,0:0:0:0:
256,192,87560,1,8,0:0:0:0:
256,192,87712,1,0,0:0:0:0:
256,192,87863,1,8,0:0:0:0:
256,192,87939,1,8,0:0:0:0:
256,192,88015,1,0,0:0:0:0:
256,192,88166,1,8,0:0:0:0:
256,192,88318,1,12,0:0:0:0:
