osu file format v14

[General]
AudioFilename: audio.mp3
AudioLeadIn: 0
PreviewTime: 49454
Countdown: 0
SampleSet: Normal
StackLeniency: 0.7
Mode: 1
LetterboxInBreaks: 0
WidescreenStoryboard: 1

[Editor]
DistanceSpacing: 0.1
BeatDivisor: 2
GridSize: 32
TimelineZoom: 0.6999998

[Metadata]
Title:Theater of Life (TV Size)
TitleUnicode:Theater of Life (TV Size)
Artist:Suzuki Konomi
ArtistUnicode:鈴木このみ
Creator:taiko_maniac1811
Version:Kantan
Source:デカダンス
Tags:Deca-Dence decadence dekadansu opening op anime japanese jpop j-pop pop jrock j-rock rock theatre
BeatmapID:2539951
BeatmapSetID:1220994

[Difficulty]
HPDrainRate:8
CircleSize:5
OverallDifficulty:4
ApproachRate:4
SliderMultiplier:1.4
SliderTickRate:1

[Events]
//Background and Video events
0,0,"bg.jpg",0,0
//Break Periods
//Storyboard Layer 0 (Background)
//Storyboard Layer 1 (Fail)
//Storyboard Layer 2 (Pass)
//Storyboard Layer 3 (Foreground)
//Storyboard Layer 4 (Overlay)
//Storyboard Sound Samples

[TimingPoints]
-15,303.030303030303,4,1,0,90,1,0
1045,-100,4,1,0,90,0,1
1197,303.030303030303,4,1,0,90,1,1
10742,-100,4,1,0,90,0,0
11197,-100,4,1,0,70,0,0
18469,-100,4,1,0,75,0,0
18772,-100,4,1,0,80,0,0
19985,-100,4,1,0,70,0,0
20136,-100,4,1,0,75,0,0
20288,-100,4,1,0,80,0,0
20439,-100,4,1,0,90,0,0
30591,-100,4,1,0,75,0,0
37409,-100,4,1,0,90,0,0
37712,-100,4,1,0,75,0,0
37863,-100,4,1,0,80,0,0
38015,-100,4,1,0,90,0,0
38318,-100,4,1,0,75,0,0
38469,-100,4,1,0,80,0,0
38621,-100,4,1,0,90,0,0
38924,-100,4,1,0,75,0,0
39075,-100,4,1,0,80,0,0
39227,-100,4,1,0,75,0,0
39681,-100,4,1,0,80,0,0
39833,-100,4,1,0,90,0,0
44681,-100,4,1,0,80,0,0
47106,-100,4,1,0,85,0,0
49530,-100,4,1,0,90,0,1
77409,-100,4,1,0,90,0,0
78621,-100,4,1,0,90,0,1
88318,-100,4,1,0,90,0,0

[HitObjects]
256,192,1045,5,4,0:0:0:0:
256,192,1803,1,0,0:0:0:0:
256,192,2257,1,0,0:0:0:0:
256,192,3015,1,0,0:0:0:0:
256,192,3469,1,0,0:0:0:0:
256,192,4227,1,0,0:0:0:0:
256,192,4681,1,0,0:0:0:0:
256,192,5287,1,8,0:0:0:0:
256,192,5893,1,4,0:0:0:0:
256,192,6651,1,0,0:0:0:0:
256,192,7106,1,0,0:0:0:0:
256,192,7863,1,0,0:0:0:0:
256,192,8318,1,0,0:0:0:0:
256,192,8924,1,8,0:0:0:0:
256,192,9530,8,0,10742,0:0:0:0:
256,192,11197,5,8,0:0:0:0:
256,192,11803,1,8,0:0:0:0:
256,192,12409,1,8,0:0:0:0:
256,192,13015,1,8,0:0:0:0:
256,192,13621,1,8,0:0:0:0:
256,192,14833,1,8,0:0:0:0:
256,192,16045,1,8,0:0:0:0:
256,192,16651,1,8,0:0:0:0:
256,192,17257,1,8,0:0:0:0:
256,192,17863,1,8,0:0:0:0:
256,192,18469,1,8,0:0:0:0:
256,192,18772,1,8,0:0:0:0:
256,192,19075,1,8,0:0:0:0:
256,192,19378,1,8,0:0:0:0:
256,192,19833,1,8,0:0:0:0:
256,192,20439,1,4,0:0:0:0:
256,192,21197,1,0,0:0:0:0:
256,192,21651,1,0,0:0:0:0:
256,192,22409,1,0,0:0:0:0:
256,192,22863,1,0,0:0:0:0:
256,192,23621,1,0,0:0:0:0:
256,192,24075,1,0,0:0:0:0:
256,192,24833,1,8,0:0:0:0:
256,192,25287,1,4,0:0:0:0:
256,192,26045,1,0,0:0:0:0:
256,192,26500,1,0,0:0:0:0:
256,192,27257,1,0,0:0:0:0:
256,192,27712,1,0,0:0:0:0:
256,192,28469,1,0,0:0:0:0:
256,192,28924,1,0,0:0:0:0:
256,192,29681,2,0,L|352:192,3,70
256,192,30893,1,0,0:0:0:0:
256,192,31348,1,8,0:0:0:0:
256,192,32106,1,0,0:0:0:0:
256,192,32560,1,0,0:0:0:0:
256,192,33318,1,8,0:0:0:0:
256,192,33772,1,8,0:0:0:0:
256,192,34984,1,0,0:0:0:0:
256,192,35742,1,0,0:0:0:0:
256,192,36197,1,8,0:0:0:0:
256,192,36954,1,0,0:0:0:0:
256,192,37409,1,4,0:0:0:0:
256,192,38621,1,4,0:0:0:0:
256,192,39227,1,8,0:0:0:0:
256,192,39833,1,4,0:0:0:0:
256,192,40590,1,8,0:0:0:0:
256,192,41197,1,8,0:0:0:0:
256,192,41803,1,8,0:0:0:0:
256,192,42409,1,0,0:0:0:0:
256,192,43015,1,0,0:0:0:0:
256,192,43469,1,4,0:0:0:0:
256,192,44227,2,0,L|384:192,3,70
256,192,45439,1,0,0:0:0:0:
256,192,45893,1,0,0:0:0:0:
256,192,46651,1,8,0:0:0:0:
256,192,47106,8,0,48318,0:0:0:0:
256,192,48621,5,0,0:0:0:0:
256,192,48924,1,0,0:0:0:0:
256,192,49227,1,8,0:0:0:0:
256,192,49530,1,4,0:0:0:0:
256,192,50287,1,0,0:0:0:0:
256,192,50742,1,0,0:0:0:0:
256,192,51500,1,0,0:0:0:0:
256,192,51954,1,0,0:0:0:0:
256,192,52560,1,0,0:0:0:0:
256,192,53166,1,0,0:0:0:0:
256,192,53772,1,8,0:0:0:0:
256,192,54075,1,8,0:0:0:0:
256,192,54378,1,12,0:0:0:0:
256,192,55136,1,0,0:0:0:0:
256,192,55590,1,0,0:0:0:0:
256,192,56045,1,0,0:0:0:0:
256,192,56803,1,12,0:0:0:0:
256,192,57560,1,8,0:0:0:0:
256,192,58015,1,12,0:0:0:0:
256,192,58772,1,8,0:0:0:0:
256,192,59227,1,4,0:0:0:0:
256,192,59984,1,0,0:0:0:0:
256,192,60439,1,0,0:0:0:0:
256,192,61196,1,0,0:0:0:0:
256,192,61651,1,0,0:0:0:0:
256,192,62257,1,0,0:0:0:0:
256,192,62863,1,0,0:0:0:0:
256,192,63318,1,0,0:0:0:0:
256,192,63621,1,0,0:0:0:0:
256,192,64075,1,8,0:0:0:0:
256,192,64833,1,8,0:0:0:0:
256,192,65287,1,8,0:0:0:0:
256,192,65893,1,8,0:0:0:0:
256,192,66500,1,4,0:0:0:0:
256,192,67106,1,8,0:0:0:0:
256,192,67712,1,4,0:0:0:0:
256,192,68469,1,8,0:0:0:0:
256,192,68924,1,4,0:0:0:0:
256,192,69833,1,0,0:0:0:0:
256,192,70136,1,0,0:0:0:0:
256,192,70893,1,0,0:0:0:0:
256,192,71348,1,12,0:0:0:0:
256,192,72257,1,8,0:0:0:0:
256,192,72560,1,8,0:0:0:0:
256,192,73166,1,4,0:0:0:0:
256,192,73772,1,4,0:0:0:0:
256,192,74984,1,0,0:0:0:0:
256,192,75742,1,0,0:0:0:0:
256,192,76197,1,0,0:0:0:0:
256,192,76651,8,0,77409,0:0:0:0:
256,192,78621,5,4,0:0:0:0:
256,192,79378,1,0,0:0:0:0:
256,192,79833,1,0,0:0:0:0:
256,192,80590,1,0,0:0:0:0:
256,192,81045,1,0,0:0:0:0:
256,192,81803,1,0,0:0:0:0:
256,192,82257,1,0,0:0:0:0:
256,192,82863,1,8,0:0:0:0:
256,192,83469,1,4,0:0:0:0:
256,192,84227,1,0,0:0:0:0:
256,192,84681,1,0,0:0:0:0:
256,192,85439,1,0,0:0:0:0:
256,192,85893,1,0,0:0:0:0:
256,192,86500,1,8,0:0:0:0:
256,192,87106,8,0,88318,0:0:0:0:
