osu file format v14

[General]
AudioFilename: audio.mp3
AudioLeadIn: 0
PreviewTime: 49481
Countdown: 0
SampleSet: Soft
StackLeniency: 0.7
Mode: 0
LetterboxInBreaks: 0
WidescreenStoryboard: 0

[Editor]
DistanceSpacing: 0.9
BeatDivisor: 4
GridSize: 4
TimelineZoom: 1.7

[Metadata]
Title:Theater of Life (TV Size)
TitleUnicode:Theater of Life (TV Size)
Artist:Suzuki Konomi
ArtistUnicode:鈴木このみ
Creator:kunka
Version:Normal
Source:デカダンス
Tags:op opening anime japanese jpop j-pop j_pop DECA-DENCE browiec Affirmation Neoskylove -Brethia _kotachi_ kotachi kunkakunkakunkakunka
BeatmapID:2541313
BeatmapSetID:1218183

[Difficulty]
HPDrainRate:4
CircleSize:3.5
OverallDifficulty:5
ApproachRate:5.5
SliderMultiplier:1.1
SliderTickRate:1

[Events]
//Background and Video events
0,0,"BG.jpg",0,0
Video,0,"Theater of Life.mp4"
//Break Periods
//Storyboard Layer 0 (Background)
//Storyboard Layer 1 (Fail)
//Storyboard Layer 2 (Pass)
//Storyboard Layer 3 (Foreground)
//Storyboard Layer 4 (Overlay)
//Storyboard Sound Samples

[TimingPoints]
12,303.030303030303,4,2,1,60,1,0
1072,-100,4,2,1,70,0,0
10769,-111.111111111111,4,2,1,40,0,0
18648,-105.263157894737,4,2,1,50,0,0
20466,-100,4,2,1,60,0,0
30163,-105.263157894737,4,2,1,50,0,0
37436,-100,4,2,1,60,0,0
47133,-100,4,2,1,65,0,0
48345,-100,4,2,1,55,0,0
49102,-100,4,2,1,50,0,0
49557,-95.2380952380952,4,2,1,75,0,1
68875,-95.2380952380952,4,2,1,75,0,0
68951,-100,4,2,1,60,0,1
77436,-100,4,2,1,60,0,0
78648,-100,4,2,1,70,0,0
88496,-100,4,2,1,70,0,0

[Colours]
Combo1 : 255,128,255
Combo2 : 128,255,128
Combo3 : 128,255,255
Combo4 : 255,128,128
Combo5 : 255,255,128

[HitObjects]
65,310,769,5,4,0:3:0:0:
155,269,1072,6,0,P|207:269|265:283,1,110,4|0,1:0|1:0,0:0:0:0:
310,296,1527,1,8,0:0:0:0:
402,260,1830,2,0,L|409:318,2,55,0|0|8,1:0|1:0|0:0,0:0:0:0:
434,223,2284,2,0,P|442:169|420:119,1,110,0|0,1:0|1:0,0:0:0:0:
389,80,2739,1,8,0:0:0:0:
290,90,3042,2,0,L|297:32,2,55,0|0|8,1:0|1:0|0:0,0:0:0:0:
271,135,3496,6,0,B|245:143|245:143|162:121,1,110,0|0,1:0|1:0,0:0:0:0:
116,110,3951,1,8,0:0:0:0:
24,147,4254,2,0,L|17:89,2,55,0|0|8,1:0|1:0|0:0,0:0:0:0:
20,196,4708,2,0,B|12:222|12:222|33:302,1,110,0|0,1:0|1:0,0:0:0:0:
51,348,5163,1,12,0:0:0:0:
149,360,5466,1,0,1:0:0:0:
223,294,5769,1,8,0:0:0:0:
223,294,5921,6,0,P|238:239|226:187,1,110,4|0,1:0|1:0,0:0:0:0:
206,143,6375,1,8,0:0:0:0:
182,46,6678,2,0,L|126:62,2,55,0|0|8,1:0|1:0|0:0,0:0:0:0:
231,46,7133,2,0,P|283:60|336:49,1,110,0|0,1:0|1:0,0:0:0:0:
384,37,7587,1,8,0:0:0:0:
471,83,7890,2,0,L|487:27,2,55,0|0|8,1:0|1:0|0:0,0:0:0:0:
441,122,8345,6,0,B|433:148|433:148|454:228,1,110,4|0,1:0|1:0,0:0:0:0:
472,274,8799,1,12,0:0:0:0:
384,319,9102,2,0,L|368:375,2,55,12|0|10,0:0|1:0|1:0,0:0:0:0:
366,273,9557,2,0,P|313:258|260:269,1,110,4|0,1:0|1:0,0:0:0:0:
216,293,10012,1,8,0:0:0:0:
122,325,10315,2,0,L|106:272,1,55,8|8,0:3|0:3,0:0:0:0:
66,242,10618,2,0,L|81:189,1,55,8|0,0:3|1:0,0:0:0:0:
137,119,11072,5,2,0:0:0:0:
137,119,11224,2,0,P|127:68|141:21,2,98.9999969787599,2|2|2,0:0|0:0|0:0,0:0:0:0:
166,152,11981,2,0,P|218:145|263:164,1,98.9999969787599,2|2,0:0|0:0,0:0:0:0:
333,212,12587,1,2,0:0:0:0:
333,212,12739,2,0,B|380:225|380:225|429:204,1,98.9999969787599,2|2,0:0|0:0,0:0:0:0:
467,189,13193,6,0,P|485:119|451:46,1,148.49999546814,2|2,1:0|0:0,0:0:0:0:
371,23,13951,2,0,P|321:24|272:31,1,98.9999969787599,2|2,0:0|0:0,0:0:0:0:
186,8,14557,1,2,0:0:0:0:
109,54,14860,1,2,0:0:0:0:
32,100,15163,1,2,0:0:0:0:
32,100,15315,2,0,L|44:208,1,98.9999969787599,2|2,1:0|1:0,0:0:0:0:
99,266,15921,5,2,0:0:0:0:
99,266,16072,2,0,P|73:312|69:359,2,98.9999969787599,2|2|2,0:0|0:0|0:0,0:0:0:0:
133,237,16830,1,2,1:0:0:0:
174,158,17133,2,0,L|163:59,1,98.9999969787599,2|2,0:0|0:0,0:0:0:0:
175,17,17587,2,0,P|222:7|269:24,1,98.9999969787599,2|2,0:0|0:0,0:0:0:0:
295,59,18042,6,0,L|443:43,1,148.49999546814,2|0,1:0|1:0,0:0:0:0:
511,106,18799,1,2,1:0:0:0:
480,194,19102,1,2,1:0:0:0:
480,194,19254,1,2,0:0:0:0:
388,171,19557,2,0,P|337:162|288:177,1,104.499997209549,2|10,0:0|0:0,0:0:0:0:
249,205,20011,1,8,1:0:0:0:
249,205,20163,1,2,1:0:0:0:
151,224,20466,6,0,B|115:206|115:206|37:221,1,110,4|0,1:0|1:0,0:0:0:0:
11,254,20921,2,0,P|-5:304|11:358,2,110,10|2|10,0:0|1:0|0:0,0:0:0:0:
11,204,21678,2,0,P|-5:152|11:100,1,110,2|0,1:0|1:0,0:0:0:0:
36,57,22133,1,10,0:0:0:0:
132,79,22436,1,2,1:0:0:0:
206,12,22739,1,10,0:0:0:0:
206,12,22890,6,0,P|262:16|317:23,1,110,2|2,1:0|1:0,0:0:0:0:
362,39,23345,1,10,0:0:0:0:
431,108,23648,2,0,L|490:99,2,55,2|2|10,1:0|1:0|0:0,0:0:0:0:
396,143,24102,2,0,P|350:157|290:138,1,110,2|2,1:0|1:0,0:0:0:0:
251,111,24557,1,8,0:0:0:0:
213,79,24708,2,0,P|161:61|109:75,1,110,2|2,0:0|1:0,0:0:0:0:
67,103,25163,1,8,0:0:0:0:
44,147,25315,1,4,1:0:0:0:
105,224,25618,5,0,1:0:0:0:
105,224,25769,2,0,P|120:278|105:329,2,110,10|2|10,0:0|1:0|0:0,0:0:0:0:
77,182,26527,2,0,L|62:72,1,110,2|0,1:0|1:0,0:0:0:0:
77,26,26981,1,10,0:0:0:0:
173,47,27284,1,2,1:0:0:0:
270,30,27587,1,10,0:0:0:0:
270,30,27739,6,0,P|322:15|374:30,1,110,2|2,1:0|1:0,0:0:0:0:
418,53,28193,2,0,L|416:107,1,55,10|2,0:0|0:0,0:0:0:0:
384,146,28496,1,2,1:0:0:0:
449,220,28799,1,10,0:0:0:0:
449,220,28951,2,0,B|468:248|468:248|445:327,1,110,2|0,1:0|1:0,0:0:0:0:
410,355,29405,2,0,L|299:345,1,110,12|2,0:0|1:0,0:0:0:0:
250,341,29860,1,2,1:0:0:0:
254,247,30163,6,0,P|269:195|258:146,1,104.499997209549,4|0,0:0|0:0,0:0:0:0:
237,104,30618,1,2,1:0:0:0:
146,78,30921,1,2,1:0:0:0:
69,132,31224,2,0,L|75:188,1,52.2499986047745,2|10,1:0|0:0,0:0:0:0:
116,206,31527,2,0,P|105:256|120:306,1,104.499997209549,0|0,1:0|1:0,0:0:0:0:
212,325,32133,2,0,L|266:318,1,52.2499986047745,2|10,1:0|0:0,0:0:0:0:
309,329,32436,1,0,1:0:0:0:
309,329,32587,6,0,P|360:337|409:320,1,104.499997209549,10|0,0:0|0:0,0:0:0:0:
446,291,33042,1,2,1:0:0:0:
396,211,33345,2,0,P|345:203|296:220,1,104.499997209549,2|2,1:0|1:0,0:0:0:0:
252,238,33799,1,10,0:0:0:0:
204,157,34102,1,2,0:0:0:0:
218,64,34405,1,2,0:0:0:0:
130,28,34708,1,12,0:0:0:0:
48,75,35012,6,0,B|29:99|29:99|42:185,1,104.499997209549,12|0,0:0|0:0,0:0:0:0:
52,217,35466,1,2,1:0:0:0:
106,293,35769,2,0,P|157:285|206:302,1,104.499997209549,2|2,1:0|1:0,0:0:0:0:
249,320,36224,2,0,P|300:328|349:311,1,104.499997209549,10|0,0:0|0:0,0:0:0:0:
391,291,36678,1,2,1:0:0:0:
438,209,36981,1,2,1:0:0:0:
438,209,37133,1,10,0:0:0:0:
391,121,37436,6,0,B|284:103|284:103|231:130,1,165,4|8,1:0|0:0,0:0:0:0:
196,161,38042,2,0,P|139:205|55:179,1,165,4|10,1:0|0:0,0:0:0:0:
48,130,38648,2,0,P|105:86|189:112,1,165,4|8,1:0|0:0,0:0:0:0:
233,128,39254,2,0,L|240:244,1,110,10|10,0:0|0:3,0:0:0:0:
206,331,39860,6,0,B|255:357|255:357|308:347,1,110,4|0,1:0|1:0,0:0:0:0:
358,346,40315,1,10,0:0:0:0:
448,307,40618,2,0,L|453:371,2,55,10|0|10,0:0|1:0|0:0,0:0:0:0:
429,261,41072,1,4,1:0:0:0:
395,224,41224,2,0,B|345:197|345:197|292:207,1,110,2|10,0:0|0:0,0:0:0:0:
244,218,41678,1,2,1:0:0:0:
154,259,41981,2,0,L|155:319,2,55,2|10|6,1:0|0:0|1:0,0:0:0:0:
108,238,42436,6,0,P|88:185|102:134,1,110,2|10,1:0|0:0,0:0:0:0:
132,97,42890,2,0,B|184:77|184:117|240:97,1,110,2|0,1:0|1:0,0:0:0:0:
286,81,43345,1,10,0:0:0:0:
329,56,43496,2,0,P|384:49|431:73,1,110,4|0,1:0|1:0,0:0:0:0:
470,103,43951,1,8,0:0:0:0:
417,187,44254,2,0,B|409:217|409:217|427:298,1,110,2|10,1:0|0:0,0:0:0:0:
427,343,44708,6,0,P|375:333|319:352,1,110,4|0,1:0|1:0,0:0:0:0:
276,371,45163,1,10,0:0:0:0:
197,310,45466,2,0,L|206:253,2,55,2|2|8,1:0|1:0|0:0,0:0:0:0:
169,351,45921,2,0,P|117:368|63:358,1,110,2|2,1:0|1:0,0:0:0:0:
19,336,46375,1,10,1:0:0:0:
54,243,46678,2,0,P|105:225|159:235,1,110,2|10,1:0|0:0,0:0:0:0:
205,255,47133,1,4,1:0:0:0:
256,192,47284,12,4,48345,1:0:0:0:
274,331,49557,6,0,P|324:311|387:323,1,115.49999647522,4|0,1:0|1:0,0:0:0:0:
435,324,50011,2,0,P|455:274|443:211,1,115.49999647522,8|0,0:0|1:0,0:0:0:0:
452,111,50618,1,10,0:0:0:0:
406,86,50769,2,0,P|347:88|288:104,1,115.49999647522,2|0,1:0|1:0,0:0:0:0:
250,133,51224,2,0,L|269:249,1,115.49999647522,8|0,0:0|1:0,0:0:0:0:
303,284,51678,6,0,P|313:310|313:339,2,57.7499982376099,2|10|4,1:0|0:0|1:0,0:0:0:0:
200,297,52284,2,0,P|190:324|172:346,2,57.7499982376099,2|10|2,1:0|0:0|0:0,0:0:0:0:
116,234,52890,2,0,P|91:248|63:254,1,57.7499982376099,2|10,1:0|0:0,0:0:0:0:
16,230,53193,2,0,P|2:175|21:119,1,115.49999647522,2|2,1:0|1:0,0:0:0:0:
57,85,53648,2,0,L|171:100,1,115.49999647522,10|8,0:0|0:0,0:0:0:0:
211,133,54102,2,0,L|268:125,1,57.7499982376099,10|8,0:0|0:0,0:0:0:0:
319,118,54405,1,4,1:0:0:0:
342,272,54860,6,0,P|287:255|229:269,1,115.49999647522,10|2,0:0|1:0,0:0:0:0:
138,313,55466,1,10,0:0:0:0:
102,275,55618,2,0,L|120:160,1,115.49999647522,2|2,1:0|1:0,0:0:0:0:
88,119,56072,2,0,P|85:64|119:17,1,115.49999647522,10|0,0:0|1:0,0:0:0:0:
171,16,56527,2,0,L|233:27,1,57.7499982376099,2|10,1:0|0:0,0:0:0:0:
279,35,56830,5,4,1:0:0:0:
350,110,57133,2,0,L|406:99,2,57.7499982376099,2|10|2,1:0|0:0|1:0,0:0:0:0:
316,149,57587,2,0,L|259:138,2,57.7499982376099,2|2|10,1:0|1:0|0:0,0:0:0:0:
336,197,58042,2,0,P|356:251|345:306,1,115.49999647522,4|0,1:0|1:0,0:0:0:0:
324,353,58496,1,12,0:0:0:0:
227,313,58799,2,0,B|198:307|198:307|168:317,1,57.7499982376099,10|10,0:0|0:0,0:0:0:0:
71,344,59254,6,0,P|77:287|56:234,1,115.49999647522,4|0,1:0|1:0,0:0:0:0:
28,190,59708,2,0,P|21:133|42:80,1,115.49999647522,8|0,0:0|1:0,0:0:0:0:
135,37,60315,1,10,0:0:0:0:
179,63,60466,2,0,L|295:56,1,115.49999647522,2|0,0:0|1:0,0:0:0:0:
339,81,60921,2,0,B|350:110|350:110|335:199,1,115.49999647522,8|0,0:0|1:0,0:0:0:0:
301,232,61375,2,0,L|310:292,1,57.7499982376099,2|10,0:0|0:0,0:0:0:0:
337,333,61678,6,0,P|397:343|450:321,1,115.49999647522,4|2,1:0|1:0,0:0:0:0:
485,288,62133,1,10,0:0:0:0:
505,240,62284,1,2,0:0:0:0:
491,136,62587,2,0,P|484:105|469:82,1,57.7499982376099,2|8,0:0|1:0,0:0:0:0:
428,52,62890,2,0,L|310:71,1,115.49999647522,2|2,0:0|0:0,0:0:0:0:
273,103,63345,2,0,L|215:94,1,57.7499982376099,10|2,0:0|0:0,0:0:0:0:
171,121,63648,1,2,1:0:0:0:
68,106,63951,1,2,1:0:0:0:
39,149,64102,6,0,B|28:178|28:178|56:326,1,173.24999471283,4|8,1:0|0:0,0:0:0:0:
94,351,64708,1,2,0:0:0:0:
143,335,64860,2,0,P|194:316|257:328,1,115.49999647522,2|8,1:0|0:0,0:0:0:0:
300,348,65315,2,0,P|356:358|409:338,1,115.49999647522,2|2,0:0|0:0,0:0:0:0:
452,309,65769,1,8,1:0:0:0:
476,263,65921,1,2,0:0:0:0:
488,159,66224,2,0,L|487:98,1,57.7499982376099,2|10,0:0|0:0,0:0:0:0:
460,56,66527,6,0,B|431:45|431:45|342:60,1,115.49999647522,4|2,1:0|1:0,0:0:0:0:
305,89,66981,1,8,1:0:0:0:
262,118,67133,2,0,P|210:98|147:110,1,115.49999647522,2|0,0:0|0:0,0:0:0:0:
107,130,67587,1,10,1:0:0:0:
73,169,67739,2,0,L|97:285,1,115.49999647522,4|0,1:0|1:0,0:0:0:0:
141,308,68193,1,8,0:0:0:0:
237,345,68496,2,0,B|265:333|265:333|317:345|317:345|349:333,1,115.49999647522,8|8,0:0|0:0,0:0:0:0:
391,312,68951,6,0,P|397:258|368:210,1,110,4|2,1:0|1:0,0:0:0:0:
328,184,69405,1,10,0:0:0:0:
230,198,69708,1,10,0:0:0:0:
189,226,69860,2,0,L|134:218,1,55,2|10,1:0|0:0,0:0:0:0:
92,191,70163,2,0,P|75:141|94:83,1,110,4|2,1:0|1:0,0:0:0:0:
125,52,70618,2,0,P|180:58|236:54,1,110,10|10,0:0|0:0,0:0:0:0:
326,18,71224,1,8,0:0:0:0:
367,45,71375,6,0,B|377:71|377:71|363:154,1,110,4|2,1:0|1:0,0:0:0:0:
377,199,71830,1,10,0:0:0:0:
348,293,72133,1,10,0:0:0:0:
312,326,72284,2,0,L|252:336,1,55,2|10,1:0|0:0,0:0:0:0:
214,360,72587,2,0,L|104:341,1,110,4|10,1:0|0:0,0:0:0:0:
26,282,73193,1,2,1:0:0:0:
26,183,73496,1,2,1:0:0:0:
83,101,73799,6,0,P|137:95|187:116,1,110,4|0,1:0|1:0,0:0:0:0:
232,142,74254,2,0,P|282:162|336:157,1,110,8|8,0:0|0:0,0:0:0:0:
429,115,74860,1,10,0:0:0:0:
475,132,75012,2,0,B|496:182|496:182|476:293,1,165,4|8,1:0|0:0,0:0:0:0:
434,318,75618,2,0,L|443:372,2,55,0|10|2,1:0|0:0|1:0,0:0:0:0:
392,291,76072,1,10,0:0:0:0:
343,279,76224,6,0,P|286:273|236:297,1,110,4|2,1:0|1:0,0:0:0:0:
190,301,76678,2,0,L|170:191,1,110,10|8,1:0|1:0,0:0:0:0:
124,174,77133,2,0,L|133:119,1,55,8|8,1:0|1:0,0:0:0:0:
169,85,77436,1,8,0:0:0:0:
169,85,78345,5,4,0:3:0:0:
260,47,78648,6,0,B|286:39|286:39|369:61,1,110,4|0,1:0|1:0,0:0:0:0:
413,74,79102,1,8,0:0:0:0:
439,169,79405,2,0,L|497:153,2,55,0|0|8,1:0|1:0|0:0,0:0:0:0:
391,184,79860,2,0,B|365:192|365:192|282:170,1,110,0|0,1:0|1:0,0:0:0:0:
237,157,80315,1,8,0:0:0:0:
163,90,80618,2,0,L|179:32,2,55,0|0|8,1:0|1:0|0:0,0:0:0:0:
124,121,81072,6,0,P|94:165|96:221,1,110,4|0,1:0|1:0,0:0:0:0:
113,266,81527,1,8,0:0:0:0:
192,325,81830,2,0,L|176:383,2,55,0|0|8,1:0|1:0|0:0,0:0:0:0:
231,294,82284,2,0,B|257:286|257:286|340:308,1,110,0|0,1:0|1:0,0:0:0:0:
385,319,82739,1,12,0:0:0:0:
440,237,83042,1,0,1:0:0:0:
380,158,83345,1,8,0:0:0:0:
380,158,83496,6,0,P|326:136|271:148,1,110,4|0,1:0|1:0,0:0:0:0:
233,170,83951,1,8,0:0:0:0:
228,268,84254,2,0,L|281:282,2,55,0|0|8,1:0|1:0|0:0,0:0:0:0:
180,280,84708,2,0,P|126:288|76:267,1,110,0|0,1:0|1:0,0:0:0:0:
43,230,85163,1,8,0:0:0:0:
29,131,85466,2,0,L|14:77,2,55,0|0|8,1:0|1:0|0:0,0:0:0:0:
78,138,85921,6,0,B|104:146|104:146|187:124,1,110,4|0,1:0|1:0,0:0:0:0:
231,111,86375,1,12,0:0:0:0:
307,48,86678,1,12,0:0:0:0:
399,83,86981,1,10,0:0:0:0:
399,83,87133,2,0,B|418:132|418:132|412:190,1,110,4|0,1:0|1:0,0:0:0:0:
403,237,87587,1,8,0:0:0:0:
361,327,87890,2,0,L|307:341,2,55,8|8|8,0:0|0:0|0:0,0:0:0:0:
404,350,88345,1,8,0:0:0:0:
