osu file format v14

[General]
AudioFilename: audio.mp3
AudioLeadIn: 0
PreviewTime: 49481
Countdown: 0
SampleSet: None
StackLeniency: 0.7
Mode: 0
LetterboxInBreaks: 0
WidescreenStoryboard: 0

[Editor]
DistanceSpacing: 1.1
BeatDivisor: 4
GridSize: 4
TimelineZoom: 1.7

[Metadata]
Title:Theater of Life (TV Size)
TitleUnicode:Theater of Life (TV Size)
Artist:Suzuki Konomi
ArtistUnicode:鈴木このみ
Creator:kunka
Version:Easy
Source:デカダンス
Tags:op opening anime japanese jpop j-pop j_pop DECA-DENCE browiec Affirmation Neoskylove -Brethia _kotachi_ kotachi kunkakunkakunkakunka
BeatmapID:2548565
BeatmapSetID:1218183

[Difficulty]
HPDrainRate:3
CircleSize:3
OverallDifficulty:4
ApproachRate:4
SliderMultiplier:0.9
SliderTickRate:1

[Events]
//Background and Video events
0,0,"BG.jpg",0,0
Video,0,"Theater of Life.mp4"
//Break Periods
2,10818,17479
//Storyboard Layer 0 (Background)
//Storyboard Layer 1 (Fail)
//Storyboard Layer 2 (Pass)
//Storyboard Layer 3 (Foreground)
//Storyboard Layer 4 (Overlay)
//Storyboard Sound Samples

[TimingPoints]
12,303.030303030303,4,2,1,60,1,0
1072,-111.111111111111,4,2,1,70,0,0
10769,-111.111111111111,4,2,1,40,0,0
18648,-111.111111111111,4,2,1,50,0,0
20466,-111.111111111111,4,2,1,60,0,0
30163,-111.111111111111,4,2,1,50,0,0
37436,-111.111111111111,4,2,1,60,0,0
47133,-111.111111111111,4,2,1,65,0,0
48345,-111.111111111111,4,2,1,55,0,0
49102,-111.111111111111,4,2,1,50,0,0
49557,-111.111111111111,4,2,1,75,0,1
68875,-111.111111111111,4,2,1,75,0,0
68951,-111.111111111111,4,2,1,60,0,1
77436,-111.111111111111,4,2,1,60,0,0
78648,-111.111111111111,4,2,1,70,0,0
88496,-111.111111111111,4,2,1,70,0,0

[Colours]
Combo1 : 255,128,255
Combo2 : 128,255,128
Combo3 : 128,255,255
Combo4 : 255,128,128
Combo5 : 255,255,128

[HitObjects]
394,326,1072,6,0,P|335:314|278:334,1,121.499996292114,4|8,1:0|0:0,0:0:0:0:
198,373,1830,1,0,1:0:0:0:
69,336,2284,2,0,B|57:298|57:298|63:257|86:219,1,121.499996292114,0|8,1:0|0:0,0:0:0:0:
148,158,3042,1,0,1:0:0:0:
270,212,3496,6,0,B|307:223|307:223|348:217|386:194,1,121.499996292114,0|8,1:0|0:0,0:0:0:0:
456,142,4254,1,0,1:0:0:0:
386,27,4708,2,0,P|349:14|305:15,1,80.9999975280763,0|0,1:0|1:0,0:0:0:0:
218,26,5315,2,0,L|136:38,1,80.9999975280763,0|8,1:0|0:0,0:0:0:0:
70,96,5921,6,0,P|48:151|61:210,1,121.499996292114,4|8,1:0|0:0,0:0:0:0:
109,285,6678,1,0,1:0:0:0:
230,340,7133,2,0,B|266:332|266:332|306:348|306:348|346:332,1,121.499996292114,0|8,1:0|0:0,0:0:0:0:
430,309,7890,1,0,1:0:0:0:
362,193,8345,6,0,P|303:172|248:189,1,121.499996292114,4|8,1:0|0:0,0:0:0:0:
175,238,9102,1,12,0:0:0:0:
41,226,9557,2,0,B|26:190|26:190|27:149|46:108,1,121.499996292114,4|8,1:0|0:0,0:0:0:0:
82,29,10315,1,8,0:3:0:0:
170,39,10618,1,8,0:3:0:0:
450,102,18799,6,0,P|397:128|337:113,1,121.499996292114,2|2,1:0|0:0,0:0:0:0:
266,61,19557,1,2,0:0:0:0:
177,53,19860,2,0,B|96:64,1,80.9999975280763,10|2,0:0|1:0,0:0:0:0:
33,126,20466,6,0,P|15:184|36:239,1,121.499996292114,4|10,1:0|0:0,0:0:0:0:
91,308,21224,1,2,1:0:0:0:
219,344,21678,2,0,P|276:333|344:337,1,121.499996292114,2|10,1:0|0:0,0:0:0:0:
425,316,22436,1,2,1:0:0:0:
469,238,22739,6,0,B|457:202|457:202|481:122|481:122|469:82,1,161.999995056153,10|10,0:0|0:0,0:0:0:0:
409,17,23648,1,2,1:0:0:0:
284,64,24102,2,0,L|202:58,1,80.9999975280763,2|2,1:0|1:0,0:0:0:0:
197,146,24708,2,0,L|277:151,1,80.9999975280763,2|2,0:0|1:0,0:0:0:0:
359,187,25315,6,0,P|374:244|353:300,1,121.499996292114,4|10,1:0|0:0,0:0:0:0:
298,371,26072,1,2,1:0:0:0:
205,274,26527,2,0,L|84:284,1,121.499996292114,2|10,1:0|0:0,0:0:0:0:
12,230,27284,1,2,1:0:0:0:
8,140,27587,6,0,B|16:100|16:100|-4:64|-4:64|8:24,2,121.499996292114,10|2|2,0:0|1:0|1:0,0:0:0:0:
141,133,28951,2,0,L|115:253,1,121.499996292114,2|12,1:0|0:0,0:0:0:0:
95,338,29708,1,2,1:0:0:0:
225,310,30163,6,0,B|285:282|285:334|345:310,1,121.499996292114,4|2,0:0|1:0,0:0:0:0:
421,270,30921,1,2,1:0:0:0:
448,138,31375,2,0,B|462:98|462:98|444:63|447:19,2,121.499996292114,10|0|10,0:0|1:0|0:0,0:0:0:0:
376,191,32587,6,0,B|339:209|339:209|300:193|249:206,1,121.499996292114,10|2,0:0|1:0,0:0:0:0:
177,237,33345,1,2,1:0:0:0:
49,197,33799,2,0,B|39:236|39:236|48:282,2,80.9999975280763,10|2|2,0:0|0:0|0:0,0:0:0:0:
92,119,34708,1,12,0:0:0:0:
173,82,35012,1,12,0:0:0:0:
305,95,35466,6,0,L|324:175,1,80.9999975280763,2|2,1:0|1:0,0:0:0:0:
407,277,36224,2,0,P|355:307|295:302,1,121.499996292114,10|2,0:0|1:0,0:0:0:0:
213,266,36981,1,2,1:0:0:0:
112,179,37436,6,0,P|71:178|32:187,1,80.9999975280763,4|0,1:0|1:0,0:0:0:0:
22,98,38042,2,0,P|61:89|102:89,1,80.9999975280763,4|2,1:0|1:0,0:0:0:0:
176,40,38648,2,0,B|215:35|215:35|253:54,1,80.9999975280763,4|2,1:0|1:0,0:0:0:0:
332,93,39254,1,10,0:0:0:0:
351,179,39557,2,0,L|336:264,1,80.9999975280763,10|4,0:3|1:0,0:0:0:0:
203,265,40315,6,0,P|164:259|125:274,2,80.9999975280763,10|10|10,0:0|0:0|0:0,0:0:0:0:
229,350,41224,2,0,P|177:378|120:363,1,121.499996292114,2|2,0:0|1:0,0:0:0:0:
8,287,42133,1,10,0:0:0:0:
0,198,42436,6,0,L|17:115,1,80.9999975280763,2|10,1:0|0:0,0:0:0:0:
61,42,43042,1,8,0:0:0:0:
194,40,43496,2,0,P|251:20|310:30,1,121.499996292114,4|8,1:0|0:0,0:0:0:0:
393,62,44254,1,2,1:0:0:0:
320,173,44708,6,0,B|305:232|305:232|325:291,1,121.499996292114,4|10,1:0|0:0,0:0:0:0:
369,366,45466,1,2,1:0:0:0:
479,291,45921,2,0,B|494:232|494:232|474:173,1,121.499996292114,2|10,1:0|1:0,0:0:0:0:
430,104,46678,1,2,1:0:0:0:
256,192,47133,12,4,48345,1:0:0:0:
483,185,49557,6,0,P|498:241|481:299,1,121.499996292114,4|8,1:0|0:0,0:0:0:0:
434,374,50315,1,0,1:0:0:0:
323,297,50769,2,0,P|306:238|323:181,1,121.499996292114,2|8,1:0|0:0,0:0:0:0:
375,59,51678,1,2,1:0:0:0:
297,15,51981,6,0,B|175:37,1,121.499996292114,4|10,1:0|0:0,0:0:0:0:
81,129,52890,1,2,1:0:0:0:
119,209,53193,2,0,P|104:265|128:324,2,121.499996292114,2|10|10,1:0|0:0|0:0,0:0:0:0:
170,136,54405,1,4,1:0:0:0:
253,240,54860,6,0,P|291:251|336:258,1,80.9999975280763,10|2,0:0|1:0,0:0:0:0:
465,248,55618,2,0,P|487:192|473:135,1,121.499996292114,2|10,1:0|0:0,0:0:0:0:
401,21,56527,1,2,1:0:0:0:
325,68,56830,6,0,P|262:86|209:68,1,121.499996292114,4|10,1:0|0:0,0:0:0:0:
132,25,57587,1,2,1:0:0:0:
23,103,58042,1,4,1:0:0:0:
80,271,58648,2,0,L|72:353,1,80.9999975280763,2|10,1:0|0:0,0:0:0:0:
159,366,59254,6,0,P|210:341|276:353,1,121.499996292114,4|8,1:0|0:0,0:0:0:0:
360,344,60011,1,0,1:0:0:0:
344,211,60466,2,0,L|222:207,1,121.499996292114,2|8,0:0|0:0,0:0:0:0:
89,222,61375,1,2,0:0:0:0:
51,140,61678,6,0,B|35:103|50:61|50:61|79:27|121:18,1,161.999995056153,4|2,1:0|0:0,0:0:0:0:
206,15,62587,1,2,0:0:0:0:
293,30,62890,2,0,P|352:16|412:16,2,121.499996292114,2|10|0,0:0|0:0|1:0,0:0:0:0:
240,101,64102,1,4,1:0:0:0:
349,178,64557,6,0,P|356:219|346:262,1,80.9999975280763,8|2,0:0|1:0,0:0:0:0:
270,366,65315,2,0,B|221:356|191:377|191:377|166:351|117:350,1,161.999995056153,2|2,0:0|0:0,0:0:0:0:
28,353,66224,1,2,0:0:0:0:
16,264,66527,6,0,L|24:184,1,80.9999975280763,4|2,1:0|1:0,0:0:0:0:
107,152,67133,2,0,L|115:72,1,80.9999975280763,2|0,0:0|0:0,0:0:0:0:
184,15,67739,2,0,P|248:6|304:27,1,121.499996292114,4|8,1:0|0:0,0:0:0:0:
369,81,68496,1,8,0:0:0:0:
387,213,68951,6,0,B|401:252|401:252|384:332,2,121.499996292114,4|10|2,1:0|0:0|1:0,0:0:0:0:
315,159,70163,2,0,L|196:183,1,121.499996292114,4|10,1:0|0:0,0:0:0:0:
108,203,70921,1,10,0:0:0:0:
141,332,71375,6,0,B|219:315|219:315|258:329,2,121.499996292114,4|10|2,1:0|0:0|1:0,0:0:0:0:
53,342,72587,2,0,L|38:257,1,80.9999975280763,4|10,1:0|0:0,0:0:0:0:
109,208,73193,1,2,1:0:0:0:
125,120,73496,1,2,1:0:0:0:
209,90,73799,6,0,B|250:87|287:108|287:108|330:93,1,121.499996292114,4|8,1:0|0:0,0:0:0:0:
409,64,74557,1,8,0:0:0:0:
482,175,75012,2,0,P|497:234|478:290,1,121.499996292114,4|8,1:0|0:0,0:0:0:0:
415,353,75769,1,10,0:0:0:0:
300,284,76224,6,0,L|169:311,2,121.499996292114,4|10|8,1:0|1:0|1:0,0:0:0:0:
387,268,77436,1,8,0:0:0:0:
462,57,78648,6,0,P|406:34|347:48,1,121.499996292114,4|8,1:0|0:0,0:0:0:0:
267,88,79405,1,0,1:0:0:0:
346,195,79860,2,0,B|358:233|358:233|352:274|329:312,1,121.499996292114,0|8,1:0|0:0,0:0:0:0:
274,378,80618,1,0,1:0:0:0:
195,271,81072,6,0,B|183:233|183:233|189:192|212:154,1,121.499996292114,4|8,1:0|0:0,0:0:0:0:
267,88,81830,1,0,1:0:0:0:
149,24,82284,2,0,B|109:20|109:20|75:42,1,80.9999975280763,0|0,1:0|1:0,0:0:0:0:
28,118,82890,2,0,L|40:200,1,80.9999975280763,0|8,1:0|0:0,0:0:0:0:
81,277,83496,6,0,B|119:292|119:292|159:276|159:276|195:284,1,121.499996292114,4|8,1:0|0:0,0:0:0:0:
282,306,84254,1,0,1:0:0:0:
327,180,84708,2,0,B|315:142|315:142|321:101|342:65,1,121.499996292114,0|8,1:0|0:0,0:0:0:0:
410,7,85466,1,0,1:0:0:0:
495,109,85921,6,0,B|507:147|507:147|501:188|479:223,1,121.499996292114,4|12,1:0|0:0,0:0:0:0:
412,282,86678,1,12,0:0:0:0:
284,241,87133,2,0,B|244:227|244:227|209:245|165:242,1,121.499996292114,4|8,1:0|0:0,0:0:0:0:
95,189,87890,2,0,B|86:153|86:153|54:124|54:124|51:81,1,121.499996292114,8|8,0:0|0:0,0:0:0:0:
