osu file format v14

[General]
AudioFilename: audio.mp3
AudioLeadIn: 0
PreviewTime: 49481
Countdown: 0
SampleSet: Soft
StackLeniency: 0.7
Mode: 0
LetterboxInBreaks: 0
WidescreenStoryboard: 1

[Editor]
Bookmarks: 1072,10769,20466,30163,39860,49557,59254,68951,78648,88345
DistanceSpacing: 1.3
BeatDivisor: 4
GridSize: 32
TimelineZoom: 1.9

[Metadata]
Title:Theater of Life (TV Size)
TitleUnicode:Theater of Life (TV Size)
Artist:Suzuki Konomi
ArtistUnicode:鈴木このみ
Creator:Sotarks
Version:Eli's Hard
Source:デカダンス
Tags:deca-dence japanese anime opening jpop female vocalist kowari basensorex elinor [_eli_] eli reform kujinn smokelind
BeatmapID:2548906
BeatmapSetID:1225615

[Difficulty]
HPDrainRate:5
CircleSize:3.6
OverallDifficulty:7
ApproachRate:8
SliderMultiplier:1.4
SliderTickRate:1

[Events]
//Background and Video events
0,0,"bg.jpg",0,0
Video,0,"video.mp4"
//Break Periods
2,10969,17443
//Storyboard Layer 0 (Background)
//Storyboard Layer 1 (Fail)
//Storyboard Layer 2 (Pass)
//Storyboard Layer 3 (Foreground)
//Storyboard Layer 4 (Overlay)
//Storyboard Sound Samples

[TimingPoints]
12,303.030303030303,4,2,22,72,1,0
1072,-100,4,2,22,82,0,1
10769,-125,4,2,22,52,0,0
18799,-125,4,2,22,62,0,0
20466,-111.111111111111,4,2,22,72,0,0
30163,-125,4,2,22,62,0,0
37436,-125,4,2,22,72,0,0
39860,-111.111111111111,4,2,22,72,0,0
49557,-100,4,2,22,82,0,1
68951,-111.111111111111,4,2,22,82,0,0
73421,-111.111111111111,4,2,22,5,0,0
73496,-111.111111111111,4,2,22,82,0,0
73724,-111.111111111111,4,2,22,5,0,0
73799,-111.111111111111,4,2,22,82,0,0
78345,-111.111111111111,4,2,22,72,0,0
78648,-100,4,2,22,82,0,1
88345,-100,4,2,22,82,0,0

[Colours]
Combo1 : 239,170,95
Combo2 : 125,147,183
Combo3 : 191,237,242
Combo4 : 173,206,142

[HitObjects]
44,48,769,5,8,0:3:0:0:
44,48,1072,6,0,B|112:36|100:88|176:76,1,140,6|0,1:2|1:0,0:0:0:0:
264,104,1527,2,0,P|272:136|280:176,1,70,10|0,0:0|0:0,0:0:0:0:
344,236,1830,2,0,P|356:168|368:92,1,140,2|8,1:2|0:0,0:0:0:0:
440,40,2284,6,0,P|488:72|488:152,1,140,6|0,1:2|1:0,0:0:0:0:
440,224,2739,2,0,P|400:208|368:200,1,70,10|0,0:0|0:0,0:0:0:0:
284,188,3042,2,0,B|212:192|236:244|164:248,1,140,2|8,1:2|0:0,0:0:0:0:
76,268,3496,6,0,P|76:344|136:372,1,140,6|0,1:2|1:0,0:0:0:0:
216,376,3951,2,0,P|243:368|288:360,1,70,10|0,0:0|0:0,0:0:0:0:
340,288,4254,2,0,P|280:280|200:264,1,140,2|8,1:2|0:0,0:0:0:0:
136,204,4708,6,0,L|148:132,1,70,2|0,1:2|0:0,0:0:0:0:
224,88,5011,2,0,L|235:157,1,70,4|12,0:3|0:0,0:0:0:0:
304,220,5315,1,2,0:0:0:0:
304,220,5466,2,0,L|344:212,5,35,4|4|8|8|8|8,0:3|0:3|0:0|0:0|0:0|0:0,0:0:0:0:
384,208,5921,6,0,P|408:248|408:340,1,140,6|0,1:2|1:0,0:0:0:0:
324,372,6375,2,0,P|288:372|256:356,1,70,10|0,0:0|0:0,0:0:0:0:
196,292,6678,2,0,B|128:292|152:344|72:344,1,140,2|8,1:2|0:0,0:0:0:0:
20,268,7133,6,0,L|36:124,1,140,6|0,1:2|1:0,0:0:0:0:
112,80,7587,2,0,L|128:148,1,70,10|0,0:0|0:0,0:0:0:0:
160,236,7890,2,0,B|236:216|228:268|300:248,1,140,2|8,1:2|0:0,0:0:0:0:
384,176,8345,6,0,P|384:116|324:72,1,140,6|4,1:2|0:3,0:0:0:0:
280,80,8724,1,4,0:3:0:0:
280,80,8799,2,0,L|208:96,1,70,8|2,0:0|1:2,0:0:0:0:
168,116,9027,1,0,0:0:0:0:
168,116,9102,2,0,L|88:104,1,70,8|4,0:0|0:3,0:0:0:0:
32,168,9405,1,8,0:0:0:0:
96,264,9557,6,0,B|168:248|164:304|232:288,1,140,6|0,1:2|1:0,0:0:0:0:
268,264,9936,1,0,1:0:0:0:
268,264,10012,2,0,L|336:276,1,70,10|0,0:0|1:0,0:0:0:0:
380,288,10239,1,0,1:2:0:0:
380,288,10315,2,0,L|372:328,3,35,8|8|4|4,0:3|0:3|0:3|0:3,0:0:0:0:
360,364,10618,1,0,1:0:0:0:
452,327,10769,5,4,1:2:0:0:
52,344,18193,6,0,P|40:304|40:288,1,56,0|0,1:2|0:0,0:0:0:0:
60,220,18496,2,0,L|116:208,1,56,0|0,1:2|0:0,0:0:0:0:
176,248,18799,2,0,L|232:260,1,56,6|0,1:2|0:2,0:2:0:0:
292,220,19102,2,0,P|292:188|284:160,1,56,6|0,1:2|0:2,0:2:0:0:
216,140,19405,6,0,P|208:112|208:84,1,56,6|0,1:2|0:2,0:2:0:0:
260,32,19708,2,0,L|320:28,1,56,6|8,1:2|0:3,0:2:0:0:
352,36,19936,1,8,0:3:0:0:
352,36,20011,2,0,L|412:48,1,56,6|6,0:3|1:3,0:0:0:0:
480,60,20315,1,0,0:0:0:0:
500,176,20466,6,0,P|488:232|476:304,1,125.999996154785,6|2,1:2|1:2,0:0:0:0:
412,352,20921,2,0,L|352:336,1,62.9999980773926,10|0,0:0|0:0,0:0:0:0:
280,292,21224,2,0,L|216:308,1,62.9999980773926,2|4,1:2|2:3,0:0:0:0:
180,320,21451,1,8,0:3:0:0:
180,320,21527,1,10,0:0:0:0:
100,324,21678,6,0,L|84:184,1,125.999996154785,2|0,1:2|1:0,0:0:0:0:
108,120,22133,2,0,P|136:100|164:100,1,62.9999980773926,10|0,0:0|0:0,0:0:0:0:
232,144,22436,2,0,P|260:160|296:160,1,62.9999980773926,2|4,1:2|0:3,0:0:0:0:
332,152,22663,1,8,0:3:0:0:
332,152,22739,1,10,0:0:0:0:
380,84,22890,6,0,B|448:84|428:128|496:128,1,125.999996154785,2|2,1:2|1:2,0:0:0:0:
500,208,23345,2,0,L|488:272,1,62.9999980773926,10|2,0:0|0:0,0:0:0:0:
412,304,23648,2,0,L|404:240,1,62.9999980773926,2|6,1:2|0:3,0:0:0:0:
400,200,23875,1,8,0:3:0:0:
400,200,23951,1,10,0:0:0:0:
344,140,24102,6,0,P|280:140|232:176,1,125.999996154785,2|2,1:2|1:2,0:0:0:0:
192,248,24557,1,8,0:0:0:0:
192,248,24708,2,0,P|128:248|80:212,1,125.999996154785,2|6,0:0|0:3,0:0:0:0:
60,176,25087,1,8,0:3:0:0:
60,176,25163,1,8,0:0:0:0:
62,58,25315,6,0,B|134:42|122:98|182:86,1,125.999996154785,6|2,1:2|1:2,0:0:0:0:
250,46,25769,2,0,L|322:30,1,62.9999980773926,10|0,0:0|0:0,0:0:0:0:
390,62,26072,2,0,L|450:78,1,62.9999980773926,2|4,1:2|0:3,0:0:0:0:
490,90,26299,1,8,0:3:0:0:
490,90,26375,1,8,0:0:0:0:
504,172,26527,6,0,P|468:220|404:220,1,125.999996154785,2|0,1:2|1:0,0:0:0:0:
332,184,26981,2,0,L|320:248,1,62.9999980773926,10|0,0:0|0:0,0:0:0:0:
248,284,27284,2,0,L|236:222,1,62.9999980773926,2|4,1:2|0:3,0:0:0:0:
228,180,27511,1,8,0:3:0:0:
228,180,27587,1,10,0:0:0:0:
160,136,27739,6,0,P|124:144|96:152,1,62.9999980773926,2|0,1:2|0:0,0:0:0:0:
20,168,28042,2,0,P|16:148|4:104,2,62.9999980773926,2|10|2,1:2|0:0|0:0,0:0:0:0:
48,244,28496,2,0,B|116:240|96:284|168:280,1,125.999996154785,2|10,1:2|0:0,0:0:0:0:
238,244,28951,6,0,P|247:173|258:120,1,125.999996154785,2|0,1:2|1:0,0:0:0:0:
290,44,29405,2,0,P|334:44|358:60,1,62.9999980773926,12|0,0:0|0:0,0:0:0:0:
360,136,29708,2,0,L|352:172,4,31.4999990386963,10|8|6|4|0,0:3|0:3|0:3|0:3|1:0,0:0:0:0:
429,24,30163,6,0,P|485:24|513:72,1,112,6|0,1:2|0:0,0:0:0:0:
488,144,30618,2,0,L|476:200,1,56,2|0,1:2|0:0,0:0:0:0:
412,236,30921,2,0,L|424:292,1,56,2|0,1:2|0:2,0:0:0:0:
444,360,31224,1,2,1:2:0:0:
444,360,31375,6,0,P|392:336|336:336,1,112,10|0,0:2|0:0,0:0:0:0:
268,348,31830,2,0,L|212:336,1,56,0|0,1:0|0:0,0:0:0:0:
148,304,32133,1,2,1:2:0:0:
148,304,32284,2,0,L|88:316,1,56,10|0,0:0|1:0,0:0:0:0:
28,352,32587,6,0,P|48:304|48:244,1,112,10|0,0:0|0:0,0:0:0:0:
40,172,33042,2,0,P|64:156|96:156,1,56,2|0,1:2|0:0,0:0:0:0:
156,188,33345,2,0,P|184:204|212:204,1,56,2|0,1:2|0:0,0:0:0:0:
276,176,33648,1,2,1:2:0:0:
276,176,33799,6,0,L|284:120,1,56,10|0,0:2|1:0,0:0:0:0:
356,104,34102,2,0,L|364:160,1,56,2|0,0:0|1:0,0:0:0:0:
380,241,34405,1,2,0:0:0:0:
380,241,34557,2,0,L|436:249,2,56,0|8|0,1:0|0:0|1:0,0:0:0:0:
304,224,35011,6,0,B|248:220|256:268|196:264,1,112,8|0,0:0|0:0,0:0:0:0:
132,248,35466,2,0,L|120:304,1,56,2|2,1:2|0:0,0:0:0:0:
60,344,35769,2,0,P|32:304|32:240,1,112,2|2,1:2|1:2,0:0:0:0:
56,172,36224,6,0,B|112:160|108:208|168:192,1,112,10|0,0:0|0:0,0:0:0:0:
220,148,36678,2,0,L|228:92,1,56,2|0,1:2|0:0,0:0:0:0:
192,28,36981,1,2,1:2:0:0:
192,28,37133,2,0,L|132:32,1,56,10|0,0:0|1:0,0:0:0:0:
44,104,37436,6,0,P|44:164|72:208,1,112,6|8,1:2|0:3,0:0:0:0:
132,248,37890,1,8,0:0:0:0:
236,192,38042,2,0,B|292:192|280:236|336:236,1,112,4|10,1:2|0:3,0:0:0:0:
404,212,38496,1,10,0:0:0:0:
404,212,38648,6,8,L|416:156,1,56,6|0,1:2|0:0,0:3:0:0:
476,112,38951,2,0,L|464:56,1,56,10|8,0:3|0:0,0:0:0:0:
396,32,39254,1,10,0:0:0:0:
396,32,39330,1,8,0:0:0:0:
396,32,39405,2,0,L|364:40,4,28,8|4|10|4|4,0:0|0:3|0:3|0:3|0:3,0:0:0:0:
316,48,39860,6,0,B|256:44|272:92|200:88,1,125.999996154785,4|0,1:2|1:0,0:0:0:0:
120,92,40315,2,0,L|112:156,1,62.9999980773926,10|0,0:0|1:0,0:0:0:0:
40,196,40618,2,0,L|56:256,1,62.9999980773926,10|2,0:0|1:2,0:0:0:0:
96,328,40921,2,0,L|160:312,1,62.9999980773926,10|6,0:0|1:2,0:0:0:0:
208,248,41224,6,0,B|280:244|260:292|328:288,1,125.999996154785,2|10,0:0|0:0,0:0:0:0:
396,256,41678,2,0,P|404:224|396:192,1,62.9999980773926,2|8,1:2|0:0,0:0:0:0:
336,140,41981,1,2,1:2:0:0:
336,140,42133,2,0,L|272:124,1,62.9999980773926,10|6,0:0|1:2,0:0:0:0:
216,68,42436,6,0,P|260:36|332:36,1,125.999996154785,2|10,0:0|0:0,0:0:0:0:
400,76,42890,2,0,L|416:204,1,125.999996154785,2|0,1:2|1:0,0:0:0:0:
420,284,43345,1,10,0:0:0:0:
420,284,43496,6,0,B|352:288|372:332|308:336,1,125.999996154785,6|0,1:2|1:0,0:0:0:0:
228,324,43951,1,8,0:0:0:0:
80,256,44254,2,0,L|72:224,3,31.4999990386963,6|4|8|8,0:3|0:3|0:0|0:0,0:0:0:0:
60,188,44557,1,10,0:0:0:0:
60,188,44633,1,8,0:0:0:0:
60,188,44708,6,0,P|88:136|156:136,1,125.999996154785,6|0,1:2|1:0,0:0:0:0:
228,160,45163,2,0,L|300:180,1,62.9999980773926,10|0,0:0|1:3,0:0:0:0:
328,180,45390,1,4,0:3:0:0:
328,180,45466,2,0,L|340:116,1,62.9999980773926,8|6,0:3|0:3,0:0:0:0:
368,40,45769,1,8,0:0:0:0:
368,40,45921,6,0,P|436:40|460:88,1,125.999996154785,2|2,1:2|1:2,0:0:0:0:
464,168,46375,2,0,L|448:232,1,62.9999980773926,10|0,0:0|1:0,0:0:0:0:
432,264,46602,1,4,0:3:0:0:
432,264,46678,2,0,L|368:248,1,62.9999980773926,10|4,0:3|0:3,0:0:0:0:
292,228,46981,1,10,0:0:0:0:
184,184,47133,6,0,B|120:188|144:236|76:240,1,125.999996154785,6|8,1:2|0:0,0:0:0:0:
40,312,47587,2,0,L|48:348,3,31.4999990386963,0|0|0|0,1:0|1:0|1:2|1:0,0:0:0:0:
88,352,47890,2,0,L|124:344,3,31.4999990386963,8|4|4|4,1:2|0:3|0:3|0:3,0:0:0:0:
151,325,48193,2,0,L|158:356,2,31.4999990386963,8|0|6,1:2|1:0|1:2,0:0:0:0:
320,308,48648,1,6,1:2:0:0:
316,144,48951,2,0,L|312:76,2,62.9999980773926,6|6|0,0:3|1:2|0:0,0:0:0:0:
324,324,49557,6,0,B|404:312|380:372|456:360,1,140,6|0,1:2|1:0,0:0:0:0:
500,280,50011,2,0,P|500:228|436:164,1,140,8|0,0:0|1:0,0:0:0:0:
352,160,50466,2,0,L|280:176,1,70,8|10,0:3|0:0,0:0:0:0:
228,248,50769,6,0,L|88:208,1,140,6|0,1:2|1:0,0:0:0:0:
40,136,51224,2,0,P|68:80|144:80,1,140,8|0,0:0|1:0,0:0:0:0:
208,132,51678,5,10,0:3:0:0:
208,132,51830,1,10,0:0:0:0:
272,68,51981,2,0,L|340:56,1,70,6|0,1:2|0:0,0:0:0:0:
420,104,52284,5,2,1:2:0:0:
420,104,52436,1,10,0:2:0:0:
444,192,52587,2,0,L|428:260,1,70,2|0,0:0|1:0,0:0:0:0:
384,340,52890,5,10,0:3:0:0:
384,340,53042,1,10,0:0:0:0:
312,284,53193,2,0,L|240:300,1,70,6|0,1:2|0:0,0:0:0:0:
172,356,53496,5,2,1:2:0:0:
172,356,53648,1,10,0:0:0:0:
100,300,53799,2,0,L|88:224,1,70,2|10,0:2|0:0,0:0:0:0:
76,140,54102,2,0,L|112:132,3,35,10|8|8|8,0:0|0:0|0:0|0:0,0:0:0:0:
156,124,54405,6,0,B|224:112|212:164|288:152,1,140,4|0,1:2|1:0,0:0:0:0:
376,120,54860,2,0,L|388:48,1,70,10|0,0:0|0:0,0:0:0:0:
476,32,55163,2,0,L|488:104,1,70,2|8,1:2|0:3,0:0:0:0:
504,192,55466,1,10,0:0:0:0:
448,264,55618,6,0,B|380:252|388:312|316:300,1,140,6|2,1:2|1:2,0:0:0:0:
244,244,56072,2,0,L|224:104,1,140,10|0,0:0|1:0,0:0:0:0:
156,44,56527,1,8,0:3:0:0:
156,44,56678,1,10,0:0:0:0:
52,100,56830,6,0,P|28:168|60:224,1,140,6|2,1:2|1:2,0:0:0:0:
132,276,57284,2,0,L|200:260,1,70,10|2,0:0|0:0,0:0:0:0:
280,304,57587,2,0,L|352:320,1,70,2|10,1:2|0:3,0:0:0:0:
428,276,57890,1,10,0:0:0:0:
448,160,58042,6,0,P|388:128|328:160,1,140,6|4,1:2|0:3,0:0:0:0:
300,196,58421,1,8,0:3:0:0:
300,196,58496,1,8,0:0:0:0:
260,280,58648,1,10,1:2:0:0:
260,280,58724,1,0,1:0:0:0:
260,280,58799,2,0,L|224:272,5,35,6|4|10|8|8|8,0:3|0:3|0:0|0:0|0:0|0:0,0:0:0:0:
180,264,59254,6,0,B|112:252|128:312|48:300,1,140,6|0,1:2|0:0,0:0:0:0:
12,220,59708,2,0,P|0:144|36:96,1,140,8|0,0:0|1:3,0:0:0:0:
124,72,60163,2,0,L|196:88,1,70,0|10,3:0|0:2,0:0:0:0:
244,160,60466,6,0,L|384:128,1,140,2|0,3:2|3:0,0:0:0:0:
440,60,60921,2,0,P|400:32|308:32,1,140,8|0,0:0|1:0,0:0:0:0:
228,68,61375,1,2,3:0:0:0:
228,68,61527,1,10,0:0:0:0:
168,136,61678,6,0,L|184:208,1,70,6|0,3:2|0:0,0:0:0:0:
212,292,61981,1,2,3:0:0:0:
212,292,62133,1,10,0:0:0:0:
136,344,62284,2,0,L|68:328,1,70,2|0,3:0|1:0,0:0:0:0:
16,252,62587,2,0,P|8:216|16:184,1,70,2|8,3:0|0:0,0:0:0:0:
64,108,62890,6,0,P|95:98|130:108,1,70,2|0,3:0|1:0,0:0:0:0:
216,144,63193,1,2,3:0:0:0:
216,144,63345,1,10,0:0:0:0:
200,232,63496,1,2,3:0:0:0:
280,280,63648,2,0,L|348:268,1,70,2|10,1:2|3:3,0:0:0:0:
440,248,63951,1,10,0:0:0:0:
436,128,64102,6,0,B|360:120|376:168|300:160,1,140,6|0,1:2|3:0,0:0:0:0:
216,136,64557,1,8,0:0:0:0:
216,136,64708,1,2,3:0:0:0:
128,168,64860,2,0,L|108:316,1,140,2|10,1:2|0:0,0:0:0:0:
36,360,65315,6,0,L|17:221,1,140,2|0,3:0|3:0,0:0:0:0:
4,132,65769,1,10,0:0:0:0:
52,56,65921,2,0,L|124:68,1,70,2|0,3:2|1:0,0:0:0:0:
204,108,66224,1,2,3:2:0:0:
204,108,66375,1,10,0:0:0:0:
308,40,66527,6,0,B|384:40|360:88|436:88,1,140,6|2,1:2|3:0,0:0:0:0:
488,160,66981,1,8,0:0:0:0:
436,236,67133,2,0,P|372:216|300:200,1,140,2|8,3:0|3:3,0:0:0:0:
212,188,67587,1,10,0:0:0:0:
120,264,67739,6,0,P|120:312|192:356,1,140,6|0,1:2|0:0,0:0:0:0:
284,344,68193,2,0,L|352:328,1,70,8|0,0:0|1:0,0:0:0:0:
412,256,68496,2,0,L|452:264,4,35,4|4|8|8|8,0:3|0:3|0:0|0:0|0:0,0:0:0:0:
324,176,68951,6,0,B|256:180|272:224|208:228,1,125.999996154785,6|2,1:2|1:2,0:0:0:0:
136,196,69405,2,0,L|124:132,1,62.9999980773926,8|2,0:0|1:2,0:0:0:0:
56,88,69708,2,0,L|44:160,1,62.9999980773926,10|2,0:0|1:2,0:0:0:0:
28,232,70012,1,10,0:0:0:0:
80,324,70163,6,0,B|148:312|136:364|208:352,1,125.999996154785,6|2,1:2|1:2,0:0:0:0:
236,280,70618,2,0,L|244:216,1,62.9999980773926,10|2,0:0|1:2,0:0:0:0:
324,196,70921,2,0,L|336:260,1,62.9999980773926,10|0,0:0|1:0,0:0:0:0:
356,336,71224,1,8,0:0:0:0:
460,320,71375,6,0,P|492:272|464:208,1,125.999996154785,6|2,1:2|1:2,0:0:0:0:
412,152,71830,2,0,L|348:168,1,62.9999980773926,10|2,0:0|1:2,0:0:0:0:
292,228,72133,2,0,L|228:212,1,62.9999980773926,10|2,0:0|1:2,0:0:0:0:
152,184,72436,1,8,0:0:0:0:
108,88,72587,6,0,P|144:40|208:40,1,125.999996154785,6|6,1:2|0:3,0:0:0:0:
240,60,72966,1,8,0:3:0:0:
240,60,73042,1,8,0:0:0:0:
288,124,73193,2,0,L|304:224,1,94.499997116089,6|0,1:3|0:0,0:0:0:0:
312,256,73496,2,0,P|264:296|232:296,1,94.499997116089,6|0,1:3|0:0,0:0:0:0:
196,284,73799,6,0,B|128:284|144:332|84:332,1,125.999996154785,6|0,1:2|1:0,0:0:0:0:
32,268,74254,2,0,L|24:200,1,62.9999980773926,10|0,0:0|1:0,0:0:0:0:
44,124,74557,1,10,0:0:0:0:
44,124,74708,1,2,1:2:0:0:
112,172,74860,1,10,0:0:0:0:
188,80,75011,6,0,B|256:80|240:124|304:124,1,125.999996154785,6|0,1:2|1:0,0:0:0:0:
380,104,75466,1,8,0:0:0:0:
380,104,75618,1,0,1:0:0:0:
452,144,75769,2,0,L|440:208,1,62.9999980773926,10|2,0:0|1:2,0:0:0:0:
416,284,76072,1,10,0:0:0:0:
348,236,76224,2,0,L|280:248,1,62.9999980773926,6|0,1:2|0:0,0:0:0:0:
204,260,76527,1,6,0:3:0:0:
136,216,76678,6,0,P|120:184|120:152,1,62.9999980773926,10|8,1:2|1:2,0:0:0:0:
136,76,76981,2,0,P|172:52|196:52,1,62.9999980773926,8|8,1:2|1:2,0:0:0:0:
272,72,77284,1,8,1:2:0:0:
272,72,77436,1,12,1:2:0:0:
468,344,78345,5,8,0:3:0:0:
468,344,78648,6,0,B|400:356|412:304|336:316,1,140,6|0,1:2|1:0,0:0:0:0:
256,272,79103,2,0,L|240:200,1,70,10|0,0:0|0:0,0:0:0:0:
172,144,79405,2,0,P|116:144|84:220,1,140,2|8,1:2|0:0,0:0:0:0:
88,304,79860,6,0,L|228:332,1,140,6|0,1:2|1:0,0:0:0:0:
292,268,80315,2,0,L|276:196,1,70,10|0,0:0|0:0,0:0:0:0:
312,116,80618,2,0,B|384:120|360:172|432:176,1,140,2|8,1:2|0:0,0:0:0:0:
488,104,81072,6,0,P|460:40|396:40,1,140,6|0,1:2|1:0,0:0:0:0:
308,48,81527,2,0,P|281:56|236:64,1,70,10|0,0:2|0:0,0:0:0:0:
184,136,81830,2,0,P|244:144|324:160,1,140,2|8,1:2|0:0,0:0:0:0:
392,216,82284,6,0,P|392:256|380:288,1,70,6|0,1:2|0:0,0:0:0:0:
300,324,82587,2,0,P|260:324|236:304,1,70,0|12,1:0|0:0,0:0:0:0:
184,232,82891,1,2,0:0:0:0:
184,232,83042,2,0,L|188:196,5,35,4|4|8|8|8|8,0:3|0:3|0:0|0:0|0:0|0:0,0:0:0:0:
188,152,83496,6,0,B|120:144|128:200|56:192,1,140,6|0,1:2|1:0,0:0:0:0:
12,112,83951,2,0,P|12:76|32:48,1,70,10|0,0:0|0:0,0:0:0:0:
120,28,84254,2,0,L|264:40,1,140,2|8,1:2|0:0,0:0:0:0:
344,72,84709,6,0,P|368:140|340:204,1,140,6|0,1:2|1:0,0:0:0:0:
272,256,85163,2,0,L|256:188,1,70,10|0,0:0|0:0,0:0:0:0:
196,120,85466,2,0,P|128:120|92:180,1,140,2|8,1:2|0:0,0:0:0:0:
108,264,85921,6,0,B|176:252|172:308|244:296,1,140,6|4,1:2|0:3,0:0:0:0:
284,280,86300,1,8,0:3:0:0:
284,280,86375,2,0,L|356:296,1,70,8|6,0:0|0:3,0:0:0:0:
396,308,86603,1,8,0:3:0:0:
396,308,86678,2,0,L|464:288,1,70,8|2,0:0|1:2,0:0:0:0:
504,208,86981,1,8,0:0:0:0:
424,120,87133,6,0,P|360:120|312:176,1,140,6|0,1:2|1:0,0:0:0:0:
296,216,87511,1,0,1:0:0:0:
296,216,87587,2,0,L|280:288,1,70,8|0,0:0|1:0,0:0:0:0:
220,352,87890,5,8,1:2:0:0:
144,300,88042,1,8,1:2:0:0:
172,212,88193,1,8,0:0:0:0:
264,220,88345,1,12,1:2:0:0:
