osu file format v14

[General]
AudioFilename: audio.mp3
AudioLeadIn: 0
PreviewTime: 49535
Countdown: 0
SampleSet: Soft
StackLeniency: 0.7
Mode: 0
LetterboxInBreaks: 0
WidescreenStoryboard: 0

[Editor]
DistanceSpacing: 1
BeatDivisor: 4
GridSize: 8
TimelineZoom: 1.9

[Metadata]
Title:Theater of Life (TV Size)
TitleUnicode:Theater of Life (TV Size)
Artist:Suzuki Konomi
ArtistUnicode:鈴木このみ
Creator:Sarawatlism
Version:Shizuku's Expert
Source:デカダンス
Tags:deca-dence deca dence anime jpop pop j-pop opening op japanese [_lost_] conner c_o_n_n_e_r hantrik yuuya_ke shizuku- grindle kazato asa
BeatmapID:2538345
BeatmapSetID:1214744

[Difficulty]
HPDrainRate:6
CircleSize:4
OverallDifficulty:8.3
ApproachRate:9.2
SliderMultiplier:1.76
SliderTickRate:1

[Events]
//Background and Video events
0,0,"BG.jpg",0,0
Video,0,"VD.mp4"
//Break Periods
2,11023,17677
//Storyboard Layer 0 (Background)
//Storyboard Layer 1 (Fail)
//Storyboard Layer 2 (Pass)
//Storyboard Layer 3 (Foreground)
//Storyboard Layer 4 (Overlay)
//Storyboard Sound Samples

[TimingPoints]
66,303.030303030303,4,2,1,55,1,0
1126,-100,4,2,1,75,0,0
10823,-100,4,2,1,55,0,0
18247,-125,4,2,1,60,0,0
19459,-125,4,2,1,65,0,0
20520,-111.111111111111,4,2,1,70,0,0
30217,-142.857142857143,4,2,1,65,0,0
37490,-111.111111111111,4,2,1,70,0,0
38702,-111.111111111111,4,2,1,75,0,0
39914,-100,4,2,1,70,0,0
41505,-100,4,2,1,5,0,0
41581,-100,4,2,1,70,0,0
47187,-100,4,2,1,75,0,0
47490,-100,4,2,1,60,0,0
47565,-100,4,2,1,56,0,0
47641,-100,4,2,1,58,0,0
47716,-100,4,2,1,60,0,0
47793,-100,4,2,1,61,0,0
47868,-100,4,2,1,63,0,0
47944,-100,4,2,1,65,0,0
48020,-100,4,2,1,66,0,0
48096,-100,4,2,1,68,0,0
48172,-100,4,2,1,70,0,0
48247,-100,4,2,1,71,0,0
48322,-100,4,2,1,73,0,0
48399,-100,4,2,1,75,0,0
48626,-100,4,2,1,5,0,0
48702,-100,4,2,1,75,0,0
49535,-100,4,2,1,5,0,0
49611,-90.9090909090909,4,2,1,85,0,1
59232,-90.9090909090909,4,2,1,85,0,0
59308,-90.9090909090909,4,2,2,85,0,1
63171,-90.9090909090909,4,2,2,5,0,1
63247,-90.9090909090909,4,2,2,85,0,1
68929,-90.9090909090909,4,2,2,85,0,0
69005,-90.9090909090909,4,2,1,90,0,1
73172,-90.9090909090909,4,2,1,90,0,0
73247,-90.9090909090909,4,2,1,75,0,1
73322,-90.9090909090909,4,2,1,5,0,0
73550,-90.9090909090909,4,2,1,75,0,1
73625,-90.9090909090909,4,2,1,5,0,0
73853,-90.9090909090909,4,2,1,85,0,1
76581,-90.9090909090909,4,2,1,70,0,1
76732,-90.9090909090909,4,2,1,75,0,1
76884,-90.9090909090909,4,2,1,80,0,1
77035,-90.9090909090909,4,2,1,85,0,1
77187,-90.9090909090909,4,2,1,90,0,1
77338,-90.9090909090909,4,2,1,95,0,1
77490,-90.9090909090909,4,2,1,100,0,0
78399,-90.9090909090909,4,2,1,60,0,0
78626,-90.9090909090909,4,2,1,5,0,0
78702,-90.9090909090909,4,2,1,75,0,1
78778,-90.9090909090909,4,2,1,75,0,0
79156,-100,4,2,1,75,0,0
87187,-83.3333333333333,4,2,1,75,0,0
87944,-83.3333333333333,4,2,1,80,0,0

[Colours]
Combo1 : 254,238,184
Combo2 : 157,77,77
Combo3 : 255,194,166
Combo4 : 247,89,36
Combo5 : 153,202,117
Combo6 : 192,220,201

[HitObjects]
500,311,1126,6,0,B|403:293|434:364|335:350,1,176,4|0,1:0|0:0,0:0:0:0:
256,240,1581,2,0,P|266:197|278:155,1,88,10|0,0:0|0:0,0:0:0:0:
112,88,1884,5,2,1:2:0:0:
275,8,2035,1,0,1:0:0:0:
181,177,2187,1,8,0:0:0:0:
95,3,2338,6,0,P|28:54|36:138,1,176,2|0,1:2|1:0,0:0:0:0:
256,240,2793,2,0,P|212:249|170:259,1,88,10|0,0:0|0:0,0:0:0:0:
341,166,3096,5,2,1:2:0:0:
112,88,3247,1,0,1:0:0:0:
275,8,3399,1,8,0:0:0:0:
256,240,3550,6,0,B|274:349|274:349|338:337,1,176,2|0,1:2|1:0,0:0:0:0:
512,232,4005,2,0,P|474:210|430:212,1,88,10|0,0:0|0:0,0:0:0:0:
247,120,4308,5,2,1:2:0:0:
404,53,4459,1,0,1:0:0:0:
350,253,4611,1,8,0:0:0:0:
112,88,4762,6,0,P|70:74|27:65,1,88,2|0,1:2|0:0,0:0:0:0:
175,177,5066,1,0,1:0:0:0:
227,12,5217,1,12,0:0:0:0:
266,300,5369,6,0,B|221:266|172:280|172:280|154:312|109:319,1,176,2|2,0:0|1:2,0:0:0:0:
27,284,5747,1,0,1:2:0:0:
32,280,5823,2,0,L|24:236,1,44,0|0,1:2|1:2,0:0:0:0:
175,177,5975,6,0,B|239:162|239:162|283:182|283:182|343:167,1,176,6|0,1:2|1:0,0:0:0:0:
512,137,6429,1,10,0:0:0:0:
299,81,6581,1,0,0:0:0:0:
446,4,6732,2,0,P|433:45|428:89,1,88,2|0,1:2|1:0,0:0:0:0:
320,192,7035,1,8,0:0:0:0:
512,320,7187,6,0,P|447:264|362:275,1,176,2|0,1:2|1:0,0:0:0:0:
259,370,7641,1,10,0:0:0:0:
208,186,7793,1,0,0:0:0:0:
67,290,7944,2,0,P|110:296|153:307,1,88,2|0,1:2|1:0,0:0:0:0:
320,192,8247,1,8,0:0:0:0:
152,4,8399,6,0,B|86:18|86:18|107:124,1,176,6|0,1:2|1:0,0:0:0:0:
107,124,8778,1,0,1:0:0:0:
107,124,8853,1,8,0:0:0:0:
320,192,9005,1,2,1:2:0:0:
123,242,9156,1,8,0:0:0:0:
254,106,9308,1,2,1:2:0:0:
254,106,9384,1,0,1:0:0:0:
254,106,9459,1,8,0:0:0:0:
300,301,9611,6,0,B|349:288|395:275|395:275|437:305|422:340,1,176,6|0,1:2|1:0,0:0:0:0:
254,106,10066,2,0,P|258:84|262:62,1,44,8|0,0:0|0:0,0:0:0:0:
108,159,10217,2,0,P|112:180|116:202,1,44,2|0,1:2|1:0,0:0:0:0:
162,331,10369,5,8,0:3:0:0:
133,365,10444,1,8,0:3:0:0:
93,383,10520,1,8,0:3:0:0:
50,381,10596,1,8,0:3:0:0:
11,360,10672,2,0,P|6:339|2:317,1,44,8|8,0:3|0:3,0:0:0:0:
116,202,10823,5,4,1:0:0:0:
320,32,18247,6,0,B|397:16|379:65|456:49,3,140.8,0|0|2|2,1:0|1:0|1:2|1:2,0:0:0:0:
381,212,19459,2,0,B|304:196|322:245|245:229,1,140.8,0|2,1:0|1:2,0:0:0:0:
146,154,19914,1,8,0:0:0:0:
146,154,19990,1,8,0:0:0:0:
146,154,20066,1,8,0:0:0:0:
320,32,20217,1,2,1:2:0:0:
320,32,20520,6,0,B|220:16|220:16|205:38|178:55,1,158.399995166016,4|2,1:0|1:2,0:0:0:0:
84,231,20975,2,0,P|47:216|7:212,1,79.1999975830079,10|0,0:0|0:0,0:0:0:0:
179,369,21278,2,0,L|255:349,1,79.1999975830079,2|2,1:2|0:3,0:0:0:0:
294,337,21505,1,0,1:0:0:0:
294,337,21581,1,10,0:0:0:0:
498,232,21732,6,0,P|421:241|362:192,1,158.399995166016,2|2,1:2|1:2,0:0:0:0:
430,65,22187,2,0,P|440:104|444:143,1,79.1999975830079,10|0,0:0|0:0,0:0:0:0:
259,306,22490,2,0,P|249:267|245:228,1,79.1999975830079,2|2,1:2|0:3,0:0:0:0:
263,198,22717,1,0,1:0:0:0:
263,198,22793,1,10,0:0:0:0:
178,54,22944,6,0,P|100:72|24:91,1,158.399995166016,2|2,1:2|1:2,0:0:0:0:
172,228,23399,1,10,0:0:0:0:
14,201,23550,1,2,0:0:0:0:
148,327,23702,2,0,P|185:315|225:309,1,79.1999975830079,2|2,1:2|0:3,0:0:0:0:
259,306,23929,1,0,1:0:0:0:
259,306,24005,1,10,0:0:0:0:
444,143,24156,6,0,B|420:235|420:235|431:266|461:281,1,158.399995166016,2|2,1:2|1:2,0:0:0:0:
460,281,24611,1,8,0:0:0:0:
345,176,24762,2,0,P|309:182|267:190,1,79.1999975830079,2|0,0:0|1:0,0:0:0:0:
183,57,25065,2,0,L|191:18,2,39.5999987915039,2|0|8,0:3|1:0|0:0,0:0:0:0:
24,91,25369,6,0,P|37:169|44:247,1,158.399995166016,6|2,1:2|1:2,0:0:0:0:
80,377,25823,2,0,P|42:365|3:360,1,79.1999975830079,10|0,0:0|0:0,0:0:0:0:
143,190,26126,2,0,P|161:224|156:263,1,79.1999975830079,2|2,1:2|0:3,0:0:0:0:
140,301,26353,1,0,1:0:0:0:
140,301,26429,1,8,0:0:0:0:
308,364,26581,6,0,B|408:343|408:343|426:364|453:374,1,158.399995166016,2|2,1:2|1:2,0:0:0:0:
345,266,27035,2,0,P|348:226|358:188,1,79.1999975830079,10|0,0:0|0:0,0:0:0:0:
459,20,27338,2,0,P|468:58|472:97,1,79.1999975830079,2|2,1:2|0:3,0:0:0:0:
472,97,27565,1,0,1:0:0:0:
472,97,27641,1,10,0:0:0:0:
263,176,27793,6,0,B|209:165|209:165|171:182|171:182|110:171,1,158.399995166016,2|2,1:2|1:2,0:0:0:0:
255,64,28247,1,10,0:0:0:0:
131,3,28399,1,2,0:0:0:0:
255,64,28550,2,0,L|335:44,1,79.1999975830079,2|2,1:2|0:3,0:0:0:0:
373,31,28778,1,0,1:0:0:0:
373,31,28853,1,10,0:0:0:0:
512,176,29005,6,0,P|513:251|449:292,1,158.399995166016,2|0,1:2|1:0,0:0:0:0:
320,384,29459,2,0,P|282:370|243:362,1,79.1999975830079,12|0,0:0|1:0,0:0:0:0:
160,192,29762,1,8,0:3:0:0:
141,199,29838,1,8,0:3:0:0:
122,205,29914,1,8,0:3:0:0:
103,209,29990,1,8,0:3:0:0:
83,213,30065,1,8,0:3:0:0:
144,38,30217,6,0,P|194:70|254:63,1,123.199996240234,4|0,1:0|0:0,0:0:0:0:
351,97,30672,2,0,L|363:36,1,61.5999981201172,2|0,1:2|0:0,0:0:0:0:
279,156,30975,2,0,P|287:216|297:277,1,123.199996240234,2|2,1:2|1:2,0:0:0:0:
397,384,31429,5,10,0:0:0:0:
505,277,31581,2,0,B|450:261|440:305|385:288,2,123.199996240234,0|0|2,1:0|1:0|1:2,0:0:0:0:
421,144,32338,2,0,P|415:174|409:204,1,61.5999981201172,10|0,0:0|1:0,0:0:0:0:
307,370,32641,1,10,0:0:0:0:
155,263,32793,6,0,B|102:255|102:255|88:263|88:263|35:255,1,123.199996240234,0|2,1:0|1:2,0:0:0:0:
171,125,33399,2,0,P|219:161|278:155,1,123.199996240234,2|2,1:2|1:2,0:0:0:0:
420,143,33853,2,0,P|431:83|444:23,1,123.199996240234,10|2,0:0|0:0,0:0:0:0:
333,83,34308,1,0,1:0:0:0:
333,83,34611,5,0,1:0:0:0:
375,242,34762,1,8,0:0:0:0:
512,157,34914,1,0,1:0:0:0:
470,316,35066,1,12,0:0:0:0:
291,176,35217,6,0,B|228:164|236:204|171:193,1,123.199996240234,0|2,1:0|1:2,0:0:0:0:
99,144,35672,1,2,0:0:0:0:
0,248,35823,2,0,P|45:287|105:289,1,123.199996240234,2|2,1:2|1:2,0:0:0:0:
171,193,36278,1,10,0:0:0:0:
272,384,36429,6,0,P|211:370|151:357,2,123.199996240234,0|2|2,1:0|1:2|1:2,0:0:0:0:
400,232,37187,1,10,0:0:0:0:
400,231,37490,6,0,P|347:287|270:286,1,158.399995166016,6|0,1:2|1:0,0:0:0:0:
152,159,37944,1,8,0:0:0:0:
313,211,38096,6,0,P|389:188|466:166,1,158.399995166016,4|2,1:2|1:2,0:0:0:0:
418,270,38550,1,10,0:0:0:0:
372,95,38702,6,0,B|324:62|270:66|270:66|251:86|230:96,1,158.399995166016,6|2,1:2|1:2,0:0:0:0:
39,169,39156,1,8,0:0:0:0:
97,16,39308,1,10,0:0:0:0:
97,16,39384,1,8,0:0:0:0:
97,16,39459,1,8,0:0:0:0:
152,159,39611,2,0,B|165:208|165:208|141:191,1,79.1999975830079,8|4,0:3|0:3,0:0:0:0:
142,192,39914,6,0,B|237:170|215:229|312:205,1,176,4|0,1:0|1:0,0:0:0:0:
443,182,40369,2,0,P|448:138|456:95,1,88,10|0,0:0|1:0,0:0:0:0:
291,15,40672,5,10,0:0:0:0:
381,261,40823,1,2,1:2:0:0:
456,95,40975,1,10,0:0:0:0:
261,223,41126,1,6,1:2:0:0:
161,43,41278,6,0,B|88:23|105:64|31:50,1,132,2|0,0:0|0:0,0:0:0:0:
32,50,41581,1,10,0:0:0:0:
111,212,41732,2,0,P|132:174|128:131,1,88,2|8,1:2|0:0,0:0:0:0:
226,323,42035,1,2,1:2:0:0:
26,273,42187,1,10,0:0:0:0:
221,147,42338,1,6,1:2:0:0:
150,384,42490,6,0,P|130:298|111:212,1,176,2|10,0:0|0:0,0:0:0:0:
309,129,42944,1,2,1:2:0:0:
172,14,43096,2,0,P|144:47|139:90,1,88,8|0,0:0|1:0,0:0:0:0:
261,223,43399,1,10,0:0:0:0:
351,41,43550,6,0,B|484:9|484:9|469:27|459:39,1,176,6|0,1:2|1:0,0:0:0:0:
347,240,44005,2,0,P|304:229|260:222,1,88,8|2,0:0|0:0,0:0:0:0:
413,125,44308,1,10,1:2:0:0:
413,125,44384,1,8,0:0:0:0:
413,125,44459,2,0,L|421:168,1,44,8|8,0:0|0:0,0:0:0:0:
502,260,44611,2,0,L|510:216,1,44,10|8,0:0|0:0,0:0:0:0:
421,322,44762,6,0,B|323:304|351:375|257:362,1,176,6|0,1:2|1:0,0:0:0:0:
183,258,45217,2,0,P|190:214|201:171,1,88,8|8,0:0|0:3,0:0:0:0:
221,147,45444,1,8,0:3:0:0:
221,147,45520,1,2,1:2:0:0:
22,72,45672,1,0,1:0:0:0:
78,237,45823,1,8,0:0:0:0:
152,89,45975,6,0,B|184:43|246:61|246:61|272:92|307:89,1,176,2|2,1:2|1:2,0:0:0:0:
445,7,46429,1,10,0:0:0:0:
499,180,46581,1,8,0:3:0:0:
499,180,46656,1,8,0:3:0:0:
499,180,46732,2,0,P|455:172|412:163,1,88,2|0,1:2|1:0,0:0:0:0:
340,323,47035,1,10,0:0:0:0:
78,236,47187,6,0,P|140:179|222:198,1,176,6|8,1:2|0:0,0:0:0:0:
247,234,47565,1,8,0:0:0:0:
247,234,47641,2,0,L|235:276,1,44,8|8,0:0|0:0,0:0:0:0:
138,138,47793,2,0,L|126:95,1,44,8|8,0:0|0:0,0:0:0:0:
251,29,47944,5,8,0:0:0:0:
287,13,48020,1,8,0:0:0:0:
326,17,48096,1,8,0:0:0:0:
358,39,48172,1,8,0:0:0:0:
376,73,48247,2,0,L|368:116,1,44,8|8,0:0|0:0,0:0:0:0:
213,303,48399,6,0,B|287:287|266:337|339:322,1,132,6|0,1:2|0:0,0:0:0:0:
420,372,48702,2,0,L|438:285,1,88,10|0,0:0|0:0,0:0:0:0:
299,98,49005,1,2,1:2:0:0:
484,55,49156,1,6,1:2:0:0:
320,245,49308,6,0,B|296:257|296:257|317:182|317:182|331:205,1,132,2|0,0:0|0:0,0:0:0:0:
339,322,49611,6,0,B|295:279|239:311|239:311|225:353|172:353,1,193.600005908203,4|0,1:0|1:0,0:0:0:0:
34,173,50065,2,0,P|81:183|128:194,1,96.8000029541017,8|0,0:0|0:0,0:0:0:0:
314,109,50369,1,0,1:0:0:0:
139,3,50520,1,0,1:0:0:0:
210,238,50672,5,10,0:0:0:0:
326,17,50823,2,0,B|395:-9|450:57|450:57|411:93,1,193.600005908203,2|0,1:2|1:0,0:0:0:0:
210,238,51278,2,0,P|163:224|116:211,1,96.8000029541017,8|0,0:0|0:0,0:0:0:0:
349,283,51581,5,0,1:0:0:0:
216,135,51732,1,2,1:2:0:0:
410,93,51884,1,10,0:0:0:0:
240,362,52035,6,0,P|150:330|53:323,1,193.600005908203,6|2,1:2|1:2,0:0:0:0:
307,189,52490,1,10,0:0:0:0:
135,64,52641,2,0,P|123:111|114:158,1,96.8000029541017,2|0,0:0|1:0,0:0:0:0:
277,8,52944,5,2,1:2:0:0:
210,238,53096,1,10,0:0:0:0:
410,93,53247,6,0,B|536:64|536:64|498:116,1,193.600005908203,2|2,1:2|1:2,0:0:0:0:
289,275,53702,1,10,0:0:0:0:
338,65,53853,1,2,0:0:0:0:
463,290,54005,5,8,0:0:0:0:
423,280,54081,1,8,0:0:0:0:
385,294,54156,1,10,0:0:0:0:
359,325,54232,1,8,0:0:0:0:
332,356,54308,1,8,0:0:0:0:
293,369,54384,1,8,0:0:0:0:
254,359,54459,6,0,B|185:342|185:342|135:369|135:369|71:353,1,193.600005908203,4|0,1:2|1:0,0:0:0:0:
192,142,54914,2,0,P|200:189|209:237,1,96.8000029541017,10|0,0:0|0:0,0:0:0:0:
17,107,55217,2,0,P|25:59|34:11,1,96.8000029541017,2|0,1:2|1:0,0:0:0:0:
91,223,55520,5,10,0:0:0:0:
229,54,55672,2,0,B|333:35|306:117|411:92,1,193.600005908203,2|2,1:2|1:2,0:0:0:0:
304,254,56126,2,0,P|257:241|209:236,1,96.8000029541017,10|0,0:0|0:0,0:0:0:0:
485,164,56429,5,0,1:0:0:0:
356,354,56581,1,2,1:2:0:0:
257,142,56732,1,10,0:0:0:0:
398,261,56884,6,0,B|487:275|516:199|516:199|485:164,1,193.600005908203,2|2,1:2|1:2,0:0:0:0:
257,142,57338,1,10,0:0:0:0:
397,15,57490,1,2,0:0:0:0:
304,254,57641,5,2,1:2:0:0:
218,58,57793,1,2,1:2:0:0:
423,110,57944,1,10,0:0:0:0:
194,234,58096,6,0,B|137:199|86:225|86:225|66:264|21:263,1,193.600005908203,6|0,1:2|1:0,0:0:0:0:
21,263,58475,1,0,1:0:0:0:
21,263,58550,1,8,0:0:0:0:
142,109,58702,1,2,1:2:0:0:
363,321,58853,5,10,0:0:0:0:
400,307,58929,1,8,0:0:0:0:
431,282,59005,1,10,0:0:0:0:
452,247,59081,1,8,0:0:0:0:
460,208,59156,1,8,0:0:0:0:
455,168,59232,1,8,0:0:0:0:
438,133,59308,6,0,B|365:122|365:122|326:152|326:152|256:141,1,193.600005908203,4|0,1:0|3:0,0:0:0:0:
72,184,59762,2,0,P|46:143|48:95,1,96.8000029541017,8|0,0:0|3:0,0:0:0:0:
200,0,60065,2,0,P|188:46|179:94,1,96.8000029541017,0|0,1:0|3:0,0:0:0:0:
322,212,60369,1,10,0:0:0:0:
176,336,60520,5,2,3:2:0:0:
176,336,60596,1,2,3:2:0:0:
176,336,60672,2,0,P|114:264|20:263,2,193.600005908203,0|8|0,1:0|0:0|1:0,0:0:0:0:
322,212,61429,1,2,3:2:0:0:
144,129,61581,1,10,0:0:0:0:
359,325,61732,6,0,B|498:292|498:292|466:331,1,193.600005908203,6|2,1:2|3:2,0:0:0:0:
322,212,62187,1,10,0:0:0:0:
446,106,62338,2,0,B|462:151|462:151|436:192,1,96.8000029541017,2|0,3:2|1:0,0:0:0:0:
254,94,62641,2,0,P|264:46|275:0,1,96.8000029541017,2|8,3:2|0:0,0:0:0:0:
72,184,62944,6,0,P|88:254|103:325,1,145.200004431152,2|0,3:2|0:0,0:0:0:0:
103,325,63247,1,2,3:2:0:0:
257,211,63399,2,0,P|220:182|173:181,1,96.8000029541017,10|2,0:0|3:2,0:0:0:0:
403,117,63702,1,2,1:2:0:0:
264,15,63853,1,0,1:0:0:0:
348,208,64005,1,10,0:0:0:0:
498,66,64156,6,0,B|514:137|514:137|489:181|489:181|506:249,1,193.600005908203,6|0,1:2|3:0,0:0:0:0:
359,325,64611,1,8,0:0:0:0:
359,325,64762,1,2,3:2:0:0:
257,152,64914,2,0,B|152:131|175:200|70:183,1,193.600005908203,2|10,1:2|0:0,0:0:0:0:
219,238,65369,1,2,3:2:0:0:
3,102,65520,6,0,P|20:198|35:293,1,193.600005908203,0|10,1:0|0:0,0:0:0:0:
256,151,65975,2,0,P|217:124|170:117,1,96.8000029541017,2|0,3:2|1:0,0:0:0:0:
219,238,66278,1,2,3:2:0:0:
304,38,66429,1,10,0:0:0:0:
414,279,66581,6,0,B|370:237|308:276|308:276|294:316|251:323,1,193.600005908203,6|2,1:2|3:2,0:0:0:0:
90,194,67035,1,8,0:0:0:0:
236,142,67187,2,0,P|227:189|218:237,1,96.8000029541017,2|0,3:2|1:0,0:0:0:0:
304,38,67490,1,0,3:0:0:0:
139,105,67641,1,10,0:0:0:0:
348,208,67793,6,0,B|484:181|484:181|431:163,1,193.600005908203,6|0,1:2|1:0,0:0:0:0:
304,38,68247,1,8,0:0:0:0:
414,279,68399,1,0,1:0:0:0:
206,133,68550,5,10,0:0:0:0:
168,117,68626,1,8,0:0:0:0:
128,116,68702,1,8,0:0:0:0:
91,130,68778,1,8,0:0:0:0:
60,156,68853,1,8,0:0:0:0:
41,192,68929,1,8,0:0:0:0:
36,231,69005,6,0,B|91:244|115:285|115:285|154:255|205:266,1,193.600005908203,4|2,1:0|1:2,0:0:0:0:
436,199,69459,1,8,0:0:0:0:
241,54,69611,1,2,1:2:0:0:
338,274,69762,2,0,P|326:320|315:368,1,96.8000029541017,8|2,0:0|1:2,0:0:0:0:
505,78,70066,5,8,0:0:0:0:
274,191,70217,2,0,B|201:177|201:177|158:203|158:203|89:193,1,193.600005908203,6|2,1:2|1:2,0:0:0:0:
376,112,70672,1,10,0:0:0:0:
131,59,70823,1,2,1:2:0:0:
219,266,70975,2,0,P|207:313|196:360,1,96.8000029541017,10|0,0:0|1:0,0:0:0:0:
89,193,71278,5,8,0:0:0:0:
301,351,71429,2,0,B|348:309|411:322|411:322|427:361|467:366,1,193.600005908203,6|2,1:2|1:2,0:0:0:0:
511,116,71884,1,8,0:0:0:0:
303,251,72035,1,2,1:2:0:0:
333,10,72187,5,8,0:0:0:0:
416,236,72338,1,2,1:2:0:0:
179,179,72490,1,8,0:0:0:0:
410,110,72641,6,0,P|418:62|427:14,1,96.8000029541017,6|0,1:2|0:0,0:0:0:0:
493,281,72944,1,10,0:0:0:0:
470,309,73020,1,8,0:0:0:0:
438,326,73096,1,8,0:0:0:0:
402,328,73172,1,8,0:0:0:0:
369,316,73247,6,0,L|377:268,1,48.4000014770508,2|0,1:2|0:0,0:0:0:0:
241,54,73550,6,0,L|232:101,1,48.4000014770508,2|0,1:2|0:0,0:0:0:0:
25,331,73853,6,0,B|72:325|72:325|107:359|107:359|160:341|160:341|194:364,1,193.600005908203,6|0,1:2|1:0,0:0:0:0:
366,186,74308,1,10,0:0:0:0:
139,102,74459,1,0,1:0:0:0:
300,283,74611,5,10,0:0:0:0:
265,44,74762,1,0,1:0:0:0:
494,123,74914,1,10,0:0:0:0:
220,200,75066,6,0,B|121:176|136:247|34:229,1,193.600005908203,6|0,1:2|1:0,0:0:0:0:
306,128,75520,1,8,0:0:0:0:
80,40,75672,1,2,1:2:0:0:
80,40,75747,1,0,1:2:0:0:
80,39,75823,2,0,P|51:77|51:125,1,96.8000029541017,10|2,0:0|1:2,0:0:0:0:
191,285,76126,1,10,0:0:0:0:
26,337,76278,6,0,P|97:275|191:285,1,193.600005908203,6|8,1:2|0:3,0:0:0:0:
446,195,76732,1,8,0:3:0:0:
181,108,76884,1,8,0:3:0:0:
348,328,77035,5,10,0:0:0:0:
348,51,77187,1,10,0:0:0:0:
189,283,77338,1,10,0:0:0:0:
446,195,77490,5,10,0:0:0:0:
446,195,78399,6,0,B|467:162|467:162|450:103|450:103|429:142,1,145.200004431152,8|0,0:3|0:0,0:0:0:0:
512,251,78702,6,0,B|408:226|431:303|328:287,1,193.600005908203,4|0,1:0|1:0,0:0:0:0:
170,95,79156,2,0,P|180:52|191:9,1,88,10|0,0:0|0:0,0:0:0:0:
272,157,79459,1,2,1:2:0:0:
132,219,79611,1,0,1:0:0:0:
47,95,79762,1,8,0:0:0:0:
25,336,79914,6,0,B|76:304|76:304|184:344,1,176,2|0,1:2|1:0,0:0:0:0:
290,243,80369,2,0,P|280:200|272:157,1,88,10|0,0:0|0:0,0:0:0:0:
434,26,80672,5,2,1:2:0:0:
376,178,80823,1,0,1:0:0:0:
287,26,80975,1,8,0:0:0:0:
484,193,81126,6,0,B|503:305|503:305|441:317,1,176,6|0,1:2|1:0,0:0:0:0:
359,94,81581,2,0,P|402:96|439:119,1,88,10|0,0:0|0:0,0:0:0:0:
290,243,81884,5,2,1:2:0:0:
120,198,82035,1,0,1:0:0:0:
246,64,82187,1,8,0:0:0:0:
199,262,82338,6,0,P|251:328|336:325,1,176,2|0,1:2|1:0,0:0:0:0:
459,160,82793,1,12,0:0:0:0:
290,243,82944,1,2,0:0:0:0:
185,29,83096,5,8,0:0:0:0:
141,18,83172,1,0,1:2:0:0:
99,27,83247,1,2,1:2:0:0:
65,55,83323,1,0,1:2:0:0:
47,95,83399,1,0,1:2:0:0:
230,172,83550,6,0,B|297:157|297:157|337:174|337:174|400:159,1,176,6|0,1:2|1:0,0:0:0:0:
368,10,84005,2,0,B|339:47|339:47|348:86,1,88,10|0,0:0|0:0,0:0:0:0:
483,204,84308,5,2,1:2:0:0:
290,243,84459,1,0,1:0:0:0:
437,78,84611,1,8,0:0:0:0:
456,320,84762,6,0,B|421:277|361:292|361:292|340:328|304:329,1,176,2|0,1:2|1:0,0:0:0:0:
230,172,85217,1,10,0:0:0:0:
189,384,85369,1,0,0:0:0:0:
46,261,85520,2,0,P|84:241|128:238,1,88,2|0,1:2|1:0,0:0:0:0:
221,305,85823,1,8,0:0:0:0:
342,132,85975,6,0,B|376:14|376:14|333:45,1,176,6|0,1:2|1:0,0:0:0:0:
333,45,86353,1,0,1:0:0:0:
333,45,86429,1,8,0:0:0:0:
392,232,86581,1,2,1:2:0:0:
392,232,86656,1,0,1:0:0:0:
392,232,86732,2,0,L|434:221,1,44,8|0,0:0|0:0,0:0:0:0:
241,129,86884,1,2,1:2:0:0:
241,129,86959,1,0,1:0:0:0:
241,129,87035,2,0,L|230:171,1,44,8|0,0:0|0:0,0:0:0:0:
168,337,87187,6,0,B|114:325|114:325|68:346|68:346|5:333|5:333|41:314,1,211.199993554688,6|0,1:2|1:0,0:0:0:0:
41,314,87565,1,0,1:0:0:0:
41,314,87641,1,8,0:0:0:0:
277,367,87793,5,2,1:2:0:0:
277,367,87869,1,0,1:0:0:0:
277,367,87944,1,10,0:0:0:0:
363,83,88096,1,10,0:0:0:0:
115,243,88247,1,10,0:0:0:0:
401,319,88399,1,10,0:0:0:0:
