osu file format v14

[General]
AudioFilename: audio.mp3
AudioLeadIn: 0
PreviewTime: 49535
Countdown: 0
SampleSet: Soft
StackLeniency: 0.7
Mode: 0
LetterboxInBreaks: 0
WidescreenStoryboard: 0

[Editor]
DistanceSpacing: 1.2
BeatDivisor: 4
GridSize: 32
TimelineZoom: 1.9

[Metadata]
Title:Theater of Life (TV Size)
TitleUnicode:Theater of Life (TV Size)
Artist:Suzuki Konomi
ArtistUnicode:鈴木このみ
Creator:Sarawatlism
Version:Insane
Source:デカダンス
Tags:deca-dence deca dence anime jpop pop j-pop opening op japanese [_lost_] conner c_o_n_n_e_r hantrik yuuya_ke shizuku- grindle kazato asa
BeatmapID:2549282
BeatmapSetID:1214744

[Difficulty]
HPDrainRate:6
CircleSize:4
OverallDifficulty:7.5
ApproachRate:9
SliderMultiplier:1.72
SliderTickRate:1

[Events]
//Background and Video events
0,0,"BG.jpg",0,0
Video,0,"VD.mp4"
//Break Periods
//Storyboard Layer 0 (Background)
//Storyboard Layer 1 (Fail)
//Storyboard Layer 2 (Pass)
//Storyboard Layer 3 (Foreground)
//Storyboard Layer 4 (Overlay)
//Storyboard Sound Samples

[TimingPoints]
66,303.030303030303,4,2,1,55,1,0
1126,-100,4,2,1,75,0,0
2565,-100,4,2,1,5,0,0
2641,-100,4,2,1,75,0,0
4989,-100,4,2,1,5,0,0
5066,-100,4,2,1,75,0,0
7414,-100,4,2,1,5,0,0
7490,-100,4,2,1,75,0,0
10823,-100,4,2,1,55,0,0
11278,-142.857142857143,4,2,1,55,0,0
18247,-125,4,2,1,60,0,0
19459,-125,4,2,1,65,0,0
20520,-111.111111111111,4,2,1,70,0,0
24383,-111.111111111111,4,2,1,5,0,0
24459,-111.111111111111,4,2,1,70,0,0
28020,-111.111111111111,4,2,1,5,0,0
28096,-111.111111111111,4,2,1,70,0,0
29232,-111.111111111111,4,2,1,5,0,0
29308,-111.111111111111,4,2,1,70,0,0
30217,-142.857142857143,4,2,1,65,0,0
37414,-142.857142857143,4,2,1,5,0,0
37490,-111.111111111111,4,2,1,70,0,0
38702,-111.111111111111,4,2,1,75,0,0
38929,-111.111111111111,4,2,1,5,0,0
39005,-111.111111111111,4,2,1,75,0,0
39838,-111.111111111111,4,2,1,5,0,0
39914,-100,4,2,1,70,0,0
41505,-100,4,2,1,5,0,0
41581,-100,4,2,1,70,0,0
42717,-100,4,2,1,5,0,0
42793,-100,4,2,1,70,0,0
43777,-100,4,2,1,5,0,0
43853,-100,4,2,1,70,0,0
47187,-100,4,2,1,75,0,0
47490,-100,4,2,1,60,0,0
47565,-100,4,2,1,56,0,0
47641,-100,4,2,1,58,0,0
47716,-100,4,2,1,60,0,0
47792,-100,4,2,1,61,0,0
47868,-100,4,2,1,63,0,0
47944,-100,4,2,1,65,0,0
48020,-100,4,2,1,66,0,0
48096,-100,4,2,1,68,0,0
48172,-100,4,2,1,70,0,0
48247,-100,4,2,1,71,0,0
48324,-100,4,2,1,73,0,0
48399,-100,4,2,1,75,0,0
48626,-100,4,2,1,5,0,0
48702,-100,4,2,1,75,0,0
49535,-100,4,2,1,5,0,0
49611,-90.9090909090909,4,2,1,85,0,1
51050,-90.9090909090909,4,2,1,5,0,1
51126,-90.9090909090909,4,2,1,85,0,1
52262,-90.9090909090909,4,2,1,5,0,1
52338,-90.9090909090909,4,2,1,85,0,1
55899,-90.9090909090909,4,2,1,5,0,1
55975,-90.9090909090909,4,2,1,85,0,1
57111,-90.9090909090909,4,2,1,5,0,1
57187,-90.9090909090909,4,2,1,85,0,1
58323,-90.9090909090909,4,2,1,5,0,1
58399,-90.9090909090909,4,2,1,85,0,1
59232,-90.9090909090909,4,2,1,85,0,0
59308,-90.9090909090909,4,2,2,85,0,1
61959,-90.9090909090909,4,2,2,5,0,1
62035,-90.9090909090909,4,2,2,85,0,1
63171,-90.9090909090909,4,2,2,5,0,1
63247,-90.9090909090909,4,2,2,85,0,1
66808,-90.9090909090909,4,2,2,5,0,1
66884,-90.9090909090909,4,2,2,85,0,1
68929,-90.9090909090909,4,2,2,85,0,0
69005,-90.9090909090909,4,2,1,90,0,1
70444,-90.9090909090909,4,2,1,5,0,1
70520,-90.9090909090909,4,2,1,90,0,1
73172,-90.9090909090909,4,2,1,90,0,0
73247,-90.9090909090909,4,2,1,75,0,1
73323,-90.9090909090909,4,2,1,5,0,0
73550,-90.9090909090909,4,2,1,75,0,1
73626,-90.9090909090909,4,2,1,5,0,0
73853,-90.9090909090909,4,2,1,85,0,1
76581,-90.9090909090909,4,2,1,70,0,1
76732,-90.9090909090909,4,2,1,75,0,1
76884,-90.9090909090909,4,2,1,80,0,1
77035,-90.9090909090909,4,2,1,85,0,1
77187,-90.9090909090909,4,2,1,90,0,1
77338,-90.9090909090909,4,2,1,95,0,1
77490,-90.9090909090909,4,2,1,100,0,0
78399,-90.9090909090909,4,2,1,60,0,0
78626,-90.9090909090909,4,2,1,5,0,0
78702,-90.9090909090909,4,2,1,75,0,1
78778,-90.9090909090909,4,2,1,75,0,0
79156,-100,4,2,1,75,0,0
80141,-100,4,2,1,5,0,0
80217,-100,4,2,1,75,0,0
82565,-100,4,2,1,5,0,0
82641,-100,4,2,1,75,0,0
84989,-100,4,2,1,5,0,0
85065,-100,4,2,1,75,0,0
87187,-83.3333333333333,4,2,1,75,0,0
87944,-83.3333333333333,4,2,1,80,0,0

[Colours]
Combo1 : 254,238,184
Combo2 : 157,77,77
Combo3 : 255,194,166
Combo4 : 247,89,36
Combo5 : 153,202,117
Combo6 : 192,220,201

[HitObjects]
68,282,1126,6,0,B|117:260|152:294|146:299|183:331|231:311,1,172,4|0,1:0|0:0,0:0:0:0:
295,233,1581,2,0,B|256:211|256:211|213:227,1,86,10|0,0:0|0:0,0:0:0:0:
345,306,1884,2,0,B|383:320|383:320|422:298,1,86,2|0,1:2|1:0,0:0:0:0:
474,208,2187,1,8,0:0:0:0:
377,95,2338,6,0,L|378:232,1,129,2|0,1:2|0:0,0:0:0:0:
378,238,2641,1,0,1:0:0:0:
281,199,2793,2,0,P|234:197|202:231,1,86,10|0,0:0|0:0,0:0:0:0:
169,318,3096,2,0,P|216:320|248:286,1,86,2|0,1:2|1:0,0:0:0:0:
134,164,3399,1,8,0:0:0:0:
21,243,3550,6,0,B|203:239,1,172,2|0,1:2|1:0,0:0:0:0:
195,114,4005,2,0,P|159:87|113:94,1,86,10|0,0:0|0:0,0:0:0:0:
273,192,4308,2,0,P|315:194|348:168,1,86,2|0,1:2|1:0,0:0:0:0:
284,86,4611,1,8,0:0:0:0:
275,207,4762,6,0,L|413:204,1,129,2|0,1:2|0:0,0:0:0:0:
427,205,5066,1,0,1:0:0:0:
489,85,5217,2,0,P|437:87|422:126,1,86,12|2,0:0|0:0,0:0:0:0:
451,294,5520,1,8,0:0:0:0:
464,296,5596,1,0,1:2:0:0:
476,299,5672,1,2,1:2:0:0:
489,302,5747,1,0,1:2:0:0:
501,302,5823,2,0,L|493:258,1,44,0|0,1:2|1:2,0:0:0:0:
347,342,5975,6,0,B|404:364|436:329|428:327|461:290|516:320,1,172,6|0,1:2|1:0,0:0:0:0:
417,220,6429,2,0,P|379:255|326:244,1,86,10|0,0:0|0:0,0:0:0:0:
276,140,6732,2,0,P|317:143|346:175,1,86,2|0,1:2|1:0,0:0:0:0:
280,303,7035,1,8,0:0:0:0:
110,225,7187,6,0,L|245:223,1,129,2|0,1:2|0:0,0:0:0:0:
265,223,7490,1,0,1:0:0:0:
191,117,7641,2,0,P|154:107|118:144,1,86,10|0,0:0|0:0,0:0:0:0:
276,140,7944,2,0,B|295:98|295:98|276:61,1,86,2|0,1:2|1:0,0:0:0:0:
187,9,8247,1,8,0:0:0:0:
25,52,8399,6,0,B|26:245,1,172,6|0,1:2|1:0,0:0:0:0:
28,252,8778,1,0,1:0:0:0:
28,252,8853,2,0,P|60:218|109:220,1,86,8|2,0:0|1:2,0:0:0:0:
209,277,9156,1,8,0:0:0:0:
113,369,9308,1,2,1:2:0:0:
113,369,9384,1,0,1:0:0:0:
113,369,9459,1,8,0:0:0:0:
192,181,9611,6,0,B|243:154|277:188|264:195|308:230|355:209,1,172,6|0,1:2|1:0,0:0:0:0:
244,89,10066,2,0,P|248:67|253:39,3,43,8|0|2|0,0:0|0:0|1:2|1:0,0:0:0:0:
318,127,10369,5,8,0:3:0:0:
332,129,10444,1,8,0:3:0:0:
346,133,10520,1,8,0:3:0:0:
360,136,10596,1,8,0:3:0:0:
377,138,10672,2,0,P|372:117|368:90,1,43,8|8,0:3|0:3,0:0:0:0:
331,12,10823,5,4,1:0:0:0:
162,107,11126,1,2,0:0:0:0:
110,56,11278,2,0,P|59:52|10:117,2,120.399996325684,2|2|2,3:2|3:2|3:2,0:0:0:0:
162,107,12035,6,0,P|201:104|218:93,1,60.1999981628419,2|0,0:0|3:0,0:0:0:0:
281,46,12338,2,0,P|320:48|337:60,1,60.1999981628419,2|0,0:0|3:0,0:0:0:0:
374,125,12641,1,2,0:0:0:0:
333,192,12793,2,0,P|295:183|262:179,1,60.1999981628419,2|2,3:2|1:2,0:0:0:0:
231,278,13096,2,0,P|260:273|289:265,1,60.1999981628419,2|2,3:2|1:2,0:0:0:0:
187,201,13399,6,0,P|150:189|121:191,1,60.1999981628419,0|2,3:0|0:0,0:0:0:0:
67,239,13702,2,0,P|68:300|70:361,2,120.399996325684,2|0|0,3:2|3:0|3:0,0:0:0:0:
12,176,14459,1,0,0:0:0:0:
78,234,14611,6,0,P|131:234|143:223,1,60.1999981628419,2|0,3:2|0:0,0:0:0:0:
195,107,14914,2,0,P|168:152|172:168,1,60.1999981628419,2|0,3:2|0:0,0:0:0:0:
253,266,15217,2,0,P|226:220|210:215,1,60.1999981628419,2|2,3:2|1:2,0:0:0:0:
325,313,15520,1,0,3:0:0:0:
410,227,15672,1,2,1:2:0:0:
430,363,15823,6,0,P|417:326|413:302,1,60.1999981628419,0|2,3:0|0:0,0:0:0:0:
336,178,16126,2,0,P|334:232|322:311,2,120.399996325684,2|2|2,3:2|3:2|3:2,0:0:0:0:
299,115,16884,1,2,1:2:0:0:
235,81,17035,6,0,P|194:80|171:98,1,60.1999981628419,0|2,3:0|0:0,0:0:0:0:
165,160,17338,2,0,P|206:161|229:143,1,60.1999981628419,0|2,3:0|0:0,0:0:0:0:
107,65,17641,1,2,3:2:0:0:
31,140,17793,2,0,P|29:98|24:67,1,60.1999981628419,0|2,1:0|3:2,0:0:0:0:
103,204,18096,1,2,1:2:0:0:
0,263,18247,6,0,B|30:247|67:271|64:276|96:298|135:279,3,137.6,0|0|2|2,1:0|1:0|1:2|1:2,0:0:0:0:
236,188,19459,2,0,B|206:172|169:196|172:201|140:223|101:204,1,137.6,0|2,1:0|1:2,0:0:0:0:
238,316,19914,5,8,0:0:0:0:
238,316,19990,1,8,0:0:0:0:
238,316,20066,1,8,0:0:0:0:
264,106,20217,1,2,1:2:0:0:
264,106,20520,6,0,P|347:85|385:151,1,154.799995275879,4|2,1:0|1:2,0:0:0:0:
404,222,20975,2,0,P|367:207|314:201,1,77.3999976379395,10|0,0:0|0:0,0:0:0:0:
335,324,21278,2,0,P|375:311|469:309,1,116.099996456909,2|0,1:2|1:0,0:0:0:0:
464,314,21581,1,10,0:0:0:0:
242,376,21732,6,0,L|241:203,1,154.799995275879,2|2,1:2|1:2,0:0:0:0:
259,113,22187,2,0,P|232:141|189:144,1,77.3999976379395,10|0,0:0|0:0,0:0:0:0:
93,55,22490,2,0,P|155:32|194:77,1,116.099996456909,2|0,1:2|1:0,0:0:0:0:
195,73,22793,1,10,0:0:0:0:
135,249,22944,6,0,P|84:196|117:127,1,154.799995275879,2|2,1:2|1:2,0:0:0:0:
195,73,23399,1,10,0:0:0:0:
241,221,23550,1,2,0:0:0:0:
365,148,23702,2,0,P|328:129|288:130,1,77.3999976379395,2|2,1:2|0:3,0:0:0:0:
269,134,23929,1,0,1:0:0:0:
269,134,24005,1,10,0:0:0:0:
298,291,24156,6,0,P|372:260|437:266,1,116.099996456909,2|0,1:2|0:0,0:0:0:0:
429,266,24459,1,2,1:2:0:0:
233,362,24611,2,0,P|206:313|221:286,1,77.3999976379395,8|2,0:0|0:0,0:0:0:0:
263,219,24914,1,0,1:0:0:0:
354,347,25065,2,0,P|370:339|390:334,2,38.6999988189698,2|0|8,0:3|1:0|0:0,0:0:0:0:
233,362,25369,6,0,P|155:349|68:347,1,154.799995275879,6|2,1:2|1:2,0:0:0:0:
27,269,25823,2,0,P|66:263|107:246,1,77.3999976379395,10|0,0:0|0:0,0:0:0:0:
160,177,26126,2,0,P|132:144|43:164,1,116.099996456909,2|0,1:2|1:0,0:0:0:0:
46,158,26429,1,8,0:0:0:0:
263,219,26581,6,0,P|301:146|262:95,1,154.799995275879,2|2,1:2|1:2,0:0:0:0:
111,44,27035,2,0,P|138:73|177:76,1,77.3999976379395,10|0,0:0|0:0,0:0:0:0:
371,70,27338,2,0,B|336:59|316:81|318:82|295:102|257:94,1,116.099996456909,2|0,1:2|1:0,0:0:0:0:
249,88,27641,1,10,0:0:0:0:
263,219,27793,6,0,P|296:173|380:186,1,116.099996456909,2|0,1:2|0:0,0:0:0:0:
372,174,28096,1,2,1:2:0:0:
342,317,28247,2,0,P|324:273|339:246,1,77.3999976379395,10|2,0:0|0:0,0:0:0:0:
510,247,28550,2,0,P|475:253|431:250,1,77.3999976379395,2|2,1:2|0:3,0:0:0:0:
415,246,28778,1,0,1:0:0:0:
415,246,28853,1,10,0:0:0:0:
368,165,29005,6,0,P|419:136|474:180,1,116.099996456909,2|0,1:2|0:0,0:0:0:0:
475,174,29308,1,0,1:0:0:0:
336,248,29459,2,0,P|298:234|249:229,1,77.3999976379395,12|0,0:0|1:0,0:0:0:0:
148,329,29762,1,8,0:3:0:0:
167,322,29838,1,8,0:3:0:0:
186,316,29914,1,8,0:3:0:0:
205,312,29990,1,8,0:3:0:0:
225,308,30065,1,8,0:3:0:0:
37,192,30217,6,0,P|81:241|141:234,1,120.399996325684,4|0,1:0|0:0,0:0:0:0:
185,191,30672,2,0,P|195:153|196:125,1,60.1999981628419,2|0,1:2|0:0,0:0:0:0:
100,25,30975,2,0,P|109:85|118:155,1,120.399996325684,2|2,1:2|1:2,0:0:0:0:
185,191,31429,1,10,0:0:0:0:
311,95,31581,6,0,B|272:81|250:104|250:107|227:125|186:112,2,120.399996325684,0|0|2,1:0|1:0|1:2,0:0:0:0:
441,126,32338,2,0,P|406:131|371:118,1,60.1999981628419,10|0,0:0|1:0,0:0:0:0:
411,50,32641,1,10,0:0:0:0:
337,207,32793,6,0,P|402:206|462:206,2,120.399996325684,0|2|2,1:0|1:2|1:2,0:0:0:0:
270,178,33550,1,0,0:0:0:0:
215,226,33702,1,2,1:2:0:0:
167,172,33853,6,0,P|121:139|47:160,1,120.399996325684,10|2,0:0|0:0,0:0:0:0:
13,203,34308,1,0,1:0:0:0:
13,203,34611,1,0,1:0:0:0:
97,277,34762,2,0,P|111:239|99:213,1,60.1999981628419,8|0,0:0|1:0,0:0:0:0:
29,316,35066,1,12,0:0:0:0:
89,356,35217,6,0,B|127:368|150:346|150:344|171:323|207:333,1,120.399996325684,0|2,1:0|1:2,0:0:0:0:
267,362,35672,1,2,0:0:0:0:
335,339,35823,2,0,P|374:294|360:232,1,120.399996325684,2|2,1:2|1:2,0:0:0:0:
315,184,36278,1,10,0:0:0:0:
250,215,36429,6,0,P|190:232|137:213,2,120.399996325684,0|2|2,1:0|1:2|1:2,0:0:0:0:
311,73,37187,2,0,P|330:120|312:171,1,90.2999972442628,10|0,0:0|0:0,0:0:0:0:
315,184,37490,6,0,P|368:128|443:151,1,154.799995275879,6|0,1:2|1:0,0:0:0:0:
483,224,37944,1,8,0:0:0:0:
451,311,38096,6,0,B|410:333|371:314|377:307|337:280|290:309,1,154.799995275879,4|2,1:2|1:2,0:0:0:0:
233,364,38550,1,10,0:0:0:0:
176,289,38702,6,0,P|232:292|254:215,1,116.099996456909,6|0,1:2|0:0,0:0:0:0:
262,226,39005,1,2,1:2:0:0:
127,198,39156,1,8,0:0:0:0:
285,127,39308,1,10,0:0:0:0:
285,127,39384,1,8,0:0:0:0:
285,127,39459,1,8,0:0:0:0:
121,61,39611,2,0,L|124:190,1,116.099996456909,8|0,0:3|0:0,0:0:0:0:
127,198,39914,6,0,B|170:178|203:206|197:212|243:248|291:217,1,172,4|0,1:0|1:0,0:0:0:0:
362,142,40369,2,0,B|323:117|323:117|275:129,1,86,10|0,0:0|1:0,0:0:0:0:
370,257,40672,1,10,0:0:0:0:
451,193,40823,1,2,1:2:0:0:
354,264,40975,1,10,0:0:0:0:
486,301,41126,1,6,1:2:0:0:
288,218,41278,6,0,B|290:351,1,129,2|0,0:0|0:0,0:0:0:0:
289,365,41581,1,10,0:0:0:0:
144,344,41732,2,0,P|179:312|222:316,1,86,2|8,1:2|0:0,0:0:0:0:
169,219,42035,1,2,1:2:0:0:
24,237,42187,2,0,P|59:269|102:265,1,86,10|6,0:0|1:2,0:0:0:0:
196,136,42490,6,0,P|125:129|93:189,1,129,2|0,0:0|1:0,0:0:0:0:
89,191,42793,1,10,0:0:0:0:
45,97,42944,1,2,1:2:0:0:
169,219,43096,2,0,L|262:219,1,86,8|0,0:0|1:0,0:0:0:0:
196,136,43399,1,10,0:0:0:0:
142,296,43550,6,0,L|295:296,1,129,6|0,1:2|0:0,0:0:0:0:
290,294,43853,1,0,1:0:0:0:
369,227,44005,2,0,P|383:183|364:144,1,86,8|2,0:0|0:0,0:0:0:0:
275,62,44308,1,10,1:2:0:0:
275,62,44384,1,8,0:0:0:0:
275,62,44459,2,0,L|283:105,1,44,8|8,0:0|0:0,0:0:0:0:
371,66,44611,2,0,L|379:22,1,43,10|8,0:0|0:0,0:0:0:0:
188,0,44762,6,0,L|189:180,1,172,6|0,1:2|1:0,0:0:0:0:
160,271,45217,2,0,P|194:256|246:253,1,86,8|8,0:0|0:3,0:0:0:0:
263,261,45444,1,8,0:3:0:0:
263,261,45520,1,2,1:2:0:0:
90,325,45672,2,0,P|66:282|81:245,1,86,0|8,1:0|0:0,0:0:0:0:
107,151,45975,6,0,B|151:129|193:158|186:161|225:193|284:162,1,172,2|2,1:2|1:2,0:0:0:0:
322,77,46429,1,10,0:0:0:0:
436,183,46581,1,8,0:3:0:0:
436,183,46656,1,8,0:3:0:0:
436,183,46732,2,0,P|396:157|351:160,1,86,2|0,1:2|1:0,0:0:0:0:
301,243,47035,1,10,0:0:0:0:
512,305,47187,6,0,L|512:120,1,172,6|8,1:2|0:0,0:0:0:0:
503,111,47565,1,8,0:0:0:0:
503,111,47641,2,0,L|513:57,3,43,8|8|8|8,0:0|0:0|0:0|0:0,0:0:0:0:
423,20,47944,5,8,0:0:0:0:
409,22,48020,1,8,0:0:0:0:
393,25,48096,1,8,0:0:0:0:
379,29,48172,1,8,0:0:0:0:
362,32,48247,2,0,L|354:75,1,44,8|8,0:0|0:0,0:0:0:0:
436,183,48399,6,0,B|391:169|368:189|372:195|347:214|310:202,1,129,6|0,1:2|0:0,0:0:0:0:
299,207,48702,2,0,P|311:165|293:121,1,86,10|0,0:0|0:0,0:0:0:0:
217,236,49005,1,2,1:2:0:0:
318,301,49156,1,6,1:2:0:0:
219,150,49308,6,0,P|167:151|125:221,1,129,2|0,0:0|0:0,0:0:0:0:
116,246,49611,6,0,B|116:51,1,189.200005773926,4|0,1:0|1:0,0:0:0:0:
218,7,50065,2,0,P|248:37|305:38,1,94.600002886963,8|0,0:0|0:0,0:0:0:0:
376,121,50369,2,0,P|330:123|296:155,1,94.600002886963,0|0,1:0|1:0,0:0:0:0:
238,252,50672,1,10,0:0:0:0:
406,340,50823,6,0,P|449:267|412:225,1,141.900004330444,2|0,1:2|0:0,0:0:0:0:
396,218,51126,1,0,1:0:0:0:
238,252,51278,2,0,L|238:360,1,94.600002886963,8|0,0:0|0:0,0:0:0:0:
297,155,51581,2,0,P|264:123|212:132,1,94.600002886963,0|2,1:0|1:2,0:0:0:0:
129,198,51884,1,10,0:0:0:0:
30,41,52035,6,0,P|58:97|153:96,1,141.900004330444,6|0,1:2|0:0,0:0:0:0:
152,95,52338,1,2,1:2:0:0:
24,195,52490,1,10,0:0:0:0:
141,289,52641,2,0,B|163:245|163:245|141:199,1,94.600002886963,2|0,0:0|1:0,0:0:0:0:
72,348,52944,1,2,1:2:0:0:
238,252,53096,1,10,0:0:0:0:
24,195,53247,6,0,B|79:222|123:185|110:178|148:145|212:168,1,189.200005773926,2|2,1:2|1:2,0:0:0:0:
328,295,53702,2,0,P|276:260|224:263,1,94.600002886963,10|2,0:0|0:0,0:0:0:0:
267,91,54005,1,8,0:0:0:0:
283,99,54081,1,8,0:0:0:0:
301,102,54156,1,10,0:0:0:0:
319,98,54232,1,8,0:0:0:0:
336,89,54308,2,0,P|377:84|394:96,1,47.3000014434815,8|8,0:0|0:0,0:0:0:0:
475,162,54459,6,0,B|419:136|383:169|393:171|350:207|295:190,1,189.200005773926,4|0,1:2|1:0,0:0:0:0:
181,79,54914,2,0,P|232:70|271:95,1,94.600002886963,10|0,0:0|0:0,0:0:0:0:
70,118,55217,2,0,B|48:74|48:74|68:33,1,94.600002886963,2|0,1:2|1:0,0:0:0:0:
181,79,55520,1,10,0:0:0:0:
0,195,55672,6,0,B|163:193,1,141.900004330444,2|0,1:2|0:0,0:0:0:0:
164,191,55975,1,2,1:2:0:0:
43,319,56126,2,0,P|72:285|126:285,1,94.600002886963,10|0,0:0|0:0,0:0:0:0:
285,336,56429,2,0,P|238:333|208:299,1,94.600002886963,0|2,1:0|1:2,0:0:0:0:
258,196,56732,1,10,0:0:0:0:
380,341,56884,6,0,B|444:364|488:317|488:317|463:286,1,141.900004330444,2|0,1:2|0:0,0:0:0:0:
467,276,57187,1,2,1:2:0:0:
370,164,57338,2,0,L|370:264,1,94.600002886963,10|2,0:0|0:0,0:0:0:0:
462,132,57641,1,2,1:2:0:0:
360,23,57793,1,2,1:2:0:0:
360,23,57869,1,0,1:0:0:0:
360,23,57944,1,10,0:0:0:0:
258,196,58096,6,0,P|336:208|371:153,1,141.900004330444,6|0,1:2|0:0,0:0:0:0:
370,135,58399,1,0,1:0:0:0:
279,67,58550,2,0,P|226:71|204:116,1,94.600002886963,8|2,0:0|1:2,0:0:0:0:
158,275,58853,1,10,0:0:0:0:
162,259,58929,1,8,0:0:0:0:
167,243,59005,1,10,0:0:0:0:
173,226,59081,1,8,0:0:0:0:
179,211,59156,2,0,L|110:227,1,47.3000014434815,8|8,0:0|0:0,0:0:0:0:
37,306,59308,6,0,B|111:299|111:299|152:317|152:317|227:310,1,189.200005773926,4|0,1:0|3:0,0:0:0:0:
339,263,59762,2,0,P|299:230|250:239,1,94.600002886963,8|0,0:0|3:0,0:0:0:0:
434,310,60065,2,0,B|455:262|455:262|432:209,1,94.600002886963,0|0,1:0|3:0,0:0:0:0:
360,140,60369,1,10,0:0:0:0:
299,351,60520,1,2,3:2:0:0:
299,351,60596,1,2,0:0:0:0:
299,351,60672,6,0,P|393:346|495:350,2,189.200005773926,0|8|0,1:0|0:0|1:0,0:0:0:0:
255,245,61429,1,2,3:2:0:0:
202,346,61581,1,10,0:0:0:0:
49,240,61732,6,0,B|90:189|163:213|163:213|149:250,1,141.900004330444,6|0,1:2|0:0,0:0:0:0:
151,246,62035,1,2,3:2:0:0:
256,162,62187,1,10,0:0:0:0:
163,48,62338,2,0,B|142:95|142:95|168:136,1,94.600002886963,2|0,3:2|1:0,0:0:0:0:
338,88,62641,2,0,P|290:78|238:66,1,94.600002886963,2|8,3:2|0:0,0:0:0:0:
486,149,62944,6,0,P|414:161|345:180,1,141.900004330444,2|0,3:2|0:0,0:0:0:0:
327,192,63247,1,2,3:2:0:0:
404,322,63399,2,0,P|433:285|428:235,1,94.600002886963,10|2,0:0|3:2,0:0:0:0:
236,282,63702,2,0,P|287:293|332:280,1,94.600002886963,2|0,1:2|1:0,0:0:0:0:
193,178,64005,1,10,0:0:0:0:
144,367,64156,6,0,B|334:366,1,189.200005773926,6|0,1:2|3:0,0:0:0:0:
236,282,64611,1,8,0:0:0:0:
327,192,64762,1,2,3:2:0:0:
60,163,64914,2,0,B|113:138|154:171|151:177|195:209|250:183,1,189.200005773926,2|10,1:2|0:0,0:0:0:0:
317,104,65369,1,2,3:2:0:0:
415,257,65520,6,0,B|362:232|321:265|324:271|280:303|225:277,1,189.200005773926,0|10,1:0|0:0,0:0:0:0:
241,99,65975,1,2,3:2:0:0:
376,169,66126,2,0,P|430:160|444:113,1,94.600002886963,0|2,1:0|3:2,0:0:0:0:
283,26,66429,1,10,0:0:0:0:
156,78,66581,6,0,B|158:240,1,141.900004330444,6|0,1:2|0:0,0:0:0:0:
159,242,66884,1,2,3:2:0:0:
14,305,67035,2,0,P|52:271|99:281,1,94.600002886963,8|2,0:0|3:2,0:0:0:0:
232,353,67338,2,0,P|186:357|154:324,1,94.600002886963,0|0,1:0|3:0,0:0:0:0:
242,200,67641,1,10,0:0:0:0:
309,316,67793,6,0,B|386:350|445:289|445:289|402:259,1,189.200005773926,6|0,1:2|1:0,0:0:0:0:
269,118,68247,1,8,0:0:0:0:
339,243,68399,1,0,1:0:0:0:
476,151,68550,1,10,0:0:0:0:
460,143,68626,1,8,0:0:0:0:
445,136,68702,1,8,0:0:0:0:
430,129,68778,1,8,0:0:0:0:
412,120,68853,2,0,P|386:133|374:156,1,47.3000014434815,8|8,0:0|0:0,0:0:0:0:
339,243,69005,6,0,P|402:275|451:178,1,189.200005773926,4|2,1:0|1:2,0:0:0:0:
365,56,69459,2,0,B|345:101|345:101|371:149,1,94.600002886963,8|2,0:0|1:2,0:0:0:0:
197,198,69762,2,0,P|235:179|291:175,1,94.600002886963,8|2,0:0|1:2,0:0:0:0:
185,92,70066,1,8,0:0:0:0:
98,273,70217,6,0,B|258:272,1,141.900004330444,6|0,1:2|0:0,0:0:0:0:
261,270,70520,1,2,1:2:0:0:
120,168,70672,2,0,P|108:215|96:269,1,94.600002886963,10|2,0:0|1:2,0:0:0:0:
265,107,70975,2,0,P|253:60|241:9,1,94.600002886963,10|0,0:0|1:0,0:0:0:0:
119,49,71278,1,8,0:0:0:0:
197,198,71429,6,0,P|283:214|342:135,1,189.200005773926,6|2,1:2|1:2,0:0:0:0:
181,101,71884,1,8,0:0:0:0:
101,273,72035,1,2,1:2:0:0:
18,189,72187,2,0,P|58:156|113:167,1,94.600002886963,8|2,0:0|1:2,0:0:0:0:
189,288,72490,1,8,0:0:0:0:
4,372,72641,6,0,P|12:324|22:271,1,94.600002886963,6|0,1:2|0:0,0:0:0:0:
246,354,72944,1,10,0:0:0:0:
264,356,73020,1,8,0:0:0:0:
281,352,73096,1,8,0:0:0:0:
297,342,73172,1,8,0:0:0:0:
309,329,73247,6,0,L|317:281,1,48.4000014770508,2|0,1:2|0:0,0:0:0:0:
254,131,73550,6,0,L|245:178,1,48.4000014770508,2|0,1:2|0:0,0:0:0:0:
393,239,73853,6,0,B|340:217|303:256|310:259|276:301|218:277,1,189.200005773926,6|0,1:2|1:0,0:0:0:0:
132,203,74308,1,10,0:0:0:0:
254,131,74459,1,0,1:0:0:0:
157,42,74611,2,0,B|138:90|138:90|163:135,1,94.600002886963,10|0,0:0|1:0,0:0:0:0:
230,0,74914,1,10,0:0:0:0:
53,37,75066,6,0,B|56:237,1,189.200005773926,6|0,1:2|1:0,0:0:0:0:
106,328,75520,1,8,0:0:0:0:
216,262,75672,1,2,1:2:0:0:
216,262,75747,1,0,1:2:0:0:
217,262,75823,2,0,P|179:227|131:233,1,94.600002886963,10|2,0:0|1:2,0:0:0:0:
208,373,76126,1,10,0:0:0:0:
319,354,76278,6,0,P|381:283|349:192,1,189.200005773926,6|8,1:2|0:3,0:0:0:0:
266,129,76732,1,8,0:3:0:0:
299,264,76884,1,8,0:3:0:0:
349,113,77035,5,10,0:0:0:0:
216,261,77187,1,10,0:0:0:0:
428,158,77338,1,10,0:0:0:0:
237,36,77490,1,10,0:0:0:0:
237,36,78399,6,0,B|238:180,1,141.900004330444,8|0,0:3|0:0,0:0:0:0:
251,193,78702,6,0,B|196:169|163:211|168:214|141:253|77:237,1,189.200005773926,4|0,1:0|1:0,0:0:0:0:
27,147,79156,2,0,B|61:117|61:117|113:126,1,86,10|0,0:0|0:0,0:0:0:0:
223,48,79459,2,0,B|183:55|183:55|149:25,1,86,2|0,1:2|1:0,0:0:0:0:
302,124,79762,1,8,0:0:0:0:
484,74,79914,6,0,P|435:57|399:126,1,129,2|0,1:2|0:0,0:0:0:0:
395,142,80217,1,0,1:0:0:0:
509,260,80369,2,0,P|478:228|432:227,1,86,10|0,0:0|0:0,0:0:0:0:
370,357,80672,2,0,P|412:353|441:322,1,86,2|0,1:2|1:0,0:0:0:0:
311,201,80975,1,8,0:0:0:0:
198,278,81126,6,0,B|373:277,1,172,6|0,1:2|1:0,0:0:0:0:
314,123,81581,2,0,P|271:125|239:164,1,86,10|0,0:0|0:0,0:0:0:0:
105,222,81884,2,0,P|148:220|180:181,1,86,2|0,1:2|1:0,0:0:0:0:
155,89,82187,1,8,0:0:0:0:
65,140,82338,6,0,L|68:297,1,129,2|0,1:2|0:0,0:0:0:0:
67,289,82641,1,0,1:0:0:0:
147,354,82793,2,0,P|190:332|234:337,1,86,12|2,0:0|0:0,0:0:0:0:
387,278,83096,1,8,0:0:0:0:
371,273,83172,1,0,1:2:0:0:
357,268,83247,1,2,1:2:0:0:
341,262,83323,1,0,1:2:0:0:
325,256,83399,2,0,L|329:317,1,43,0|0,1:2|1:2,0:0:0:0:
439,358,83550,6,0,B|438:178,1,172,6|0,1:2|1:0,0:0:0:0:
378,101,84005,2,0,B|349:138|349:138|359:183,1,86,10|0,0:0|0:0,0:0:0:0:
475,103,84308,2,0,B|484:64|484:64|455:23,1,86,2|0,1:2|1:0,0:0:0:0:
356,0,84611,1,8,0:0:0:0:
274,127,84762,6,0,P|230:152|163:112,1,129,2|0,1:2|0:0,0:0:0:0:
158,101,85065,1,0,1:0:0:0:
221,19,85217,2,0,P|274:49|308:50,1,86,10|0,0:0|0:0,0:0:0:0:
81,132,85520,2,0,P|134:102|168:101,1,86,2|0,1:2|1:0,0:0:0:0:
22,25,85823,1,8,0:0:0:0:
0,216,85975,6,0,B|185:212,1,172,6|0,1:2|1:0,0:0:0:0:
197,209,86353,1,0,1:0:0:0:
197,209,86429,1,8,0:0:0:0:
306,324,86581,1,2,1:2:0:0:
306,324,86656,1,0,1:0:0:0:
306,324,86732,2,0,L|295:278,1,43,8|0,0:0|0:0,0:0:0:0:
356,175,86884,1,2,1:2:0:0:
356,175,86959,1,0,1:0:0:0:
356,175,87035,2,0,L|346:221,1,43,8|0,0:0|1:0,0:0:0:0:
324,86,87187,6,0,B|265:62|227:100|235:102|189:149|127:123,1,206.399993701172,6|0,1:2|1:0,0:0:0:0:
106,116,87565,1,0,1:0:0:0:
106,116,87641,1,8,0:0:0:0:
272,180,87793,1,2,1:2:0:0:
272,180,87869,1,0,1:0:0:0:
272,180,87944,5,10,0:0:0:0:
109,28,88096,1,10,0:0:0:0:
139,276,88247,1,10,0:0:0:0:
109,28,88399,1,10,0:0:0:0:
