osu file format v14

[General]
AudioFilename: schwi.mp3
AudioLeadIn: 0
PreviewTime: 233678
Countdown: 0
SampleSet: Soft
StackLeniency: 0.7
Mode: 0
LetterboxInBreaks: 0
WidescreenStoryboard: 1

[Editor]
Bookmarks: 193012
DistanceSpacing: 1.5
BeatDivisor: 4
GridSize: 4
TimelineZoom: 1.4

[Metadata]
Title:THERE IS A REASON
TitleUnicode:THERE IS A REASON
Artist:Suzuki Konomi
ArtistUnicode:鈴木このみ
Creator:Doormat
Version:GAIA'S HARD
Source:ノーゲーム・ノーライフ ゼロ
Tags:Kalibe Akitoshi Corinn Gaia no game no life zero 0 movie theme song ngnl nogenora
BeatmapID:1394349
BeatmapSetID:641718

[Difficulty]
HPDrainRate:5
CircleSize:4
OverallDifficulty:6
ApproachRate:7
SliderMultiplier:1.46
SliderTickRate:1

[Events]
//Background and Video events
0,0,"riku.jpg",0,0
//Break Periods
//Storyboard Layer 0 (Background)
//Storyboard Layer 1 (Fail)
//Storyboard Layer 2 (Pass)
//Storyboard Layer 3 (Foreground)
//Storyboard Sound Samples

[TimingPoints]
505,447.761194029851,4,2,1,30,1,0
505,-125,4,2,1,30,0,0
2743,-125,4,2,1,50,0,0
2967,-125,4,2,1,35,0,0
3191,-125,4,2,1,20,0,0
5654,-166.666666666667,4,2,1,20,0,0
6997,-166.666666666667,4,2,1,5,0,0
7221,-125,4,2,1,30,0,0
10243,-125,4,2,1,5,0,0
11027,-125,4,2,1,30,0,0
14609,-125,4,2,1,30,0,0
14833,-125,4,2,1,40,0,0
43490,-166.666666666667,4,2,1,30,0,0
44833,-125,4,2,1,30,0,0
68555,447.761194029851,4,2,1,50,1,0
68555,-111.111111111111,4,2,1,50,0,0
96987,-111.111111111111,4,2,1,30,0,0
100346,-111.111111111111,4,2,1,5,0,0
100793,-111.111111111111,4,2,1,50,0,0
115122,-125,4,2,1,60,0,0
129450,-125,4,2,1,70,0,0
130793,-125,4,2,3,70,0,0
131017,-125,4,2,1,70,0,0
131241,-100,4,2,1,70,0,0
133032,-125,4,2,1,70,0,0
134375,-125,4,2,3,70,0,0
134599,-125,4,2,1,70,0,0
134823,-100,4,2,1,70,0,0
136614,-100,4,2,1,80,0,0
137062,-100,4,2,3,80,0,0
137286,-100,4,2,1,80,0,0
138853,-100,4,2,3,80,0,0
139077,-100,4,2,1,80,0,0
140196,-125,4,2,1,70,0,0
141540,-125,4,2,3,70,0,0
141763,-125,4,2,1,70,0,0
141987,-100,4,2,1,70,0,0
143331,-100,4,2,3,70,0,0
143555,-100,4,2,1,70,0,0
143778,-125,4,2,1,70,0,0
145122,-125,4,2,3,70,0,0
145346,-125,4,2,1,70,0,0
147137,-111.111111111111,4,2,1,70,0,0
147808,-111.111111111111,4,2,3,70,0,0
148032,-111.111111111111,4,2,1,70,0,0
149599,-111.111111111111,4,2,3,70,0,0
149823,-111.111111111111,4,2,1,70,0,0
150719,-142.857142857143,4,2,1,60,0,0
152566,447.761194029851,4,2,1,70,1,0
152566,-142.857142857143,4,2,1,70,0,0
152715,447.761194029851,4,2,1,70,1,0
152715,-111.111111111111,4,2,1,70,0,0
154519,447.761194029851,4,2,3,80,1,0
154519,-100,4,2,3,80,0,0
183168,448.430493273543,4,2,1,80,1,0
183168,-111.111111111111,4,2,1,80,0,0
190332,447.761194029851,4,2,1,80,1,0
190332,-111.111111111111,4,2,1,80,0,0
197496,-111.111111111111,4,2,1,60,0,0
213615,464.2166344294,4,2,1,60,1,0
213615,-111.111111111111,4,2,1,60,0,0
214079,442.477876106195,4,2,1,60,1,0
214079,-111.111111111111,4,2,1,60,0,0
215400,448.933782267116,4,2,1,70,1,0
215400,-111.111111111111,4,2,1,70,0,0
224378,-111.111111111111,4,2,1,75,0,0
226174,-111.111111111111,4,2,1,80,0,0
227970,447.761194029851,4,2,1,85,1,0
227970,-111.111111111111,4,2,1,85,0,0
228865,-100,4,2,1,85,0,0
229611,-100,4,2,1,50,0,0
231552,-100,4,2,1,5,0,0
233764,455.927051671733,4,2,1,5,1,0
235131,447.761194029851,4,2,3,90,1,0
235131,-90.9090909090909,4,2,3,90,0,0
258414,-90.9090909090909,4,2,3,93,0,0
260205,-90.9090909090909,4,2,3,95,0,0
261996,-90.9090909090909,4,2,3,98,0,0
263787,452.147701582517,4,2,3,100,1,0
263787,-90.9090909090909,4,2,3,100,0,0
265595,446.096654275093,4,2,3,100,1,0
265595,-90.9090909090909,4,2,3,100,0,0
267379,447.761194029851,4,2,3,100,1,0
267379,-90.9090909090909,4,2,3,100,0,0
270967,447.761194029851,4,2,1,60,1,0
270967,-142.857142857143,4,2,1,60,0,0
272534,-142.857142857143,4,2,1,5,0,0
272758,-142.857142857143,4,2,1,55,0,0
274325,-142.857142857143,4,2,1,5,0,0
274549,-200,4,2,1,50,0,0
277011,-200,4,2,1,5,0,0
277235,-111.111111111111,4,2,1,55,0,0
277907,-111.111111111111,4,2,1,5,0,0
278131,-133.333333333333,4,2,1,60,0,0
279922,-133.333333333333,4,2,1,50,0,0
281713,-133.333333333333,4,2,1,40,0,0
283504,-133.333333333333,4,2,1,30,0,0
285295,-133.333333333333,4,2,1,20,0,0
287086,-133.333333333333,4,2,1,10,0,0
288877,-133.333333333333,4,2,1,5,0,0

[Colours]
Combo1 : 227,228,241
Combo2 : 248,240,19
Combo3 : 198,34,34
Combo4 : 190,59,129

[HitObjects]
111,123,281,5,2,0:0:0:0:
111,123,393,1,2,0:0:0:0:
111,123,505,2,0,P|122:164|129:233,1,87.6,2|2,0:2|0:0,0:0:0:0:
122,231,952,1,0,0:0:0:0:
190,310,1176,2,0,P|232:273|313:282,1,116.8,2|2,0:0|0:0,0:0:0:0:
449,192,2072,6,0,P|391:190|348:152,1,116.8,2|0,0:0|0:0,0:0:0:0:
346,65,2743,2,0,L|418:52,1,58.4,2|2,0:0|0:0,0:0:0:0:
319,155,3191,2,0,P|261:149|191:137,1,116.8,2|0,0:0|0:0,0:0:0:0:
101,113,3863,1,2,0:0:0:0:
101,113,3975,1,2,0:0:0:0:
101,113,4087,6,0,P|115:150|128:238,1,116.8,2|2,0:0|0:0,0:0:0:0:
140,313,4758,2,0,P|109:305|64:301,1,58.4,2|0,0:0|0:0,0:0:0:0:
5,344,5206,1,2,0:0:0:0:
5,344,5654,6,0,B|41:343|66:297|66:297|64:251|18:222|18:222|61:198|50:140,1,262.799991979981,2|0,0:0|0:0,0:0:0:0:
13,66,7221,2,0,P|41:62|70:54,1,58.4,2|2,0:0|0:0,0:0:0:0:
176,49,7669,6,0,P|162:79|152:131,1,58.4,2|2,0:0|0:0,0:0:0:0:
255,102,8116,2,0,P|310:88|388:87,2,116.8,2|2|2,0:0|0:0|0:0,0:0:0:0:
216,180,9236,1,2,0:0:0:0:
288,246,9460,6,0,P|308:293|303:347,1,87.6,2|2,0:0|0:0,0:0:0:0:
296,349,9907,1,2,0:0:0:0:
205,313,10131,2,0,B|94:297|94:297|95:274|81:226,1,175.2,2|0,0:0|0:0,0:0:0:0:
56,152,11027,1,2,0:0:0:0:
56,152,11139,1,2,0:0:0:0:
56,152,11251,6,0,P|19:163|-15:168,2,58.4,2|0|2,0:0|0:0|0:0,0:0:0:0:
107,80,11922,2,0,P|175:91|229:97,1,116.8,0|0,0:0|0:0,0:0:0:0:
251,90,12482,1,2,0:0:0:0:
251,90,12594,2,0,P|237:127|237:165,1,58.4,2|0,0:0|0:0,0:0:0:0:
332,139,13042,6,0,B|357:85|429:113|429:113|398:183|449:220|449:220|390:250|402:321|402:321|364:320|348:278,1,408.8,2|0,0:0|0:0,0:0:0:0:
342,275,14721,1,0,0:0:0:0:
342,275,14833,6,0,P|294:307|217:317,1,116.8,2|0,0:0|0:0,0:0:0:0:
168,262,15505,1,0,0:0:0:0:
89,304,15728,1,2,0:0:0:0:
22,246,15952,2,0,L|42:123,1,116.8,0|0,0:0|0:0,0:0:0:0:
2,51,16624,6,0,P|31:45|79:35,1,58.4,2|0,0:0|0:0,0:0:0:0:
143,15,17072,1,2,0:0:0:0:
143,15,17296,2,0,P|179:24|219:29,1,58.4,2|0,0:0|0:0,0:0:0:0:
287,19,17743,2,0,L|422:7,1,116.8,0|0,0:0|0:0,0:0:0:0:
482,47,18415,6,0,B|532:84|496:154|496:154|468:133|428:137,1,175.2,2|0,0:0|0:0,0:0:0:0:
362,106,19310,2,0,B|324:115|310:137|310:137|315:197|349:250,1,175.2,2|0,0:0|0:0,0:0:0:0:
439,284,20206,6,0,B|358:248|347:327|268:291,1,175.2,2|2,0:0|0:0,0:0:0:0:
184,278,21102,2,0,P|171:316|171:347,1,58.4,2|0,0:0|0:0,0:0:0:0:
73,272,21549,2,0,P|69:243|59:215,1,58.4,2|0,0:0|0:0,0:0:0:0:
2,132,21997,6,0,B|119:118|119:118|130:58,1,175.2,2|2,0:0|0:0,0:0:0:0:
207,21,22893,1,2,0:0:0:0:
267,84,23116,2,0,P|276:111|280:152,1,58.4,2|0,0:0|0:0,0:0:0:0:
360,176,23564,6,0,P|399:152|473:155,1,116.8,2|2,0:0|0:0,0:0:0:0:
509,230,24236,1,0,0:0:0:0:
509,230,24460,2,0,P|499:271|495:315,1,58.4,2|0,0:0|0:0,0:0:0:0:
500,375,24907,2,0,P|457:351|380:348,1,116.8,2|0,0:0|0:0,0:0:0:0:
317,297,25579,6,0,P|304:266|306:223,2,58.4,2|0|2,0:0|0:0|0:0,0:0:0:0:
270,372,26251,2,0,P|242:382|203:385,1,58.4,2|0,0:0|0:0,0:0:0:0:
136,342,26699,2,0,P|75:333|7:314,1,116.8,2|0,0:0|0:0,0:0:0:0:
2,279,27258,1,0,0:0:0:0:
2,279,27370,6,0,P|-11:210|25:165,1,116.8,2|0,0:0|0:0,0:0:0:0:
77,113,28042,1,0,0:0:0:0:
148,163,28266,2,0,B|252:184|252:184|276:148|256:113,1,175.2,2|0,0:0|0:0,0:0:0:0:
340,59,29161,6,0,P|330:33|329:-3,2,58.4,2|0|2,0:0|0:0|0:0,0:0:0:0:
422,88,29833,2,0,P|431:68|459:30,2,58.4,2|2|0,0:0|0:0|0:0,0:0:0:0:
476,156,30505,2,0,P|485:180|492:226,1,58.4,0|0,0:0|0:0,0:0:0:0:
446,287,30952,5,2,0:0:0:0:
446,287,31176,2,0,P|481:292|511:302,2,58.4,0|2|2,0:0|0:0|0:0,0:0:0:0:
369,328,31848,2,0,P|386:357|396:389,2,58.4,0|0|2,0:0|0:0|0:0,0:0:0:0:
303,268,32519,1,0,0:0:0:0:
237,326,32743,6,0,P|206:335|164:342,1,58.4,2|2,0:0|0:0,0:0:0:0:
104,296,33191,2,0,P|70:293|26:278,1,58.4,0|2,0:0|0:0,0:0:0:0:
6,208,33639,1,2,0:0:0:0:
81,162,33863,2,0,P|100:108|110:32,1,116.8,0|2,0:0|0:0,0:0:0:0:
190,15,34534,6,0,P|196:55|211:87,1,58.4,2|0,0:0|0:0,0:0:0:0:
287,93,34982,2,0,P|283:121|274:149,1,58.4,2|2,0:0|0:0,0:0:0:0:
221,219,35430,1,2,0:0:0:0:
294,171,35654,1,2,0:0:0:0:
378,194,35878,1,2,0:0:0:0:
407,276,36102,1,2,0:0:0:0:
371,356,36325,6,0,P|408:371|437:387,2,58.4,2|0|2,0:0|0:0|0:0,0:0:0:0:
305,297,36997,1,0,0:0:0:0:
305,297,37221,2,0,L|224:314,1,58.4,2|2,0:0|0:0,0:0:0:0:
166,343,37669,2,0,P|137:338|109:318,1,58.4,0|0,0:0|0:0,0:0:0:0:
35,279,38116,6,0,P|22:316|17:352,2,58.4,2|2|0,0:0|0:0|0:0,0:0:0:0:
106,228,38788,1,2,0:0:0:0:
106,228,39012,2,0,P|106:198|95:158,1,58.4,0|2,0:0|0:0,0:0:0:0:
99,82,39460,2,0,P|135:93|169:102,1,58.4,2|0,0:0|0:0,0:0:0:0:
257,53,39907,6,0,P|323:37|386:37,1,116.8,2|2,0:0|0:0,0:0:0:0:
473,27,40579,2,0,P|459:64|459:94,1,58.4,2|2,0:0|0:0,0:0:0:0:
473,212,41027,2,0,P|445:170|372:171,1,116.8,0|0,0:0|0:0,0:0:0:0:
348,245,41699,6,0,P|358:294|372:378,1,116.8,2|2,0:0|0:0,0:0:0:0:
282,347,42370,1,2,0:0:0:0:
198,374,42594,2,0,P|138:368|70:356,1,116.8,2|0,0:0|0:0,0:0:0:0:
27,289,43266,1,0,0:0:0:0:
27,289,43378,1,0,0:0:0:0:
27,289,43490,6,0,B|76:192|-29:166|44:75,1,218.999993316651,2|0,0:0|0:0,0:0:0:0:
112,143,44833,2,0,P|132:175|140:204,1,58.4,2|2,0:0|0:0,0:0:0:0:
138,282,45281,5,2,0:0:0:0:
169,192,45505,2,0,P|203:170|286:170,1,116.8,0|2,0:0|0:0,0:0:0:0:
417,322,46400,2,0,P|380:303|359:226,1,116.8,2|0,0:0|0:0,0:0:0:0:
367,147,47072,6,0,P|434:163|491:167,1,116.8,2|0,3:2|0:0,0:0:0:0:
511,83,47743,1,2,0:0:0:0:
511,83,47967,2,0,P|508:50|496:14,1,58.4,2|2,0:0|0:0,0:0:0:0:
416,1,48415,2,0,P|408:29|405:58,1,58.4,2|0,0:0|0:0,0:0:0:0:
367,147,48863,6,0,P|335:112|249:105,1,116.8,2|2,0:0|0:0,0:0:0:0:
195,51,49534,1,0,0:0:0:0:
137,117,49758,2,0,P|111:112|65:103,1,58.4,2|0,0:0|0:0,0:0:0:0:
45,186,50206,2,0,P|73:191|102:197,1,58.4,2|0,0:0|0:0,0:0:0:0:
189,188,50654,5,2,0:0:0:0:
249,251,50878,1,0,0:0:0:0:
217,332,51102,1,0,0:0:0:0:
131,352,51325,2,0,P|101:347|71:333,1,58.4,2|2,0:0|0:0,0:0:0:0:
132,263,51773,2,0,L|263:249,1,116.8,0|0,0:0|0:0,0:0:0:0:
366,215,52445,6,0,P|332:261|346:334,2,116.8,2|2|2,0:0|0:0|0:0,0:0:0:0:
443,174,53564,1,0,0:0:0:0:
364,130,53788,2,0,P|331:126|288:113,1,58.4,2|0,0:0|0:0,0:0:0:0:
242,59,54236,6,0,B|197:20|131:46|131:46|132:85|106:118,1,175.2,2|0,0:0|0:0,0:0:0:0:
31,84,55131,2,0,P|6:111|16:208,1,116.8,2|0,0:0|0:0,0:0:0:0:
84,219,55803,1,0,0:0:0:0:
69,305,56027,6,0,P|22:298|-30:295,2,87.6,2|2|2,0:0|0:0|0:0,0:0:0:0:
227,379,57146,2,0,P|206:352|234:263,1,116.8,2|0,0:0|0:0,0:0:0:0:
291,225,57818,6,0,P|218:224|201:173,1,116.8,2|0,3:2|0:0,0:0:0:0:
163,112,58490,1,0,0:0:0:0:
163,112,58713,2,0,P|171:86|182:40,1,58.4,2|0,0:0|0:0,0:0:0:0:
257,16,59161,2,0,P|266:43|273:72,1,58.4,0|2,0:0|0:0,0:0:0:0:
358,95,59609,5,2,0:0:0:0:
335,179,59833,2,0,P|320:239|315:311,1,116.8,2|2,0:0|0:0,0:0:0:0:
157,371,60728,2,0,P|155:340|140:291,1,58.4,2|0,0:0|0:0,0:0:0:0:
189,213,61176,6,0,P|139:231|65:129,1,175.2,2|0,3:2|0:0,0:0:0:0:
90,71,62072,1,0,0:0:0:0:
90,71,62296,2,0,L|154:82,1,58.4,2|0,0:0|0:0,0:0:0:0:
225,39,62743,1,0,0:0:0:0:
270,113,62967,6,0,L|400:89,1,116.8,2|0,3:2|0:0,0:0:0:0:
471,103,63639,2,0,P|457:134|452:181,1,58.4,2|0,0:0|0:0,0:0:0:0:
501,231,64087,1,2,0:0:0:0:
404,277,64310,2,0,P|383:242|296:236,1,116.8,2|2,0:0|0:0,0:0:0:0:
256,192,64870,12,0,67669,0:0:0:0:
341,112,68555,6,0,P|267:124|186:133,1,131.39999598999,6|0,0:0|0:3,0:0:0:0:
136,75,69226,1,0,0:0:0:0:
63,132,69450,2,0,P|48:168|45:213,1,65.6999979949952,0|2,0:3|0:0,0:0:0:0:
7,278,69898,2,0,P|17:321|32:353,1,65.6999979949952,0|0,0:0|0:0,0:0:0:0:
117,327,70346,6,0,P|181:288|244:285,1,131.39999598999,2|0,3:2|0:0,0:0:0:0:
326,263,71017,1,0,0:0:0:0:
231,242,71241,2,0,P|200:241|151:222,1,65.6999979949952,2|0,3:2|0:0,0:0:0:0:
311,171,71689,2,0,P|325:197|333:250,1,65.6999979949952,2|0,3:2|3:0,0:0:0:0:
214,140,72137,6,0,P|202:82|262:11,1,131.39999598999,2|4,3:2|0:3,0:0:0:0:
321,62,72808,1,0,0:0:0:0:
399,15,73032,2,0,P|434:68|422:131,1,131.39999598999,2|0,0:0|0:0,0:0:0:0:
352,191,73704,1,0,3:0:0:0:
450,234,73928,6,0,P|484:220|523:215,2,65.6999979949952,2|0|0,3:2|0:0|0:0,0:0:0:0:
408,316,74599,1,0,0:0:0:0:
408,316,74823,2,0,P|372:310|332:290,1,65.6999979949952,2|0,0:0|3:0,0:0:0:0:
291,136,75271,2,0,P|304:169|306:214,1,65.6999979949952,2|0,3:2|3:0,0:0:0:0:
236,275,75719,6,0,P|195:289|104:242,1,131.39999598999,4|2,3:2|0:0,0:0:0:0:
149,172,76390,1,0,0:0:0:0:
63,136,76614,2,0,P|28:133|-10:125,1,65.6999979949952,2|0,0:0|0:0,0:0:0:0:
98,44,77062,2,0,P|130:37|162:35,1,65.6999979949952,2|0,0:0|3:0,0:0:0:0:
281,17,77510,6,0,P|253:51|256:143,1,131.39999598999,2|0,3:2|0:0,0:0:0:0:
343,126,78181,2,0,P|371:120|421:105,1,65.6999979949952,2|0,0:0|0:0,0:0:0:0:
492,144,78629,2,0,P|477:183|473:220,1,65.6999979949952,2|2,0:0|0:0,0:0:0:0:
504,294,79077,1,0,3:0:0:0:
397,260,79301,6,0,P|332:245|249:247,1,131.39999598999,4|0,3:0|0:3,0:0:0:0:
194,300,79972,1,0,0:0:0:0:
194,300,80196,2,0,P|181:333|182:378,1,65.6999979949952,2|0,3:2|0:0,0:0:0:0:
91,335,80644,2,0,P|78:302|79:257,1,65.6999979949952,2|0,3:2|3:0,0:0:0:0:
152,190,81092,6,0,P|99:196|29:163,1,131.39999598999,4|0,3:0|0:0,0:0:0:0:
20,72,81763,1,0,0:0:0:0:
20,72,81987,2,0,P|26:36|30:2,2,65.6999979949952,2|0|2,3:2|3:0|3:2,0:0:0:0:
106,104,82659,1,0,3:0:0:0:
193,46,82883,6,0,P|256:34|328:28,1,131.39999598999,4|0,0:0|0:0,0:0:0:0:
412,4,83555,2,0,P|402:39|397:82,1,65.6999979949952,2|0,0:0|0:0,0:0:0:0:
342,163,84002,2,0,P|382:207|462:200,1,131.39999598999,2|0,0:0|3:0,0:0:0:0:
501,283,84674,6,0,P|495:330|490:384,2,98.5499969924928,2|2|0,3:2|0:0|3:0,0:0:0:0:
412,317,85569,2,0,P|378:332|339:335,1,65.6999979949952,2|0,0:0|3:0,0:0:0:0:
269,290,86017,2,0,L|184:280,1,65.6999979949952,2|0,0:0|3:0,0:0:0:0:
125,330,86465,6,0,P|63:317|46:241,1,131.39999598999,4|2,3:0|0:0,0:0:0:0:
109,195,87137,1,0,0:0:0:0:
63,115,87360,2,0,P|30:109|-21:95,1,65.6999979949952,2|0,0:0|0:0,0:0:0:0:
57,30,87808,2,0,P|89:24|141:10,1,65.6999979949952,0|2,0:0|0:0,0:0:0:0:
199,66,88256,6,0,P|215:28|283:23,2,98.5499969924928,2|2|2,3:2|0:0|0:0,0:0:0:0:
276,117,89152,2,0,L|268:204,1,65.6999979949952,2|0,0:0|3:0,0:0:0:0:
200,243,89599,2,0,L|206:308,1,65.6999979949952,2|2,0:0|3:2,0:0:0:0:
281,362,90047,6,0,P|331:358|371:323,1,98.5499969924928,4|2,0:0|0:0,0:0:0:0:
383,297,90495,1,0,0:0:0:0:
340,210,90719,1,2,0:0:0:0:
411,145,90943,2,0,P|446:153|492:156,1,65.6999979949952,2|0,0:0|0:0,0:0:0:0:
480,64,91390,2,0,P|447:60|415:53,1,65.6999979949952,2|0,0:0|3:0,0:0:0:0:
316,12,91838,6,0,B|255:0|256:67|165:37,1,131.39999598999,2|0,3:2|0:0,0:0:0:0:
102,13,92510,1,2,0:0:0:0:
102,13,92734,2,0,L|112:82,1,65.6999979949952,0|0,0:0|3:0,0:0:0:0:
34,129,93181,2,0,P|20:166|22:195,1,65.6999979949952,2|0,0:0|3:0,0:0:0:0:
10,283,93629,6,0,P|37:323|133:305,1,131.39999598999,2|0,3:2|0:0,0:0:0:0:
163,246,94301,2,0,B|255:252|255:252|260:282|271:309,1,131.39999598999,2|0,0:0|0:0,0:0:0:0:
347,329,94972,2,0,P|381:328|426:310,1,65.6999979949952,2|0,0:0|3:0,0:0:0:0:
465,243,95420,6,0,L|444:147,1,98.5499969924928,2|2,0:0|0:0,0:0:0:0:
411,113,95868,2,0,P|381:129|368:172,1,65.6999979949952,0|2,0:0|0:0,0:0:0:0:
347,246,96316,1,2,0:0:0:0:
262,208,96540,1,0,3:0:0:0:
192,267,96763,2,0,L|125:257,1,65.6999979949952,2|4,0:0|0:0,0:0:0:0:
256,192,97211,12,0,100346,0:0:0:0:
312,249,100793,6,0,P|301:285|298:333,2,65.6999979949952,4|0|2,0:0|0:0|0:3,0:0:0:0:
251,179,101465,2,0,P|246:146|236:115,2,65.6999979949952,0|2|0,0:0|0:3|0:0,0:0:0:0:
184,243,102137,1,2,0:3:0:0:
184,243,102360,6,0,P|132:283|41:272,1,131.39999598999,0|0,3:0|3:0,0:0:0:0:
26,202,103032,1,2,0:3:0:0:
26,202,103256,2,0,P|34:176|40:125,1,65.6999979949952,0|2,3:0|0:3,0:0:0:0:
106,74,103704,2,0,P|126:107|135:149,1,65.6999979949952,0|2,3:0|0:3,0:0:0:0:
183,209,104152,1,0,0:0:0:0:
234,132,104375,6,0,P|242:100|244:63,2,65.6999979949952,2|2|2,3:0|0:0|0:3,0:0:0:0:
183,209,105047,1,2,0:0:0:0:
264,248,105271,2,0,P|297:243|336:228,1,65.6999979949952,2|0,0:3|0:1,0:0:0:0:
372,152,105719,1,2,0:3:0:0:
432,248,105943,6,0,P|457:300|417:384,1,131.39999598999,0|0,3:0|3:0,0:0:0:0:
356,320,106614,1,2,0:3:0:0:
276,364,106838,2,0,L|189:372,1,65.6999979949952,0|2,3:0|0:3,0:0:0:0:
136,312,107286,2,0,L|70:305,1,65.6999979949952,0|2,3:0|0:3,0:0:0:0:
20,228,107734,1,2,3:2:0:0:
112,161,107957,6,0,P|125:124|131:85,2,65.6999979949952,4|0|2,0:0|0:0|0:3,0:0:0:0:
202,180,108629,2,0,P|239:169|269:147,2,65.6999979949952,0|2|2,0:0|0:3|0:0,0:0:0:0:
150,256,109301,1,2,0:3:0:0:
276,249,109525,6,0,P|347:255|424:268,1,131.39999598999,0|2,3:0|3:2,0:0:0:0:
461,190,110196,1,2,0:3:0:0:
461,190,110420,2,0,P|460:162|444:118,1,65.6999979949952,2|2,0:0|0:3,0:0:0:0:
399,48,110868,2,0,P|432:39|465:23,2,65.6999979949952,0|2|2,3:0|0:3|3:2,0:0:0:0:
326,113,111540,6,0,P|303:87|207:80,1,131.39999598999,2|2,3:0|0:3,0:0:0:0:
120,63,112211,1,2,0:0:0:0:
120,63,112435,2,0,P|102:102|98:139,1,65.6999979949952,2|2,0:3|3:2,0:0:0:0:
130,220,112883,1,8,0:0:0:0:
130,220,112995,1,8,0:0:0:0:
130,220,113107,1,8,0:0:0:0:
130,220,115122,6,0,L|188:229,1,58.4,4|0,3:2|3:0,0:0:0:0:
229,215,115457,1,0,3:0:0:0:
229,215,115569,2,0,P|250:250|252:291,1,58.4,8|0,3:0|3:0,0:0:0:0:
321,321,116017,2,0,P|366:313|416:293,1,87.6,8|0,3:2|3:0,0:0:0:0:
447,310,116465,2,0,P|456:276|457:236,1,58.4,8|0,3:0|3:0,0:0:0:0:
476,145,116913,6,0,P|437:165|404:169,1,58.4,2|0,3:2|3:0,0:0:0:0:
385,145,117249,1,0,3:0:0:0:
385,145,117360,2,0,P|375:111|375:71,1,58.4,8|0,3:0|3:0,0:0:0:0:
319,18,117808,1,8,3:2:0:0:
232,34,118032,1,0,3:0:0:0:
232,34,118144,1,0,3:0:0:0:
232,34,118256,2,0,P|222:71|217:106,1,58.4,8|0,3:0|3:0,0:0:0:0:
165,160,118704,6,0,P|123:154|81:121,1,87.6,4|0,3:2|3:0,0:0:0:0:
48,150,119152,2,0,P|43:188|59:224,1,58.4,8|0,3:0|3:0,0:0:0:0:
80,288,119599,1,8,3:2:0:0:
162,259,119823,1,0,3:0:0:0:
220,324,120047,2,0,L|292:310,1,58.4,8|0,3:0|3:0,0:0:0:0:
320,304,120383,1,0,0:0:0:0:
320,304,120495,6,0,L|387:321,1,58.4,2|0,3:2|3:0,0:0:0:0:
443,261,120943,2,0,L|494:243,2,29.2,8|0|0,3:0|3:0|3:0,0:0:0:0:
379,199,121390,2,0,P|370:156|390:123,1,58.4,8|0,3:2|3:0,0:0:0:0:
394,103,121726,1,0,3:0:0:0:
394,103,121838,1,8,3:0:0:0:
350,27,122062,1,0,3:0:0:0:
268,89,122286,6,0,P|272:150|285:215,1,116.8,4|8,3:2|3:0,0:0:0:0:
314,286,122957,1,0,3:0:0:0:
253,223,123181,2,0,P|206:197|121:207,1,116.8,8|0,3:2|3:0,0:0:0:0:
59,173,123853,1,0,3:0:0:0:
65,305,124077,6,0,P|125:296|192:276,1,116.8,2|8,3:2|3:0,0:0:0:0:
253,223,124749,1,0,3:0:0:0:
204,296,124972,2,0,P|191:333|195:373,1,58.4,8|0,3:2|3:0,0:0:0:0:
228,376,125308,1,0,3:0:0:0:
228,376,125420,1,8,3:0:0:0:
304,333,125644,1,0,3:0:0:0:
403,384,125868,6,0,P|428:355|407:262,1,116.8,4|8,3:2|3:0,0:0:0:0:
370,210,126540,1,0,3:0:0:0:
429,145,126763,1,8,3:2:0:0:
412,58,126987,1,4,3:0:0:0:
330,26,127211,1,4,3:0:0:0:
267,143,127435,6,0,L|292:282,1,116.8,12|0,3:2|3:0,0:0:0:0:
289,345,128107,2,0,P|262:336|207:330,1,58.4,8|0,3:2|3:0,0:0:0:0:
144,323,128555,1,4,3:0:0:0:
61,351,128778,1,4,3:0:0:0:
3,285,129002,2,0,P|-4:263|-3:210,1,58.4,8|8,3:0|3:0,0:0:0:0:
51,137,129450,6,0,L|66:34,2,87.6,4|8|0,1:2|1:3|1:0,0:0:0:0:
118,193,130346,2,0,B|161:227|226:216|226:216|200:187|200:149,1,175.2,12|2,0:0|0:0,0:0:0:0:
294,148,131241,6,0,L|374:128,1,73,4|8,1:3|0:0,0:0:0:0:
411,141,131577,1,8,1:3:0:0:
411,141,131689,1,0,0:0:0:0:
464,219,131913,1,0,1:0:0:0:
416,301,132137,2,0,L|336:281,1,73,12|2,0:0|0:0,0:0:0:0:
299,294,132472,1,8,0:0:0:0:
299,294,132584,1,8,0:3:0:0:
215,247,132808,1,8,0:3:0:0:
215,247,132920,1,8,0:0:0:0:
215,247,133032,6,0,P|209:198|198:153,2,87.6,4|8|0,1:2|1:3|1:0,0:0:0:0:
222,353,133928,2,0,B|198:382|160:386|160:386|101:343|126:286,1,175.2,12|2,0:0|0:0,0:0:0:0:
112,203,134823,6,0,L|19:183,1,73,4|8,1:3|0:0,0:0:0:0:
8,151,135159,1,8,0:3:0:0:
8,151,135271,1,2,1:2:0:0:
31,59,135495,1,0,3:0:0:0:
123,80,135719,2,0,L|194:64,1,73,12|0,0:0|0:0,0:0:0:0:
231,34,136055,1,8,0:0:0:0:
231,34,136166,2,0,L|277:42,3,36.5,2|0|8|8,0:0|3:0|0:0|0:0,0:0:0:0:
305,68,136614,6,0,L|400:50,1,73,4|0,0:0|0:0,0:0:0:0:
423,45,136950,2,0,P|463:70|464:151,1,109.5,0|2,3:0|1:2,0:0:0:0:
373,228,137510,2,0,L|361:147,1,73,12|2,1:2|1:2,0:0:0:0:
230,106,137957,2,0,L|240:178,1,73,12|0,1:2|0:0,0:0:0:0:
268,309,138405,6,0,P|233:283|180:293,1,73,4|0,0:0|0:0,0:0:0:0:
161,300,138741,2,0,P|99:314|51:262,1,109.5,0|2,3:0|1:2,0:0:0:0:
46,245,139189,1,0,0:0:0:0:
46,245,139301,1,12,1:2:0:0:
103,169,139525,2,0,L|147:184,2,36.5,2|0|8,1:2|3:0|1:3,0:0:0:0:
32,105,139972,1,0,3:0:0:0:
32,105,140084,1,8,0:3:0:0:
32,105,140196,6,0,P|26:57|16:11,2,87.6,4|8|0,1:2|1:3|1:0,0:0:0:0:
152,90,141092,2,0,B|194:88|226:52|226:52|235:110|280:127,1,175.2,12|2,0:0|0:0,0:0:0:0:
361,89,141987,6,0,P|402:63|446:67,1,73,4|8,1:2|0:0,0:0:0:0:
469,80,142323,2,0,P|485:138|493:209,1,109.5,8|0,1:3|1:0,0:0:0:0:
468,311,142883,2,0,P|441:271|347:278,1,146,12|0,0:0|0:0,0:0:0:0:
288,345,143555,1,0,0:0:0:0:
288,345,143666,1,8,0:0:0:0:
288,345,143778,6,0,L|194:363,1,87.6,4|8,1:2|0:3,0:0:0:0:
169,340,144226,2,0,L|114:329,3,29.2,8|8|4|0,1:3|0:3|3:0|0:0,0:0:0:0:
110,310,144674,2,0,B|62:289|59:235|59:235|113:232|128:173,1,175.2,12|8,0:0|0:3,0:0:0:0:
148,89,145569,6,0,P|102:97|60:104,2,87.6,4|8|2,1:2|1:3|1:2,0:0:0:0:
214,18,146465,1,12,0:0:0:0:
282,85,146689,1,8,3:0:0:0:
282,85,146801,1,8,3:0:0:0:
282,85,146913,1,8,3:0:0:0:
357,32,147137,6,0,B|446:21|446:21|462:43|475:71,1,131.39999598999,4|0,0:0|3:0,0:0:0:0:
421,136,147808,2,0,P|410:174|411:217,1,65.6999979949952,2|0,0:0|3:0,0:0:0:0:
433,289,148256,2,0,P|463:278|520:271,2,65.6999979949952,10|0|8,0:0|3:0|0:0,0:0:0:0:
356,368,148928,6,0,P|286:372|216:348,1,131.39999598999,4|0,0:0|3:0,0:0:0:0:
137,372,149599,2,0,L|124:298,1,65.6999979949952,2|0,0:0|3:0,0:0:0:0:
54,248,150047,1,8,0:0:0:0:
64,156,150271,1,8,0:3:0:0:
152,132,150495,1,0,3:0:0:0:
227,183,150719,6,0,B|173:141|203:71|203:71|261:67|273:107|273:107|312:88|357:89|357:89|381:49|381:49|435:51|437:104,1,421.574987134552,4|0,0:0|3:0,0:0:0:0:
504,152,152715,6,0,P|493:199|490:247,1,65.6999979949952,8|8,0:0|0:3,0:0:0:0:
448,236,153050,2,0,L|456:327,1,65.6999979949952,8|8,0:3|0:3,0:0:0:0:
428,340,153386,2,0,L|381:334,2,32.8499989974976,0|8|8,3:0|0:3|0:0,0:0:0:0:
46,326,154519,6,0,L|164:313,1,109.5,6|0,0:0|3:0,0:0:0:0:
199,330,154966,2,0,P|219:290|207:252,1,73,8|0,0:0|3:0,0:0:0:0:
234,170,155414,2,0,L|146:187,1,73,2|0,0:0|3:0,0:0:0:0:
79,137,155862,2,0,P|70:86|126:43,1,109.5,8|0,0:0|0:0,0:0:0:0:
148,23,156310,5,2,0:0:0:0:
235,60,156533,1,0,3:0:0:0:
323,26,156757,2,0,B|426:18|426:18|446:82,1,146,8|2,0:0|0:0,0:0:0:0:
509,122,157429,1,0,3:0:0:0:
509,122,157653,2,0,P|497:165|496:204,1,73,10|0,0:0|3:0,0:0:0:0:
457,280,158101,6,0,P|406:248|348:262,1,109.5,2|0,0:0|3:0,0:0:0:0:
312,259,158548,2,0,P|316:300|329:345,1,73,8|0,0:0|3:0,0:0:0:0:
228,327,158996,2,0,P|196:312|130:311,1,73,2|0,0:0|3:0,0:0:0:0:
83,248,159444,2,0,P|51:262|-14:263,1,73,8|0,0:0|3:0,0:0:0:0:
23,173,159892,6,0,P|36:138|41:91,1,73,2|0,0:0|3:0,0:0:0:0:
114,27,160339,2,0,P|122:103|136:171,1,146,8|2,0:0|0:0,0:0:0:0:
230,180,161011,1,0,3:0:0:0:
230,180,161235,2,0,P|268:173|312:154,1,73,8|0,0:0|3:0,0:0:0:0:
331,124,161571,1,8,0:3:0:0:
331,124,161683,6,0,L|409:138,1,73,4|0,0:0|3:0,0:0:0:0:
449,130,162019,1,0,3:0:0:0:
449,130,162130,2,0,P|488:188|449:275,1,146,8|2,0:0|0:0,0:0:0:0:
413,334,162802,1,0,3:0:0:0:
328,290,163026,2,0,L|256:277,1,73,8|0,0:0|3:0,0:0:0:0:
188,210,163474,5,6,0:0:0:0:
113,268,163698,1,0,3:0:0:0:
32,216,163921,2,0,P|2:153|72:86,1,146,8|2,0:0|0:0,0:0:0:0:
108,28,164593,1,0,3:0:0:0:
155,110,164817,2,0,L|167:200,1,73,8|0,0:0|3:0,0:0:0:0:
113,268,165265,6,0,L|96:380,1,109.5,4|0,0:0|3:0,0:0:0:0:
144,382,165713,2,0,P|226:372|291:350,1,146,8|2,0:0|0:0,0:0:0:0:
355,286,166384,1,0,3:0:0:0:
355,286,166608,2,0,P|388:301|446:306,1,73,8|0,0:0|3:0,0:0:0:0:
490,239,167056,6,0,P|486:194|468:159,1,73,2|0,0:0|3:0,0:0:0:0:
464,50,167504,2,0,P|425:66|376:77,1,73,12|2,0:0|3:2,0:0:0:0:
352,52,167839,1,8,3:2:0:0:
352,52,167951,2,0,L|280:46,1,73,0|8,3:0|0:0,0:0:0:0:
235,63,168287,1,8,0:0:0:0:
235,63,168399,2,0,L|193:75,3,36.5,8|0|8|0,0:3|3:0|0:3|3:0,0:0:0:0:
157,50,168847,6,0,P|100:60|88:149,1,146,4|8,0:0|0:0,0:0:0:0:
155,196,169519,1,0,3:0:0:0:
106,277,169742,2,0,P|70:274|20:262,1,73,2|0,0:0|3:0,0:0:0:0:
5,357,170190,2,0,P|40:364|76:367,1,73,8|0,0:0|3:0,0:0:0:0:
148,304,170638,5,2,0:0:0:0:
224,360,170862,1,0,3:0:0:0:
276,252,171086,2,0,P|249:189|249:107,1,146,8|2,0:0|0:0,0:0:0:0:
309,40,171757,1,0,3:0:0:0:
395,79,171981,2,0,L|386:170,1,73,8|0,0:0|3:0,0:0:0:0:
465,239,172429,6,0,P|502:303|488:342,1,109.5,2|0,0:0|3:0,0:0:0:0:
460,368,172877,2,0,L|375:350,1,73,8|0,0:0|3:0,0:0:0:0:
320,288,173324,1,2,0:0:0:0:
248,348,173548,1,0,3:0:0:0:
160,312,173772,2,0,L|88:327,1,73,8|0,0:0|3:0,0:0:0:0:
8,232,174220,6,0,P|-4:180|12:152,1,73,2|0,0:0|3:0,0:0:0:0:
60,88,174668,2,0,L|216:100,1,146,8|2,0:0|0:0,0:0:0:0:
272,28,175339,1,0,3:0:0:0:
356,72,175563,2,0,P|392:116|368:188,1,109.5,12|8,0:0|0:0,0:0:0:0:
372,212,176011,6,0,L|296:200,1,73,6|0,3:2|3:0,0:0:0:0:
252,188,176347,1,0,3:0:0:0:
252,188,176459,1,8,0:0:0:0:
180,248,176683,1,0,3:0:0:0:
260,300,176907,2,0,P|276:332|280:384,1,73,2|2,0:0|3:2,0:0:0:0:
376,384,177354,2,0,P|392:351|397:315,1,73,8|0,0:0|3:0,0:0:0:0:
372,212,177802,6,0,P|420:224|508:172,1,146,6|8,0:0|0:0,0:0:0:0:
452,100,178474,1,0,3:0:0:0:
452,100,178586,1,8,3:0:0:0:
452,100,178698,2,0,L|376:80,1,73,2|0,0:0|3:0,0:0:0:0:
292,52,179145,2,0,P|270:95|276:140,1,73,8|0,0:0|3:0,0:0:0:0:
272,232,179593,6,0,P|202:256|120:268,1,146,4|8,0:0|0:0,0:0:0:0:
40,296,180265,1,0,3:0:0:0:
40,296,180489,2,0,P|46:256|48:216,1,73,2|2,0:0|3:2,0:0:0:0:
8,140,180936,2,0,P|1:100|0:60,1,73,12|0,0:0|3:0,0:0:0:0:
76,8,181384,5,8,3:0:0:0:
76,8,181496,1,8,0:0:0:0:
76,8,181608,1,8,0:0:0:0:
164,44,181832,2,0,L|208:56,3,36.5,8|8|8|8,0:3|0:3|0:3|0:3,0:0:0:0:
232,88,182280,2,0,L|320:72,1,73,4|8,0:0|0:3,0:0:0:0:
352,64,182616,1,8,0:0:0:0:
352,64,182727,2,0,P|372:88|376:140,1,73,2|0,0:0|3:0,0:0:0:0:
412,244,183168,6,0,B|384:244|328:232|328:232|318:257|292:280,1,131.39999598999,4|0,0:0|0:0,0:0:0:0:
184,332,183840,2,0,P|144:308|168:228,1,131.39999598999,4|0,0:0|3:0,0:0:0:0:
236,188,184513,1,8,0:0:0:0:
132,212,184737,6,0,L|-8:236,1,131.39999598999,4|0,0:0|3:0,0:0:0:0:
16,144,185410,2,0,P|27:109|28:52,1,65.6999979949952,8|2,0:0|0:0,0:0:0:0:
100,20,185858,1,8,0:3:0:0:
100,20,185970,2,0,P|113:44|124:96,1,65.6999979949952,8|0,3:3|0:0,0:0:0:0:
168,96,186307,2,0,P|216:80|248:64,1,65.6999979949952,12|2,0:0|0:0,0:0:0:0:
348,8,186755,6,0,B|440:24|440:24|444:48|456:80,1,131.39999598999,4|0,0:0|0:0,0:0:0:0:
504,168,187428,2,0,B|412:184|412:184|408:208|396:240,1,131.39999598999,4|0,0:0|3:0,0:0:0:0:
460,292,188100,1,8,0:0:0:0:
320,320,188324,6,0,P|269:313|176:292,1,131.39999598999,4|0,0:0|3:0,0:0:0:0:
68,340,188997,2,0,P|100:292|80:208,1,131.39999598999,8|8,0:0|3:0,0:0:0:0:
32,152,189670,1,8,3:0:0:0:
32,152,189782,1,8,3:0:0:0:
32,152,189894,2,0,L|52:104,3,32.8499989974976,0|0|0|8,3:0|3:0|3:0|3:0,0:0:0:0:
52,76,190332,6,0,P|81:86|140:88,1,65.6999979949952,4|0,0:0|3:3,0:0:0:0:
156,72,190667,1,8,0:0:0:0:
156,72,190779,1,8,0:0:0:0:
264,16,191003,2,0,P|308:60|292:124,1,131.39999598999,4|0,0:0|3:0,0:0:0:0:
216,172,191675,1,8,0:0:0:0:
336,224,191899,6,0,P|373:231|412:232,1,65.6999979949952,6|0,0:0|0:0,0:0:0:0:
488,264,192346,1,2,0:0:0:0:
356,324,192570,2,0,P|323:325|291:332,1,65.6999979949952,12|2,0:0|0:0,0:0:0:0:
260,368,192906,1,8,0:0:0:0:
260,368,193018,2,0,L|208:360,3,32.8499989974976,4|0|8|8,3:0|3:0|0:0|0:0,0:0:0:0:
184,352,193466,2,0,L|151:356,3,32.8499989974976,8|0|2|0,3:0|3:0|3:2|3:0,0:0:0:0:
108,376,193914,6,0,P|80:348|100:280,1,98.5499969924928,4|8,0:0|0:0,0:0:0:0:
124,268,194361,1,8,0:0:0:0:
72,192,194585,2,0,L|52:48,1,131.39999598999,4|0,0:0|3:0,0:0:0:0:
132,8,195257,1,8,0:0:0:0:
190,114,195481,6,0,P|214:150|310:130,1,131.39999598999,4|0,0:0|3:0,0:0:0:0:
353,76,196152,2,0,P|342:41|335:2,2,65.6999979949952,8|2|8,0:0|0:0|3:0,0:0:0:0:
439,133,196824,1,0,3:0:0:0:
439,133,196936,1,0,3:0:0:0:
439,133,197048,2,0,L|433:185,3,32.8499989974976,8|0|12|0,3:0|3:0|3:0|3:0,0:0:0:0:
419,209,197496,6,0,P|447:249|439:334,1,131.39999598999,4|4,0:0|3:0,0:0:0:0:
350,325,198167,1,0,0:0:0:0:
350,325,198391,2,0,L|266:343,1,65.6999979949952,0|2,3:0|0:0,0:0:0:0:
198,370,198839,1,0,3:0:0:0:
236,254,199063,6,0,P|251:191|230:107,1,131.39999598999,12|2,0:0|0:0,0:0:0:0:
172,63,199734,1,4,3:0:0:0:
82,86,199958,1,2,0:0:0:0:
82,86,200070,1,0,3:0:0:0:
82,86,200182,2,0,P|51:122|56:157,1,65.6999979949952,8|2,3:0|0:0,0:0:0:0:
62,229,200630,1,8,3:0:0:0:
154,192,200854,1,0,3:0:0:0:
154,192,200966,1,0,3:0:0:0:
154,192,201078,6,0,L|294:171,1,131.39999598999,4|4,0:0|3:0,0:0:0:0:
336,97,201749,1,0,0:0:0:0:
336,97,201973,2,0,P|346:60|343:22,1,65.6999979949952,2|2,0:0|0:0,0:0:0:0:
434,8,202421,1,0,3:0:0:0:
433,124,202645,6,0,L|456:266,1,131.39999598999,12|2,0:0|0:0,0:0:0:0:
492,350,203317,1,4,3:0:0:0:
492,350,203540,2,0,P|437:333|346:337,1,131.39999598999,8|8,3:0|3:0,0:0:0:0:
271,326,204212,2,0,P|242:337|185:347,1,65.6999979949952,0|0,3:0|0:0,0:0:0:0:
167,324,204548,1,2,3:2:0:0:
167,324,204660,6,0,P|130:273|153:229,1,98.5499969924928,4|0,0:0|3:0,0:0:0:0:
146,197,205108,2,0,P|117:186|60:176,1,65.6999979949952,8|2,0:3|0:0,0:0:0:0:
21,93,205555,2,0,P|8:64|8:22,2,65.6999979949952,12|2|8,0:0|3:2|0:0,0:0:0:0:
128,42,206227,6,0,P|197:50|281:66,1,131.39999598999,4|0,0:0|3:0,0:0:0:0:
342,23,206899,1,4,3:0:0:0:
342,23,207123,1,2,0:0:0:0:
422,68,207346,2,0,P|424:102|394:144,1,65.6999979949952,14|0,0:0|3:0,0:0:0:0:
304,183,207794,1,8,0:0:0:0:
304,183,207906,1,8,0:0:0:0:
304,183,208018,6,0,P|352:155|435:180,1,131.39999598999,4|0,0:0|3:0,0:0:0:0:
472,248,208690,2,0,P|453:286|412:294,1,65.6999979949952,8|2,0:0|0:0,0:0:0:0:
353,340,209137,1,0,3:0:0:0:
283,279,209361,1,2,3:2:0:0:
191,284,209585,1,0,3:0:0:0:
142,361,209809,1,8,3:0:0:0:
172,262,210033,6,0,P|165:168|147:114,1,131.39999598999,4|8,0:0|0:0,0:0:0:0:
210,58,210705,1,0,0:0:0:0:
210,58,210817,1,8,0:0:0:0:
210,58,210929,2,0,P|239:73|287:81,1,65.6999979949952,2|0,3:2|3:0,0:0:0:0:
347,30,211376,1,8,0:0:0:0:
445,104,211600,6,0,P|470:173|436:231,1,131.39999598999,4|0,0:0|3:0,0:0:0:0:
357,275,212272,1,10,0:0:0:0:
304,183,212496,1,12,0:0:0:0:
235,243,212720,1,8,3:0:0:0:
235,243,212832,2,0,L|147:259,1,65.6999979949952,0|8,0:0|3:2,0:0:0:0:
141,291,213167,2,0,P|105:289|66:275,1,65.6999979949952,12|0,3:2|3:0,0:0:0:0:
35,170,213615,6,0,P|24:97|2:32,1,131.39999598999,12|8,3:2|3:0,0:0:0:0:
96,20,214300,1,8,3:0:0:0:
96,20,214521,2,0,P|128:33|181:45,1,65.6999979949952,12|8,0:0|3:0,0:0:0:0:
204,45,214853,1,8,0:0:0:0:
204,45,214963,2,0,L|257:32,3,32.8499989974976,8|8|8|8,0:0|0:0|0:0|0:0,0:0:0:0:
281,30,215400,6,0,P|320:45|369:54,1,65.6999979949952,6|0,0:0|0:0,0:0:0:0:
498,89,215848,2,0,P|466:97|435:109,1,65.6999979949952,6|0,0:0|0:0,0:0:0:0:
308,168,216297,2,0,P|356:182|392:200,1,65.6999979949952,6|0,0:0|0:0,0:0:0:0:
436,252,216746,1,6,0:0:0:0:
412,340,216971,1,2,0:0:0:0:
320,320,217195,6,0,P|314:297|310:251,2,65.6999979949952,6|0|6,0:0|0:0|0:0,0:0:0:0:
252,380,217869,1,8,0:0:0:0:
184,284,218093,2,0,L|111:300,1,65.6999979949952,6|0,0:0|0:0,0:0:0:0:
68,376,218542,2,0,L|-13:363,1,65.6999979949952,4|0,3:0|0:0,0:0:0:0:
0,248,218991,6,0,P|0:208|21:179,1,65.6999979949952,6|0,3:2|0:0,0:0:0:0:
105,50,219440,2,0,P|119:78|117:111,1,65.6999979949952,6|0,0:0|0:0,0:0:0:0:
176,260,219889,2,0,P|164:224|184:180,1,65.6999979949952,6|0,0:0|0:0,0:0:0:0:
224,120,220338,1,6,0:0:0:0:
308,156,220562,1,2,0:0:0:0:
364,88,220787,6,0,L|360:15,2,65.6999979949952,6|0|4,0:0|0:0|0:3,0:0:0:0:
436,148,221460,1,8,0:0:0:0:
384,224,221685,2,0,P|347:228|319:235,1,65.6999979949952,8|8,3:0|0:3,0:0:0:0:
367,314,222134,1,4,3:0:0:0:
367,314,222582,6,0,P|440:320|502:331,2,131.39999598999,6|4|6,0:0|0:3|0:0,0:0:0:0:
294,259,223705,1,0,0:0:0:0:
215,307,223929,2,0,P|201:350|202:383,1,65.6999979949952,8|0,0:0|0:0,0:0:0:0:
107,277,224378,6,0,B|92:189|92:189|66:183|45:174,2,131.39999598999,6|4|4,0:0|0:3|0:3,0:0:0:0:
196,298,225501,1,0,0:0:0:0:
265,237,225725,2,0,P|273:210|265:151,1,65.6999979949952,8|0,0:0|0:0,0:0:0:0:
196,75,226174,6,0,P|221:121|315:129,1,131.39999598999,6|4,0:2|0:3,0:0:0:0:
372,37,226847,1,12,0:0:0:0:
415,118,227072,2,0,P|408:155|407:195,1,65.6999979949952,4|0,0:3|0:0,0:0:0:0:
493,214,227521,2,0,P|498:246|501:279,1,65.6999979949952,8|0,0:0|0:0,0:0:0:0:
465,364,227970,5,4,0:0:0:0:
384,319,228193,1,8,0:3:0:0:
302,361,228417,2,0,L|191:379,1,98.5499969924928,12|8,0:0|0:0,0:0:0:0:
181,330,228865,6,0,P|188:298|203:252,2,48.6666666666667,4|8|8,0:3|0:0|0:0,0:0:0:0:
85,337,229313,2,0,P|92:368|107:415,2,48.6666666666667,8|0|8,0:3|0:0|3:3,0:0:0:0:
256,192,229761,12,0,231552,0:0:0:0:
256,192,232447,12,0,234675,0:0:0:0:
192,328,235131,5,14,0:0:0:0:
96,352,235354,1,0,3:0:0:0:
132,240,235578,2,0,P|143:159|135:70,1,160.600004901123,10|10,0:0|0:0,0:0:0:0:
220,32,236250,1,0,3:0:0:0:
220,32,236474,2,0,P|227:76|236:116,1,80.3000024505616,10|0,0:0|3:0,0:0:0:0:
351,59,236922,6,0,P|392:45|443:146,1,160.600004901123,10|10,0:0|0:0,0:0:0:0:
500,216,237593,1,0,3:0:0:0:
500,216,237705,1,0,3:0:0:0:
500,216,237817,1,10,0:0:0:0:
439,293,238041,1,0,3:0:0:0:
357,241,238265,2,0,P|320:233|277:228,1,80.3000024505616,10|0,0:0|3:0,0:0:0:0:
207,133,238713,6,0,B|320:118|320:118|334:64,2,160.600004901123,10|10|10,0:0|0:0|0:0,0:0:0:0:
150,54,239832,1,0,3:0:0:0:
61,91,240056,2,0,P|30:130|41:187,1,80.3000024505616,10|0,0:0|3:0,0:0:0:0:
4,278,240504,6,0,B|84:295|83:242|176:259,1,160.600004901123,10|10,0:0|0:0,0:0:0:0:
270,272,241175,1,0,3:0:0:0:
270,272,241287,1,0,3:0:0:0:
270,272,241399,2,0,L|286:325,3,40.1500012252808,10|0|0|0,0:0|3:3|3:0|3:0,0:0:0:0:
321,338,241847,2,0,P|364:350|409:348,1,80.3000024505616,10|0,0:0|3:0,0:0:0:0:
482,283,242295,5,14,0:0:0:0:
418,211,242519,1,0,3:0:0:0:
473,132,242742,2,0,P|394:124|297:98,1,160.600004901123,10|8,0:0|0:0,0:0:0:0:
260,24,243414,1,0,3:0:0:0:
184,83,243638,1,10,0:0:0:0:
93,48,243862,1,0,3:0:0:0:
93,48,243974,1,0,3:0:0:0:
93,48,244086,6,0,P|69:89|76:131,1,80.3000024505616,10|0,0:0|3:0,0:0:0:0:
53,224,244533,2,0,L|141:203,1,80.3000024505616,10|0,0:0|3:0,0:0:0:0:
187,126,244981,1,10,0:0:0:0:
253,208,245205,1,0,3:0:0:0:
253,208,245317,1,0,3:0:0:0:
253,208,245429,2,0,P|277:249|270:291,1,80.3000024505616,10|0,0:0|3:0,0:0:0:0:
195,361,245877,6,0,P|258:378|360:384,1,160.600004901123,14|10,0:0|0:0,0:0:0:0:
501,221,246772,1,10,0:0:0:0:
408,192,246996,1,0,3:0:0:0:
465,114,247220,2,0,P|473:70|472:23,1,80.3000024505616,10|0,0:0|3:0,0:0:0:0:
353,90,247668,6,0,P|290:113|217:115,1,120.450003675842,10|0,0:0|3:0,0:0:0:0:
200,85,248116,2,0,L|93:74,1,80.3000024505616,14|0,0:0|3:0,0:0:0:0:
31,154,248563,2,0,P|16:204|35:248,1,80.3000024505616,14|0,0:0|3:0,0:0:0:0:
63,256,248899,1,8,3:0:0:0:
63,256,249011,2,0,L|113:268,3,40.1500012252808,8|8|2|0,3:3|3:3|3:2|3:0,0:0:0:0:
149,275,249459,5,14,0:0:0:0:
221,211,249683,1,0,3:0:0:0:
289,279,249907,2,0,P|301:310|306:373,1,80.3000024505616,10|0,0:0|3:0,0:0:0:0:
403,277,250354,2,0,P|407:237|421:199,1,80.3000024505616,10|0,0:0|3:0,0:0:0:0:
482,125,250802,1,10,0:0:0:0:
429,44,251026,1,0,3:0:0:0:
429,44,251138,1,0,3:0:0:0:
429,44,251250,6,0,L|337:32,1,80.3000024505616,10|0,0:0|3:0,0:0:0:0:
292,112,251698,1,10,0:0:0:0:
224,44,251922,2,0,L|232:0,2,40.1500012252808,0|0|10,3:0|3:0|0:0,0:0:0:0:
203,64,252257,2,0,L|123:74,1,80.3000024505616,0|0,3:0|3:0,0:0:0:0:
94,79,252593,2,0,P|107:119|109:171,1,80.3000024505616,10|0,0:0|3:0,0:0:0:0:
32,212,253041,5,10,0:0:0:0:
20,308,253265,1,0,3:0:0:0:
105,353,253489,2,0,L|184:342,1,80.3000024505616,10|0,0:0|3:0,0:0:0:0:
280,355,253936,2,0,P|270:323|269:272,1,80.3000024505616,10|0,0:0|3:0,0:0:0:0:
353,230,254384,2,0,P|362:198|364:147,1,80.3000024505616,10|0,0:0|3:0,0:0:0:0:
344,120,254720,1,0,3:0:0:0:
344,120,254832,6,0,P|304:113|244:99,1,80.3000024505616,10|0,0:0|3:0,0:0:0:0:
200,32,255280,1,10,0:0:0:0:
124,92,255504,1,0,3:0:0:0:
32,68,255728,2,0,P|42:109|50:163,1,80.3000024505616,10|0,0:0|3:0,0:0:0:0:
100,228,256175,2,0,P|89:269|82:323,1,80.3000024505616,10|0,0:0|3:0,0:0:0:0:
168,356,256623,5,14,0:0:0:0:
168,356,256847,1,0,3:0:0:0:
256,312,257071,1,10,0:0:0:0:
256,312,257295,1,0,3:0:0:0:
344,356,257519,1,10,0:0:0:0:
427,308,257742,1,0,3:0:0:0:
427,308,257854,1,0,3:0:0:0:
427,308,257966,2,0,P|443:257|432:220,1,80.3000024505616,10|0,0:0|3:0,0:0:0:0:
401,142,258414,5,10,0:0:0:0:
325,202,258638,1,0,3:0:0:0:
246,145,258862,1,10,0:0:0:0:
237,156,258974,2,0,L|154:145,1,80.3000024505616,0|0,3:0|3:0,0:0:0:0:
120,140,259310,2,0,P|106:98|123:56,1,80.3000024505616,10|0,0:0|3:0,0:0:0:0:
210,45,259757,2,0,L|289:34,1,80.3000024505616,10|0,0:0|3:0,0:0:0:0:
385,18,260205,5,10,0:0:0:0:
385,18,260429,1,0,3:0:0:0:
459,78,260653,1,10,0:0:0:0:
459,78,260877,1,0,3:0:0:0:
407,159,261101,1,10,0:0:0:0:
474,227,261325,1,0,3:0:0:0:
447,319,261548,2,0,P|403:319|352:289,1,80.3000024505616,10|0,0:0|3:0,0:0:0:0:
321,202,261996,5,14,0:0:0:0:
269,283,262220,1,8,0:3:0:0:
264,289,262332,1,8,0:3:0:0:
258,295,262444,2,0,L|266:350,2,40.1500012252808,8|8|4,0:3|0:3|0:2,0:0:0:0:
204,211,262892,2,0,L|137:197,3,40.1500012252808,0|0|0|0,1:0|1:0|1:0|1:0,0:0:0:0:
131,238,263339,2,0,L|86:245,3,40.1500012252808,2|0|2|0,0:0|3:0|0:0|3:0,0:0:0:0:
45,228,263787,6,0,P|25:191|43:144,1,80.3000024505616,6|0,0:0|3:0,0:0:0:0:
56,61,264239,1,6,0:0:0:0:
56,61,264465,1,0,3:0:0:0:
138,111,264691,1,6,0:0:0:0:
138,111,264917,1,0,3:0:0:0:
232,89,265143,1,6,0:0:0:0:
270,1,265369,1,0,3:0:0:0:
256,114,265595,6,0,P|246:161|244:200,1,80.3000024505616,6|0,0:0|3:0,0:0:0:0:
362,248,266041,2,0,P|358:208|350:168,1,80.3000024505616,6|0,0:0|3:0,0:0:0:0:
348,71,266487,1,6,0:0:0:0:
348,71,266710,1,0,3:0:0:0:
439,39,266933,1,6,0:0:0:0:
439,39,267156,1,0,3:0:0:0:
505,108,267379,6,0,P|481:153|480:196,1,80.3000024505616,14|0,0:0|3:0,0:0:0:0:
413,307,267826,2,0,P|384:264|349:241,1,80.3000024505616,14|0,0:0|3:0,0:0:0:0:
287,128,268274,2,0,P|338:125|375:105,1,80.3000024505616,14|0,0:0|3:0,0:0:0:0:
243,224,268722,2,0,P|205:209|165:209,1,80.3000024505616,12|0,0:0|3:0,0:0:0:0:
75,301,269170,5,14,0:0:0:0:
151,241,269393,1,8,3:0:0:0:
131,146,269617,1,8,3:0:0:0:
39,114,269841,1,8,0:0:0:0:
8,261,270065,5,8,3:2:0:0:
103,250,270289,1,8,0:0:0:0:
182,342,270513,1,8,0:0:0:0:
277,331,270737,1,4,3:0:0:0:
372,320,270967,6,0,B|405:317|429:336|429:336|435:308|458:278|458:278|429:243|425:218|425:218|470:190|480:149|480:149|461:105|400:127,1,357.699989083863,6|0,0:0|0:0,0:0:0:0:
298,51,272758,6,0,B|241:77|203:33|203:33|108:117|5:70|53:-14|133:-22|123:60,1,357.699989083863,2|0,0:0|0:0,0:0:0:0:
152,151,274549,6,0,B|97:171|31:138|31:138|65:180|46:228|46:228|-18:256|4:323|4:323|35:301|71:321,1,401.5,2|0,0:0|0:0,0:0:0:0:
164,366,277235,6,0,B|205:278|111:263|163:174,1,197.099993984986,2|0,0:0|0:0,0:0:0:0:
254,225,278131,6,0,B|333:303|431:246|431:246|381:189|384:107|384:107|320:132|343:198,2,438.000016708375,2|2|2,0:0|0:0|0:0,0:0:0:0:
256,192,281825,12,0,288877,0:0:0:0:
