osu file format v14

[General]
AudioFilename: schwi.mp3
AudioLeadIn: 0
PreviewTime: 233678
Countdown: 0
SampleSet: Soft
StackLeniency: 0.7
Mode: 0
LetterboxInBreaks: 0
WidescreenStoryboard: 0

[Editor]
DistanceSpacing: 1.4
BeatDivisor: 4
GridSize: 4
TimelineZoom: 1.4

[Metadata]
Title:THERE IS A REASON
TitleUnicode:THERE IS A REASON
Artist:Suzuki Konomi
ArtistUnicode:鈴木このみ
Creator:Doormat
Version:AKITOSHI'S ADVANCED
Source:ノーゲーム・ノーライフ ゼロ
Tags:Kalibe Akitoshi Corinn Gaia no game no life zero 0 movie theme song ngnl nogenora
BeatmapID:1385090
BeatmapSetID:641718

[Difficulty]
HPDrainRate:4.5
CircleSize:3.5
OverallDifficulty:5
ApproachRate:5.8
SliderMultiplier:1.3
SliderTickRate:1

[Events]
//Background and Video events
0,0,"riku.jpg",0,0
//Break Periods
//Storyboard Layer 0 (Background)
//Storyboard Layer 1 (Fail)
//Storyboard Layer 2 (Pass)
//Storyboard Layer 3 (Foreground)
//Storyboard Sound Samples

[TimingPoints]
505,447.761194029851,4,2,1,30,1,0
505,-111.111111111111,4,2,1,30,0,0
2743,-111.111111111111,4,2,1,50,0,0
2967,-111.111111111111,4,2,1,35,0,0
3191,-111.111111111111,4,2,1,20,0,0
7221,-111.111111111111,4,2,1,30,0,0
11027,-111.111111111111,4,2,1,30,0,0
14833,-100,4,2,1,40,0,0
27370,-100,4,2,1,40,0,0
43490,-100,4,2,1,30,0,0
66773,-100,4,2,1,5,0,0
68116,-100,4,2,1,30,0,0
68555,447.761194029851,4,2,1,50,1,0
68555,-90.9090909090909,4,2,1,50,0,0
96987,-100,4,2,1,50,0,0
97211,-100,4,2,1,30,0,0
99898,-100,4,2,1,30,0,0
100793,-100,4,2,1,50,0,0
115122,-90.9090909090909,4,2,1,60,0,0
129450,-90.9090909090909,4,2,1,70,0,0
130793,-90.9090909090909,4,2,3,70,0,0
131017,-90.9090909090909,4,2,1,70,0,0
134375,-90.9090909090909,4,2,3,70,0,0
134599,-90.9090909090909,4,2,1,70,0,0
136614,-90.9090909090909,4,2,1,80,0,0
137062,-90.9090909090909,4,2,3,80,0,0
137286,-90.9090909090909,4,2,1,80,0,0
138853,-90.9090909090909,4,2,3,80,0,0
139077,-90.9090909090909,4,2,1,80,0,0
140196,-90.9090909090909,4,2,1,70,0,0
141540,-90.9090909090909,4,2,3,70,0,0
141763,-90.9090909090909,4,2,1,70,0,0
143331,-90.9090909090909,4,2,3,70,0,0
143555,-90.9090909090909,4,2,1,70,0,0
145122,-90.9090909090909,4,2,3,70,0,0
145346,-90.9090909090909,4,2,1,70,0,0
147808,-90.9090909090909,4,2,3,70,0,0
148032,-90.9090909090909,4,2,1,70,0,0
149599,-90.9090909090909,4,2,3,70,0,0
149823,-90.9090909090909,4,2,1,70,0,0
150719,-100,4,2,1,60,0,0
152566,447.761194029851,4,2,1,70,1,0
152715,447.761194029851,4,2,1,70,1,0
154519,447.761194029851,4,2,3,80,1,1
154519,-83.3333333333333,4,2,3,80,0,1
168735,-83.3333333333333,4,2,3,80,0,0
168847,-83.3333333333333,4,2,3,80,0,1
183168,448.430493273543,4,2,1,80,1,0
183168,-100,4,2,1,80,0,0
190332,447.761194029851,4,2,1,80,1,0
197496,-100,4,2,1,60,0,0
213615,464.2166344294,4,2,1,60,1,0
214079,442.477876106195,4,2,1,60,1,0
215400,448.933782267116,4,2,1,70,1,0
215400,-100,4,2,1,70,0,0
224378,-100,4,2,1,75,0,0
226174,-100,4,2,1,80,0,0
227970,447.761194029851,4,2,1,85,1,0
227970,-100,4,2,1,85,0,0
229611,-100,4,2,1,50,0,0
232447,-100,4,2,1,5,0,0
233764,455.927051671733,4,2,1,5,1,0
235131,447.761194029851,4,2,3,90,1,1
235131,-83.3333333333333,4,2,3,90,0,1
249347,-83.3333333333333,4,2,3,90,0,0
249459,-83.3333333333333,4,2,3,90,0,1
258414,-83.3333333333333,4,2,3,93,0,1
260205,-83.3333333333333,4,2,3,95,0,1
261996,-83.3333333333333,4,2,3,98,0,1
263675,-83.3333333333333,4,2,3,98,0,0
263787,452.147701582517,4,2,3,100,1,1
263787,-83.3333333333333,4,2,3,100,0,1
265595,446.096654275093,4,2,3,100,1,1
265595,-83.3333333333333,4,2,3,100,0,1
267379,447.761194029851,4,2,3,100,1,1
267379,-83.3333333333333,4,2,3,100,0,1
270967,447.761194029851,4,2,1,60,1,0
270967,-125,4,2,1,60,0,0
272534,-125,4,2,1,5,0,0
272758,-125,4,2,1,55,0,0
274325,-125,4,2,1,5,0,0
274549,-125,4,2,1,50,0,0
277011,-125,4,2,1,5,0,0
277235,-125,4,2,1,55,0,0
277907,-125,4,2,1,5,0,0
278131,-125,4,2,1,60,0,0
279698,-125,4,2,1,5,0,0
279922,-125,4,2,1,50,0,0
281489,-125,4,2,1,5,0,0
281713,-125,4,2,1,40,0,0
283504,-125,4,2,1,30,0,0
285295,-125,4,2,1,20,0,0
287086,-125,4,2,1,10,0,0
288877,-125,4,2,1,5,0,0

[Colours]
Combo1 : 228,227,241
Combo2 : 248,240,19
Combo3 : 198,34,34
Combo4 : 190,59,129

[HitObjects]
69,189,281,5,2,0:0:0:0:
69,189,505,2,0,L|196:182,1,116.999996429443,2|0,0:2|0:0,0:0:0:0:
249,131,1176,1,2,0:0:0:0:
325,276,1624,1,2,0:0:0:0:
469,198,2072,6,0,L|454:69,1,116.999996429443,2|0,0:0|0:0,0:0:0:0:
380,47,2743,2,0,P|343:53|311:52,1,58.4999982147217,2|2,0:0|0:0,0:0:0:0:
243,26,3191,1,2,0:0:0:0:
58,187,3863,1,2,0:0:0:0:
58,187,4087,6,0,L|67:312,1,116.999996429443,2|2,0:0|0:0,0:0:0:0:
118,367,4758,2,0,P|148:371|197:362,1,58.4999982147217,2|0,0:0|0:0,0:0:0:0:
245,325,5206,1,2,0:0:0:0:
165,182,5654,5,2,0:0:0:0:
165,182,7221,2,0,L|153:116,1,58.4999982147217,2|2,0:0|0:0,0:0:0:0:
214,68,7669,5,2,0:0:0:0:
214,68,7893,1,2,0:0:0:0:
286,106,8116,2,0,L|364:108,1,58.4999982147217,2|0,0:0|0:0,0:0:0:0:
372,185,8564,2,0,L|450:183,1,58.4999982147217,2|0,0:0|0:0,0:0:0:0:
499,237,9012,1,2,0:0:0:0:
499,237,9236,1,2,0:0:0:0:
434,287,9460,6,0,P|395:306|344:304,2,87.7499973220826,2|2|2,0:0|0:0|0:0,0:0:0:0:
256,260,11027,1,2,0:0:0:0:
256,260,11251,6,0,L|180:268,2,58.4999982147217,2|0|2,0:0|0:0|0:0,0:0:0:0:
306,194,11922,1,0,0:0:0:0:
65,242,12594,2,0,L|73:313,1,58.4999982147217,0|0,0:0|0:0,0:0:0:0:
132,355,13042,1,2,0:0:0:0:
132,355,14833,6,0,L|216:343,1,65,2|0,0:0|0:0,0:0:0:0:
256,286,15281,2,0,L|340:298,1,65,0|0,0:0|0:0,0:0:0:0:
382,352,15728,2,0,L|504:334,2,97.5,2|0|0,0:0|0:0|0:0,0:0:0:0:
320,295,16624,6,0,L|324:210,1,65,2|0,0:0|0:0,0:0:0:0:
270,163,17072,1,2,0:0:0:0:
270,163,17296,2,0,P|228:156|182:154,1,65,2|0,0:0|0:0,0:0:0:0:
121,167,17743,2,0,P|106:109|119:35,1,130,0|0,0:0|0:0,0:0:0:0:
202,41,18415,6,0,P|264:54|342:37,1,130,2|0,0:0|0:0,0:0:0:0:
411,15,19087,1,0,0:0:0:0:
411,15,19310,2,0,L|507:26,2,97.5,2|0|0,0:0|0:0|0:0,0:0:0:0:
328,42,20206,6,0,P|316:103|334:175,1,130,2|0,0:0|0:0,0:0:0:0:
359,253,20878,1,2,0:0:0:0:
359,253,21102,2,0,L|213:267,1,130,2|2,0:0|0:0,0:0:0:0:
74,332,21997,6,0,P|51:272|71:193,1,130,2|0,0:0|0:0,0:0:0:0:
129,156,22669,1,2,0:0:0:0:
129,156,22893,2,0,L|143:50,1,97.5,2|0,0:0|0:0,0:0:0:0:
267,45,23564,6,0,P|333:60|402:44,1,130,2|2,0:0|0:0,0:0:0:0:
476,20,24236,1,0,0:0:0:0:
476,20,24460,2,0,L|491:173,1,130,2|2,0:0|0:0,0:0:0:0:
378,277,25355,6,0,P|310:285|230:252,1,130,0|0,0:0|0:0,0:0:0:0:
214,196,26027,1,2,0:0:0:0:
214,196,26251,2,0,L|133:208,1,65,2|0,0:0|0:0,0:0:0:0:
67,225,26699,1,2,0:0:0:0:
284,354,27370,6,0,B|413:368|413:368|468:309,1,195,2|0,0:0|0:0,0:0:0:0:
502,248,28266,1,2,0:0:0:0:
502,248,29161,6,0,L|429:234,1,65,2|0,0:0|0:0,0:0:0:0:
365,191,29609,2,0,L|292:205,1,65,2|2,0:0|0:0,0:0:0:0:
230,250,30057,2,0,P|217:203|238:146,2,97.5,2|0|0,0:0|0:0|0:0,0:0:0:0:
295,303,30952,6,0,P|240:289|151:321,1,130,2|2,0:0|0:0,0:0:0:0:
90,336,31624,2,0,L|82:261,1,65,2|0,0:0|0:0,0:0:0:0:
18,216,32072,2,0,L|34:63,1,130,0|0,0:0|0:0,0:0:0:0:
106,46,32743,6,0,P|168:50|227:108,1,130,2|0,0:0|0:0,0:0:0:0:
254,174,33415,1,2,0:0:0:0:
254,174,33639,2,0,L|355:164,2,97.5,2|0|2,0:0|0:0|0:0,0:0:0:0:
193,233,34534,5,2,0:0:0:0:
308,356,34982,2,0,P|355:365|439:331,1,130,2|2,0:0|0:0,0:0:0:0:
476,266,35654,1,2,0:0:0:0:
476,266,35878,2,0,L|472:197,1,65,2|2,0:0|0:0,0:0:0:0:
453,118,36325,6,0,P|393:129|316:103,1,130,2|2,0:0|0:0,0:0:0:0:
190,11,37221,2,0,L|195:82,1,65,2|2,0:0|0:0,0:0:0:0:
201,160,37669,1,0,0:0:0:0:
130,207,37893,6,0,L|0:198,1,130,2|2,0:0|0:0,0:0:0:0:
0,367,38788,2,0,P|60:379|140:354,1,130,2|2,0:0|0:0,0:0:0:0:
178,295,39460,1,2,0:0:0:0:
262,149,39907,6,0,L|401:158,1,130,2|2,0:0|0:0,0:0:0:0:
472,198,40579,1,2,0:0:0:0:
472,198,40803,2,0,P|440:262|367:305,1,130,2|0,0:0|0:0,0:0:0:0:
227,324,41699,6,0,L|205:166,1,130,2|2,0:0|0:0,0:0:0:0:
201,114,42370,1,2,0:0:0:0:
201,114,42594,2,0,P|242:67|329:52,1,130,2|0,0:0|0:0,0:0:0:0:
432,159,43490,5,2,0:0:0:0:
432,159,44385,2,0,L|428:239,1,65,0|0,0:0|0:0,0:0:0:0:
348,251,44833,2,0,L|352:331,1,65,2|2,0:0|0:0,0:0:0:0:
275,353,45281,6,0,P|217:355|144:299,1,130,2|2,0:0|0:0,0:0:0:0:
109,248,45952,2,0,L|118:175,1,65,2|0,0:0|0:0,0:0:0:0:
185,132,46400,2,0,P|135:100|57:123,1,130,2|0,0:0|0:0,0:0:0:0:
7,170,47072,6,0,L|22:34,2,130,2|0|2,3:2|0:0|0:0,0:0:0:0:
58,331,48415,2,0,P|91:337|145:333,1,65,2|0,0:0|0:0,0:0:0:0:
189,284,48863,6,0,L|323:290,1,130,2|2,0:0|0:0,0:0:0:0:
408,294,49534,1,0,0:0:0:0:
408,294,49758,2,0,P|416:254|415:215,1,65,2|0,0:0|0:0,0:0:0:0:
359,167,50206,2,0,P|351:127|352:88,1,65,2|0,0:0|0:0,0:0:0:0:
403,36,50654,6,0,P|335:65|255:46,1,130,2|0,0:0|0:0,0:0:0:0:
200,31,51325,1,2,0:0:0:0:
200,31,51549,2,0,L|208:120,1,65,2|0,0:0|0:0,0:0:0:0:
249,168,51997,2,0,L|242:256,1,65,0|0,0:0|0:0,0:0:0:0:
232,316,52445,5,2,0:0:0:0:
62,316,52893,1,2,0:0:0:0:
62,147,53340,1,2,0:0:0:0:
231,147,53788,1,2,0:0:0:0:
232,316,54236,5,2,0:0:0:0:
232,316,55131,2,0,P|303:333|372:304,1,130,2|0,0:0|0:0,0:0:0:0:
400,243,55803,1,0,0:0:0:0:
400,243,56027,6,0,L|389:106,1,130,2|0,0:0|0:0,0:0:0:0:
307,92,56699,2,0,L|312:23,1,65,2|0,0:0|0:0,0:0:0:0:
226,26,57146,2,0,P|179:54|99:51,1,130,2|0,0:0|0:0,0:0:0:0:
26,23,57818,5,2,3:2:0:0:
7,189,58266,2,0,L|24:330,1,130,0|2,0:0|0:0,0:0:0:0:
99,366,58937,1,0,0:0:0:0:
99,366,59161,2,0,P|129:368|184:356,1,65,0|2,0:0|0:0,0:0:0:0:
225,304,59609,6,0,B|269:295|269:295|307:316|373:309,1,130,2|0,0:0|3:0,0:0:0:0:
405,245,60281,2,0,L|393:102,1,130,2|2,0:0|0:0,0:0:0:0:
342,56,60952,1,0,0:0:0:0:
342,56,61176,6,0,P|307:57|222:116,1,130,2|0,3:2|0:0,0:0:0:0:
225,190,61848,2,0,L|233:277,1,65,0|0,0:0|0:0,0:0:0:0:
200,333,62296,2,0,P|136:326|84:288,1,130,2|0,0:0|0:0,0:0:0:0:
34,219,62967,6,0,L|55:69,1,130,2|0,3:2|0:0,0:0:0:0:
127,53,63639,2,0,P|161:64|202:66,1,65,0|0,0:0|0:0,0:0:0:0:
270,38,64087,2,0,P|344:29|405:49,1,130,2|0,0:0|0:0,0:0:0:0:
459,100,64758,1,2,0:0:0:0:
256,192,64982,12,0,66773,0:0:0:0:
256,192,68116,5,0,0:0:0:0:
256,192,68555,2,0,P|226:168|116:170,1,143.000004364014,6|0,0:0|0:3,0:0:0:0:
41,205,69226,1,0,0:0:0:0:
89,284,69450,2,0,P|119:308|229:306,1,143.000004364014,0|0,0:3|0:0,0:0:0:0:
303,271,70122,1,0,0:0:0:0:
256,192,70346,6,0,L|248:81,2,107.25000327301,2|2|0,3:2|0:0|0:0,0:0:0:0:
303,271,71241,2,0,P|341:273|380:265,1,71.5000021820069,2|0,3:2|0:0,0:0:0:0:
450,213,71689,2,0,P|452:175|444:136,1,71.5000021820069,2|0,3:2|3:0,0:0:0:0:
388,69,72137,6,0,B|324:58|311:104|234:81,1,143.000004364014,2|4,3:2|0:3,0:0:0:0:
161,48,72808,1,0,0:0:0:0:
83,97,73032,2,0,P|60:159|82:250,1,143.000004364014,2|0,0:0|0:0,0:0:0:0:
146,290,73704,1,0,3:0:0:0:
238,285,73928,6,0,L|358:300,2,107.25000327301,2|0|0,3:2|0:0|0:0,0:0:0:0:
191,204,74823,2,0,P|180:164|186:123,1,71.5000021820069,2|0,0:0|3:0,0:0:0:0:
236,58,75271,2,0,P|276:47|317:53,1,71.5000021820069,2|0,3:2|3:0,0:0:0:0:
359,125,75719,5,4,3:2:0:0:
191,204,76166,2,0,L|37:190,2,143.000004364014,2|2|2,0:0|0:0|0:0,0:0:0:0:
265,260,77286,1,0,3:0:0:0:
219,340,77510,6,0,P|147:360|64:339,1,143.000004364014,2|0,3:2|0:0,0:0:0:0:
18,278,78181,1,2,0:0:0:0:
49,191,78405,2,0,L|38:114,1,71.5000021820069,0|2,0:0|0:0,0:0:0:0:
130,102,78853,2,0,L|141:25,1,71.5000021820069,2|0,0:0|3:0,0:0:0:0:
232,43,79301,6,0,P|286:75|389:59,1,143.000004364014,4|4,3:0|0:3,0:0:0:0:
448,29,79972,1,0,0:0:0:0:
448,29,80196,2,0,L|470:205,1,143.000004364014,2|2,3:2|3:2,0:0:0:0:
371,331,81092,6,0,P|317:299|214:315,1,143.000004364014,4|0,3:0|0:0,0:0:0:0:
153,331,81763,1,0,0:0:0:0:
153,331,81987,2,0,L|143:241,1,71.5000021820069,2|0,3:2|3:0,0:0:0:0:
84,189,82435,2,0,L|94:99,1,71.5000021820069,2|0,3:2|3:0,0:0:0:0:
154,49,82883,6,0,P|219:43|298:114,1,143.000004364014,4|0,0:0|0:0,0:0:0:0:
309,173,83555,1,2,0:0:0:0:
309,266,83778,2,0,L|473:249,1,143.000004364014,0|0,0:0|0:0,0:0:0:0:
498,171,84450,1,0,3:0:0:0:
423,115,84674,6,0,P|408:75|408:10,2,107.25000327301,2|2|0,3:2|0:0|3:0,0:0:0:0:
498,171,85569,2,0,L|491:261,1,71.5000021820069,2|0,0:0|3:0,0:0:0:0:
425,307,86017,2,0,P|377:303|351:294,1,71.5000021820069,2|0,0:0|3:0,0:0:0:0:
277,244,86465,6,0,L|102:259,1,143.000004364014,4|2,3:0|0:0,0:0:0:0:
48,220,87137,1,0,0:0:0:0:
80,132,87360,2,0,P|110:101|224:87,1,143.000004364014,2|0,0:0|0:0,0:0:0:0:
292,112,88032,1,2,0:0:0:0:
363,171,88256,6,0,L|359:289,2,107.25000327301,2|2|2,3:2|0:0|0:0,0:0:0:0:
411,91,89152,2,0,P|453:88|496:104,1,71.5000021820069,2|0,0:0|3:0,0:0:0:0:
509,184,89599,2,0,L|505:273,1,71.5000021820069,2|2,0:0|0:0,0:0:0:0:
472,342,90047,6,0,P|407:361|320:352,1,143.000004364014,4|0,0:0|0:0,0:0:0:0:
260,296,90719,2,0,P|195:315|108:306,1,143.000004364014,2|0,0:0|0:0,0:0:0:0:
40,273,91390,1,2,0:0:0:0:
40,273,91614,1,0,3:0:0:0:
64,183,91838,6,0,B|156:179|156:179|207:155,1,143.000004364014,2|0,3:2|0:0,0:0:0:0:
267,91,92510,2,0,B|359:95|359:95|410:119,1,143.000004364014,2|0,0:0|3:0,0:0:0:0:
482,178,93181,1,2,0:0:0:0:
482,178,93405,1,0,3:0:0:0:
444,263,93629,6,0,P|379:290|280:271,1,143.000004364014,2|0,3:2|0:0,0:0:0:0:
233,237,94301,1,2,0:0:0:0:
233,237,94525,2,0,L|151:244,1,71.5000021820069,4|0,0:3|0:0,0:0:0:0:
121,158,94972,2,0,L|39:151,1,71.5000021820069,2|0,0:0|3:0,0:0:0:0:
7,235,95420,6,0,P|0:313|57:376,1,143.000004364014,2|0,0:0|0:0,0:0:0:0:
127,378,96092,1,2,0:0:0:0:
209,334,96316,2,0,L|291:339,1,71.5000021820069,2|0,0:0|3:0,0:0:0:0:
378,346,96763,1,2,0:0:0:0:
378,346,96987,1,0,0:0:0:0:
256,192,97211,12,0,99898,0:0:0:0:
256,192,100793,6,0,P|194:166|111:190,1,130,4|2,0:0|0:3,0:0:0:0:
55,201,101465,1,0,0:0:0:0:
55,201,101689,2,0,L|43:71,1,130,2|2,0:3|0:3,0:0:0:0:
114,25,102360,6,0,P|176:51|259:27,1,130,0|0,3:0|3:0,0:0:0:0:
320,15,103032,1,2,0:3:0:0:
320,15,103256,2,0,L|330:96,1,65,0|2,3:0|0:3,0:0:0:0:
397,127,103704,2,0,L|387:208,1,65,0|2,3:0|0:3,0:0:0:0:
340,261,104152,1,0,0:0:0:0:
340,261,104375,6,0,P|272:246|211:274,1,130,2|2,3:0|0:3,0:0:0:0:
223,357,105047,1,2,0:0:0:0:
223,357,105271,2,0,P|285:372|345:349,1,130,2|2,0:3|0:3,0:0:0:0:
418,307,105943,6,0,L|422:173,1,130,0|0,3:0|3:0,0:0:0:0:
383,107,106614,1,2,0:3:0:0:
383,107,106838,2,0,P|332:103|297:116,1,65,0|2,3:0|0:3,0:0:0:0:
242,143,107286,2,0,P|191:147|156:134,1,65,0|2,3:0|0:3,0:0:0:0:
102,119,107734,1,2,3:2:0:0:
102,119,107957,6,0,L|84:270,1,130,4|2,0:0|0:3,0:0:0:0:
140,321,108629,1,0,0:0:0:0:
140,321,108853,2,0,P|206:324|275:275,1,130,2|2,0:3|0:3,0:0:0:0:
317,231,109525,1,0,3:0:0:0:
317,231,109749,6,0,L|310:152,2,65,2|2|2,0:3|3:2|0:3,0:0:0:0:
390,273,110420,2,0,L|383:352,2,65,2|2|0,0:0|0:3|3:0,0:0:0:0:
463,231,111092,2,0,L|456:152,1,65,2|2,0:3|3:2,0:0:0:0:
420,89,111540,6,0,P|360:63|282:70,1,130,2|2,3:0|0:3,0:0:0:0:
222,103,112211,1,2,0:0:0:0:
222,103,112435,2,0,L|146:99,1,65,2|2,0:3|3:2,0:0:0:0:
77,93,112883,2,0,L|24:104,2,32.5,8|8|8,0:0|0:0|0:0,0:0:0:0:
77,93,115122,6,0,L|91:259,1,143.000004364014,4|8,3:2|3:0,0:0:0:0:
147,308,115793,1,0,3:0:0:0:
231,268,116017,2,0,P|291:283|374:256,1,143.000004364014,8|8,3:2|3:0,0:0:0:0:
426,188,116689,6,0,L|414:102,2,71.5000021820069,0|2|0,3:0|3:2|3:0,0:0:0:0:
496,248,117360,2,0,L|484:334,1,71.5000021820069,8|0,3:0|3:0,0:0:0:0:
399,353,117808,2,0,B|327:332|322:377|241:347,1,143.000004364014,8|8,3:2|3:0,0:0:0:0:
176,306,118480,6,0,L|87:311,2,71.5000021820069,0|4|0,3:0|3:2|3:0,0:0:0:0:
233,232,119152,2,0,P|243:194|234:138,1,71.5000021820069,8|0,3:0|3:0,0:0:0:0:
196,80,119599,2,0,B|158:85|131:103|131:103|100:90|48:98,1,143.000004364014,8|8,3:2|3:0,0:0:0:0:
25,184,120271,6,0,L|31:267,1,71.5000021820069,0|2,3:0|3:2,0:0:0:0:
105,310,120719,1,0,3:0:0:0:
184,262,120943,2,0,P|224:253|284:265,1,71.5000021820069,8|0,3:0|3:0,0:0:0:0:
299,337,121390,2,0,P|292:274|330:203,1,143.000004364014,8|8,3:2|3:0,0:0:0:0:
408,157,122062,6,0,L|485:165,2,71.5000021820069,0|4|0,3:0|3:2|3:0,0:0:0:0:
339,94,122734,2,0,L|262:102,1,71.5000021820069,8|0,3:0|3:0,0:0:0:0:
183,141,123181,2,0,B|107:163|115:118|34:137,1,143.000004364014,8|0,3:2|3:0,0:0:0:0:
7,221,123853,6,0,L|18:314,1,71.5000021820069,0|2,3:0|3:2,0:0:0:0:
83,355,124301,1,0,3:0:0:0:
169,320,124525,2,0,P|209:310|241:315,1,71.5000021820069,8|0,3:0|3:0,0:0:0:0:
322,354,124972,2,0,B|420:362|420:362|469:330,1,143.000004364014,8|8,3:2|3:0,0:0:0:0:
492,251,125644,6,0,L|498:176,2,71.5000021820069,0|4|0,3:0|3:2|3:0,0:0:0:0:
398,254,126316,2,0,P|354:251|307:232,1,71.5000021820069,8|0,3:0|3:0,0:0:0:0:
258,189,126763,1,8,3:2:0:0:
258,189,126987,2,0,L|171:196,1,71.5000021820069,4|4,3:0|3:0,0:0:0:0:
116,256,127435,6,0,P|94:194|141:113,1,143.000004364014,12|0,3:2|3:0,0:0:0:0:
207,84,128107,2,0,L|278:78,1,71.5000021820069,8|0,3:2|3:0,0:0:0:0:
373,107,128555,1,4,3:0:0:0:
373,107,128778,1,4,3:0:0:0:
432,178,129002,2,0,P|441:218|434:252,1,71.5000021820069,8|8,3:0|3:0,0:0:0:0:
346,219,129450,6,0,B|291:210|291:210|219:226,2,107.25000327301,4|8|0,1:2|1:3|1:0,0:0:0:0:
358,311,130346,2,0,P|304:329|212:304,1,143.000004364014,12|0,0:0|0:0,0:0:0:0:
120,154,131241,6,0,L|111:60,2,71.5000021820069,4|8|0,1:3|0:0|0:0,0:0:0:0:
207,186,131913,2,0,P|245:188|292:176,1,71.5000021820069,0|12,1:0|0:0,0:0:0:0:
356,132,132360,2,0,P|394:130|441:142,1,71.5000021820069,2|8,0:0|0:3,0:0:0:0:
487,214,132808,1,8,0:3:0:0:
487,214,133032,6,0,L|482:328,2,107.25000327301,4|8|0,1:2|1:3|1:0,0:0:0:0:
395,228,133928,2,0,P|331:258|241:247,1,143.000004364014,12|0,0:0|0:0,0:0:0:0:
96,165,134823,6,0,L|6:176,2,71.5000021820069,4|8|2,1:3|0:0|1:2,0:0:0:0:
175,117,135495,1,0,3:0:0:0:
175,117,135719,2,0,L|265:128,1,71.5000021820069,12|0,0:0|0:0,0:0:0:0:
330,165,136166,2,0,L|420:154,1,71.5000021820069,2|8,0:0|0:0,0:0:0:0:
485,117,136614,6,0,B|496:65|496:65|481:8,2,107.25000327301,4|0|2,0:0|3:0|1:2,0:0:0:0:
400,156,137510,2,0,L|406:249,1,71.5000021820069,12|2,1:2|1:2,0:0:0:0:
413,319,137957,1,12,1:2:0:0:
228,286,138405,6,0,L|92:296,2,107.25000327301,4|0|2,0:0|3:0|1:2,0:0:0:0:
290,217,139301,2,0,P|293:181|286:144,1,71.5000021820069,12|2,1:2|1:2,0:0:0:0:
229,72,139749,1,8,1:3:0:0:
48,113,140196,6,0,P|36:64|63:0,2,107.25000327301,4|8|0,1:2|1:3|1:0,0:0:0:0:
79,200,141092,2,0,L|87:278,1,71.5000021820069,12|0,0:0|0:0,0:0:0:0:
177,289,141540,2,0,L|185:211,1,71.5000021820069,0|2,0:0|0:0,0:0:0:0:
272,187,141987,6,0,P|333:186|406:225,1,143.000004364014,4|0,1:2|0:0,0:0:0:0:
497,233,142659,2,0,L|507:153,1,71.5000021820069,0|12,1:0|0:0,0:0:0:0:
425,113,143107,2,0,L|415:33,1,71.5000021820069,2|0,0:0|0:0,0:0:0:0:
327,13,143555,1,0,0:0:0:0:
241,49,143778,6,0,P|181:61|107:39,2,107.25000327301,4|8|4,1:2|0:3|3:0,0:0:0:0:
299,123,144674,2,0,L|289:212,1,71.5000021820069,12|0,0:0|0:0,0:0:0:0:
223,258,145122,2,0,L|233:347,1,71.5000021820069,2|8,0:0|0:3,0:0:0:0:
149,373,145569,6,0,P|79:367|19:292,1,143.000004364014,4|0,1:2|0:0,0:0:0:0:
6,227,146241,1,2,1:2:0:0:
77,167,146465,2,0,L|67:89,1,71.5000021820069,12|8,0:0|3:0,0:0:0:0:
137,33,146913,1,8,3:0:0:0:
221,72,147137,6,0,B|267:88|267:88|369:76,1,143.000004364014,4|0,0:0|3:0,0:0:0:0:
451,99,147808,2,0,P|467:136|470:179,1,71.5000021820069,2|0,0:0|3:0,0:0:0:0:
427,249,148256,2,0,B|381:265|381:265|279:253,1,143.000004364014,10|8,0:0|0:0,0:0:0:0:
208,204,148928,6,0,P|146:201|69:264,1,143.000004364014,4|0,0:0|3:0,0:0:0:0:
80,337,149599,2,0,L|166:341,1,71.5000021820069,2|0,0:0|3:0,0:0:0:0:
238,374,150047,2,0,L|324:370,1,71.5000021820069,8|8,0:0|0:3,0:0:0:0:
401,358,150495,1,0,3:0:0:0:
457,286,150719,5,4,0:0:0:0:
256,192,150943,12,8,153610,0:0:0:0:
256,192,154519,6,0,P|194:174|104:235,1,155.999995239258,6|8,0:0|0:0,0:0:0:0:
55,295,155190,1,0,3:0:0:0:
15,201,155414,2,0,L|6:117,1,77.999997619629,2|0,0:0|3:0,0:0:0:0:
104,95,155862,2,0,L|113:11,1,77.999997619629,8|0,0:0|3:0,0:0:0:0:
213,30,156310,6,0,P|267:63|362:56,1,155.999995239258,2|8,0:0|0:0,0:0:0:0:
448,15,156981,1,0,3:0:0:0:
499,102,157205,2,0,L|487:186,1,77.999997619629,2|0,0:0|3:0,0:0:0:0:
393,218,157653,2,0,L|405:302,1,77.999997619629,10|0,0:0|3:0,0:0:0:0:
471,371,158101,6,0,P|422:338|302:358,1,155.999995239258,2|8,0:0|0:0,0:0:0:0:
231,374,158772,1,0,3:0:0:0:
143,322,158996,2,0,L|155:154,1,155.999995239258,2|8,0:0|0:0,0:0:0:0:
220,89,159668,1,0,3:0:0:0:
296,155,159892,6,0,P|363:182|445:171,1,155.999995239258,2|8,0:0|0:0,0:0:0:0:
508,90,160563,1,0,3:0:0:0:
447,8,160787,2,0,L|280:18,1,155.999995239258,2|8,0:0|0:0,0:0:0:0:
220,89,161459,1,0,3:0:0:0:
163,173,161683,6,0,L|182:283,1,77.999997619629,4|0,0:0|3:0,0:0:0:0:
251,318,162130,2,0,P|172:290|92:315,1,155.999995239258,8|2,0:0|0:0,0:0:0:0:
19,363,162802,1,0,3:0:0:0:
5,262,163026,2,0,L|11:174,1,77.999997619629,8|0,0:0|3:0,0:0:0:0:
108,160,163474,6,0,L|102:72,1,77.999997619629,6|0,0:0|3:0,0:0:0:0:
29,11,163921,2,0,P|97:35|196:14,1,155.999995239258,8|2,0:0|0:0,0:0:0:0:
267,72,164593,1,0,3:0:0:0:
353,124,164817,2,0,L|444:114,1,77.999997619629,8|0,0:0|3:0,0:0:0:0:
500,189,165265,6,0,P|507:260|470:334,1,155.999995239258,4|8,0:0|0:0,0:0:0:0:
374,369,165936,1,0,3:0:0:0:
303,295,166160,2,0,B|226:278|230:334|132:311,1,155.999995239258,2|8,0:0|0:0,0:0:0:0:
89,234,166832,1,0,3:0:0:0:
169,171,167056,6,0,P|249:150|328:162,1,155.999995239258,2|12,0:0|0:0,0:0:0:0:
407,213,167727,1,2,3:2:0:0:
498,170,167951,2,0,L|487:87,1,77.999997619629,0|8,3:0|0:0,0:0:0:0:
417,19,168399,1,8,0:3:0:0:
417,19,168623,1,8,0:3:0:0:
321,54,168847,6,0,L|159:35,1,155.999995239258,4|8,0:0|0:0,0:0:0:0:
64,26,169519,1,0,3:0:0:0:
14,114,169742,2,0,P|6:153|15:203,1,77.999997619629,2|0,0:0|3:0,0:0:0:0:
106,224,170190,2,0,P|114:263|105:313,1,77.999997619629,8|0,0:0|3:0,0:0:0:0:
39,374,170638,6,0,P|87:350|200:363,1,155.999995239258,2|8,0:0|0:0,0:0:0:0:
274,304,171310,1,0,3:0:0:0:
363,255,171533,2,0,L|358:165,1,77.999997619629,2|0,0:0|3:0,0:0:0:0:
270,126,171981,2,0,L|275:36,1,77.999997619629,8|0,0:0|3:0,0:0:0:0:
370,14,172429,6,0,P|427:32|495:107,1,155.999995239258,2|8,0:0|0:0,0:0:0:0:
509,200,173101,1,0,3:0:0:0:
442,275,173324,2,0,L|279:263,1,155.999995239258,2|8,0:0|0:0,0:0:0:0:
184,255,173996,1,0,3:0:0:0:
132,167,174220,6,0,P|73:159|1:223,1,155.999995239258,2|8,0:0|0:0,0:0:0:0:
4,319,174892,1,0,3:0:0:0:
95,363,175116,2,0,L|197:356,1,77.999997619629,2|0,0:0|3:0,0:0:0:0:
253,295,175563,2,0,L|355:302,1,77.999997619629,12|0,0:0|3:0,0:0:0:0:
424,340,176011,6,0,B|452:300|452:300|430:173,1,155.999995239258,6|8,3:2|0:0,0:0:0:0:
365,119,176683,2,0,L|375:33,2,77.999997619629,0|2|2,3:0|0:0|3:2,0:0:0:0:
280,176,177354,2,0,P|225:174|184:155,1,77.999997619629,8|0,0:0|3:0,0:0:0:0:
128,97,177802,6,0,P|158:168|126:257,1,155.999995239258,6|8,0:0|0:0,0:0:0:0:
48,287,178474,2,0,L|60:371,2,77.999997619629,0|2|0,3:0|0:0|3:0,0:0:0:0:
6,193,179145,2,0,L|18:109,1,77.999997619629,8|0,0:0|3:0,0:0:0:0:
68,27,179593,6,0,P|131:60|229:47,1,155.999995239258,4|8,0:0|0:0,0:0:0:0:
308,18,180265,1,0,3:0:0:0:
391,76,180489,2,0,L|400:159,1,77.999997619629,2|2,0:0|3:2,0:0:0:0:
483,211,180936,2,0,L|474:294,1,77.999997619629,12|0,0:0|3:0,0:0:0:0:
397,355,181384,6,0,P|356:363|306:350,2,77.999997619629,8|8|8,3:0|0:0|0:3,0:0:0:0:
356,262,182056,1,8,0:3:0:0:
316,168,182280,2,0,L|223:174,1,77.999997619629,4|8,0:0|0:3,0:0:0:0:
160,239,182727,2,0,L|67:233,1,77.999997619629,2|0,0:0|3:0,0:0:0:0:
22,164,183168,6,0,P|15:100|66:31,1,130,4|0,0:0|0:0,0:0:0:0:
131,41,183840,2,0,B|176:56|176:56|276:43,1,130,4|0,0:0|3:0,0:0:0:0:
340,27,184513,1,8,0:0:0:0:
406,78,184737,6,0,L|402:221,1,130,4|0,0:0|3:0,0:0:0:0:
339,264,185410,2,0,P|304:265|258:252,1,65,8|2,0:0|0:0,0:0:0:0:
204,211,185858,1,8,0:3:0:0:
204,211,186082,1,0,0:0:0:0:
145,272,186307,2,0,L|148:343,1,65,12|2,0:0|0:0,0:0:0:0:
224,373,186755,6,0,P|286:359|366:365,1,130,4|0,0:0|0:0,0:0:0:0:
435,376,187428,2,0,L|446:240,1,130,4|0,0:0|3:0,0:0:0:0:
451,162,188100,1,8,0:0:0:0:
405,90,188324,6,0,P|350:71|257:94,1,130,4|0,0:0|3:0,0:0:0:0:
212,133,188997,2,0,L|137:124,1,65,8|2,0:0|0:0,0:0:0:0:
73,166,189446,1,8,3:0:0:0:
28,237,189670,2,0,P|23:276|34:312,2,65,8|0|0,3:0|3:0|3:0,0:0:0:0:
106,269,190332,6,0,B|197:280|197:280|261:256,1,130,4|8,0:0|0:0,0:0:0:0:
289,203,191003,2,0,P|351:210|416:279,1,130,4|0,0:0|3:0,0:0:0:0:
432,330,191675,1,8,0:0:0:0:
351,356,191899,6,0,L|282:362,1,65,6|0,0:0|0:0,0:0:0:0:
212,318,192346,2,0,L|143:324,1,65,2|12,0:0|0:0,0:0:0:0:
72,284,192794,1,2,0:0:0:0:
21,216,193018,2,0,P|13:179|50:94,1,130,4|8,3:0|3:0,0:0:0:0:
128,72,193690,1,2,3:2:0:0:
206,104,193914,6,0,B|249:120|249:120|352:106,1,130,4|8,0:0|0:0,0:0:0:0:
400,58,194585,2,0,P|373:107|395:189,1,130,4|0,0:0|3:0,0:0:0:0:
434,247,195257,1,8,0:0:0:0:
365,296,195481,6,0,B|318:289|318:289|211:302,1,130,4|0,0:0|3:0,0:0:0:0:
161,338,196152,2,0,L|81:325,1,65,8|2,0:0|0:0,0:0:0:0:
35,269,196600,1,8,3:0:0:0:
68,191,196824,2,0,L|61:116,2,65,0|8|12,3:0|3:0|3:0,0:0:0:0:
145,224,197496,6,0,P|186:221|258:164,1,130,4|4,0:0|3:0,0:0:0:0:
304,100,198167,1,0,0:0:0:0:
304,100,198391,2,0,L|374:104,2,65,0|2|0,3:0|0:0|3:0,0:0:0:0:
240,43,199063,6,0,P|188:31|93:64,1,130,12|2,0:0|0:0,0:0:0:0:
58,111,199734,1,4,3:0:0:0:
58,111,199958,2,0,L|67:190,1,65,2|8,0:0|3:0,0:0:0:0:
126,234,200406,2,0,L|117:313,2,65,2|8|0,0:0|3:0|3:0,0:0:0:0:
204,202,201078,6,0,P|264:221|340:203,1,130,4|4,0:0|3:0,0:0:0:0:
401,164,201749,1,0,0:0:0:0:
401,164,201973,2,0,L|392:81,2,65,2|2|0,0:0|0:0|3:0,0:0:0:0:
472,210,202645,6,0,L|454:344,1,130,12|2,0:0|0:0,0:0:0:0:
376,359,203317,1,4,3:0:0:0:
376,359,203540,2,0,P|339:359|311:353,1,65,8|0,3:0|3:0,0:0:0:0:
241,305,203988,2,0,P|173:299|110:324,1,130,8|0,3:0|0:0,0:0:0:0:
58,382,204660,6,0,L|68:230,1,130,4|8,0:0|0:3,0:0:0:0:
77,172,205332,1,2,0:0:0:0:
77,172,205555,2,0,P|122:179|221:131,1,130,12|8,0:0|0:0,0:0:0:0:
253,85,206227,6,0,L|405:98,1,130,4|0,0:0|3:0,0:0:0:0:
465,132,206899,1,4,3:0:0:0:
465,132,207123,2,0,P|467:190|462:213,1,65,2|14,0:0|0:0,0:0:0:0:
392,239,207570,2,0,P|390:297|395:320,1,65,0|8,3:0|0:0,0:0:0:0:
452,362,208018,6,0,P|401:345|316:361,1,130,4|0,0:0|3:0,0:0:0:0:
244,376,208690,2,0,L|235:307,1,65,8|2,0:0|0:0,0:0:0:0:
162,268,209137,2,0,L|204:212,1,65,0|2,3:0|3:2,0:0:0:0:
175,135,209585,2,0,L|243:126,1,65,0|8,3:0|3:0,0:0:0:0:
310,172,210033,6,0,P|369:194|459:164,1,130,4|8,0:0|0:0,0:0:0:0:
499,128,210705,2,0,P|487:64|417:2,1,130,0|0,0:0|3:0,0:0:0:0:
366,37,211376,1,8,0:0:0:0:
366,37,211600,6,0,B|321:54|321:54|218:41,1,130,4|0,0:0|3:0,0:0:0:0:
159,59,212272,1,10,0:0:0:0:
159,59,212496,1,12,0:0:0:0:
97,116,212720,2,0,P|87:152|87:187,1,65,8|0,3:0|3:0,0:0:0:0:
150,235,213167,2,0,P|160:271|160:306,1,65,12|0,3:2|3:0,0:0:0:0:
121,373,213615,5,12,3:2:0:0:
0,242,214079,2,0,L|3:148,1,65,8|8,3:0|3:0,0:0:0:0:
63,119,214521,2,0,L|60:25,1,65,12|8,0:0|3:0,0:0:0:0:
130,5,214963,1,8,0:0:0:0:
210,158,215400,6,0,L|202:287,1,130,6|6,0:0|0:0,0:0:0:0:
248,366,216073,1,0,0:0:0:0:
336,347,216297,2,0,P|378:365|473:349,1,130,6|6,0:0|0:0,0:0:0:0:
493,270,216971,1,2,0:0:0:0:
459,185,217195,6,0,P|417:167|322:183,1,130,6|6,0:0|0:0,0:0:0:0:
274,244,217869,1,8,0:0:0:0:
198,294,218093,2,0,L|111:285,1,65,6|0,0:0|0:0,0:0:0:0:
43,271,218542,2,0,P|30:238|27:201,1,65,4|0,3:0|0:0,0:0:0:0:
54,122,218991,6,0,P|124:134|192:97,1,130,6|6,3:2|0:0,0:0:0:0:
242,48,219664,1,0,0:0:0:0:
314,102,219889,2,0,L|327:248,1,130,6|6,0:0|0:0,0:0:0:0:
333,322,220562,1,2,0:0:0:0:
410,369,220787,6,0,P|462:350|500:269,1,130,6|4,0:0|0:3,0:0:0:0:
492,197,221460,1,8,0:0:0:0:
423,136,221685,2,0,L|333:143,1,65,8|8,3:0|0:3,0:0:0:0:
273,175,222134,2,0,L|183:168,1,65,4|2,3:0|0:0,0:0:0:0:
136,114,222582,6,0,P|116:183|155:244,2,130,6|4|6,0:0|0:3|0:0,0:0:0:0:
207,56,223705,1,0,0:0:0:0:
287,98,223929,2,0,L|367:92,1,65,8|0,0:0|0:0,0:0:0:0:
403,18,224378,6,0,P|467:26|512:72,2,130,6|4|4,0:0|0:3|0:3,0:0:0:0:
351,93,225501,1,0,0:0:0:0:
317,177,225725,2,0,L|332:253,1,65,8|0,0:0|0:0,0:0:0:0:
408,285,226174,6,0,P|348:282|289:327,1,130,6|4,0:2|0:3,0:0:0:0:
219,376,226847,1,12,0:0:0:0:
151,314,227072,2,0,L|65:323,1,65,4|0,0:3|0:0,0:0:0:0:
70,231,227521,2,0,L|156:222,1,65,8|0,0:0|0:0,0:0:0:0:
220,193,227970,6,0,P|230:150|231:117,1,65,4|8,0:0|0:3,0:0:0:0:
195,51,228417,1,12,0:0:0:0:
195,51,228641,1,2,0:0:0:0:
117,99,228865,2,0,B|91:119|57:119|57:119|24:97|24:47,1,130,4|8,0:3|0:3,0:0:0:0:
256,192,229761,12,0,232447,0:0:0:0:
256,192,235131,6,0,L|97:177,1,155.999995239258,14|10,0:0|0:0,0:0:0:0:
17,248,235802,1,0,3:0:0:0:
93,334,236026,1,10,0:0:0:0:
93,334,236251,2,0,P|134:328|172:330,1,77.999997619629,0|10,3:0|0:0,0:0:0:0:
277,350,236698,1,0,3:0:0:0:
381,317,236922,6,0,P|438:266|449:169,1,155.999995239258,10|10,0:0|0:0,0:0:0:0:
439,82,237593,1,0,3:0:0:0:
330,91,237817,2,0,P|283:93|247:83,1,77.999997619629,10|0,0:0|3:0,0:0:0:0:
150,47,238265,2,0,P|103:45|67:55,1,77.999997619629,10|0,0:0|3:0,0:0:0:0:
5,138,238713,6,0,L|21:298,1,155.999995239258,10|10,0:0|0:0,0:0:0:0:
111,353,239384,1,0,3:0:0:0:
199,289,239608,2,0,P|264:276|354:313,1,155.999995239258,10|10,0:0|0:0,0:0:0:0:
435,370,240280,1,0,3:0:0:0:
467,265,240504,6,0,L|451:92,1,155.999995239258,10|10,0:0|0:0,0:0:0:0:
384,24,241175,1,0,3:0:0:0:
276,44,241399,2,0,P|224:92|233:204,1,155.999995239258,10|10,0:0|0:0,0:0:0:0:
279,263,242071,1,0,3:0:0:0:
185,319,242295,6,0,L|89:324,1,77.999997619629,14|0,0:0|3:0,0:0:0:0:
24,251,242742,2,0,P|8:178|38:76,1,155.999995239258,10|8,0:0|0:0,0:0:0:0:
113,35,243414,1,0,3:0:0:0:
198,103,243638,2,0,L|294:108,1,77.999997619629,10|0,0:0|3:0,0:0:0:0:
338,196,244086,6,0,L|434:191,1,77.999997619629,10|0,0:0|3:0,0:0:0:0:
493,113,244533,2,0,P|447:60|355:49,1,155.999995239258,10|10,0:0|0:0,0:0:0:0:
275,107,245205,1,0,3:0:0:0:
199,186,245429,2,0,L|213:287,1,77.999997619629,10|0,0:0|3:0,0:0:0:0:
262,358,245877,6,0,P|189:369|122:325,1,155.999995239258,14|10,0:0|0:0,0:0:0:0:
94,219,246548,1,0,3:0:0:0:
199,186,246772,2,0,L|292:175,1,77.999997619629,10|0,0:0|3:0,0:0:0:0:
329,80,247220,2,0,L|422:91,1,77.999997619629,10|0,0:0|3:0,0:0:0:0:
479,170,247668,6,0,P|493:255|444:334,1,155.999995239258,10|14,0:0|0:0,0:0:0:0:
361,355,248339,1,0,3:0:0:0:
265,301,248563,2,0,L|187:315,1,77.999997619629,14|0,0:0|3:0,0:0:0:0:
86,274,249011,1,8,3:3:0:0:
86,274,249235,1,2,3:2:0:0:
155,189,249459,6,0,P|159:148|158:101,1,77.999997619629,14|0,0:0|3:0,0:0:0:0:
228,26,249907,1,10,0:0:0:0:
228,26,250131,1,0,3:0:0:0:
297,110,250354,2,0,P|338:114|385:113,1,77.999997619629,10|0,0:0|3:0,0:0:0:0:
422,211,250802,2,0,P|381:215|334:214,1,77.999997619629,10|0,0:0|3:0,0:0:0:0:
238,245,251250,6,0,P|234:289|239:333,1,77.999997619629,10|0,0:0|3:0,0:0:0:0:
333,374,251698,1,10,0:0:0:0:
333,374,251922,1,0,3:0:0:0:
404,291,252145,2,0,P|448:287|492:292,1,77.999997619629,10|0,0:0|3:0,0:0:0:0:
481,180,252593,2,0,P|442:182|403:178,1,77.999997619629,10|0,0:0|3:0,0:0:0:0:
307,123,253041,6,0,L|196:135,1,77.999997619629,10|0,0:0|3:0,0:0:0:0:
160,216,253489,2,0,L|49:204,1,77.999997619629,10|0,0:0|3:0,0:0:0:0:
2,133,253936,1,10,0:0:0:0:
2,133,254160,1,0,3:0:0:0:
76,52,254384,2,0,L|187:40,1,77.999997619629,10|0,0:0|3:0,0:0:0:0:
262,53,254832,6,0,P|273:96|267:143,1,77.999997619629,10|0,0:0|3:0,0:0:0:0:
175,183,255280,2,0,P|164:226|170:273,1,77.999997619629,10|0,0:0|3:0,0:0:0:0:
224,351,255728,1,10,0:0:0:0:
224,351,255951,1,0,3:0:0:0:
324,308,256175,2,0,L|430:317,1,77.999997619629,10|0,0:0|3:0,0:0:0:0:
477,235,256623,6,0,P|491:154|452:72,1,155.999995239258,14|10,0:0|0:0,0:0:0:0:
370,31,257295,1,0,3:0:0:0:
275,86,257519,2,0,L|269:166,1,77.999997619629,10|0,0:0|3:0,0:0:0:0:
260,273,257966,1,10,0:0:0:0:
260,273,258190,1,0,3:0:0:0:
153,296,258414,6,0,P|84:303|2:227,1,155.999995239258,10|10,0:0|0:0,0:0:0:0:
4,146,259086,1,0,3:0:0:0:
83,71,259310,2,0,L|189:79,1,77.999997619629,10|0,0:0|3:0,0:0:0:0:
275,86,259757,1,10,0:0:0:0:
275,86,259981,1,0,3:0:0:0:
343,171,260205,6,0,B|371:258|316:240|346:335,1,155.999995239258,10|10,0:0|0:0,0:0:0:0:
438,375,260877,1,0,3:0:0:0:
502,286,261101,2,0,L|491:202,1,77.999997619629,10|0,0:0|3:0,0:0:0:0:
482,99,261548,1,10,0:0:0:0:
482,99,261772,1,0,3:0:0:0:
373,84,261996,6,0,P|340:92|282:91,1,77.999997619629,14|8,0:0|0:3,0:0:0:0:
209,26,262444,1,8,0:3:0:0:
142,112,262668,2,0,L|153:200,1,77.999997619629,4|0,0:2|1:0,0:0:0:0:
174,296,263116,1,0,1:0:0:0:
105,380,263339,2,0,P|60:375|18:354,1,77.999997619629,2|2,0:0|0:0,0:0:0:0:
11,246,263787,6,0,L|21:140,1,77.999997619629,6|0,0:0|3:0,0:0:0:0:
47,55,264239,1,6,0:0:0:0:
277,14,264691,2,0,P|292:53|292:97,1,77.999997619629,6|0,0:0|3:0,0:0:0:0:
196,157,265143,1,6,0:0:0:0:
196,157,265369,1,0,3:0:0:0:
230,271,265595,6,0,P|225:313|235:356,1,77.999997619629,6|0,0:0|3:0,0:0:0:0:
343,307,266041,1,6,0:0:0:0:
343,307,266264,1,0,3:0:0:0:
452,348,266487,2,0,P|458:309|453:271,1,77.999997619629,6|0,0:0|3:0,0:0:0:0:
393,170,266933,2,0,P|386:131|391:93,1,77.999997619629,6|0,0:0|3:0,0:0:0:0:
299,21,267379,6,0,P|258:15|198:31,2,77.999997619629,14|0|14,0:0|3:0|0:0,0:0:0:0:
391,93,268050,1,0,3:0:0:0:
310,178,268274,2,0,L|203:171,1,77.999997619629,12|0,0:0|3:0,0:0:0:0:
122,131,268722,2,0,L|15:138,1,77.999997619629,12|0,0:0|3:0,0:0:0:0:
15,248,269170,6,0,P|22:294|42:323,1,77.999997619629,14|8,0:0|3:0,0:0:0:0:
131,247,269617,2,0,P|160:283|191:298,1,77.999997619629,8|8,3:0|0:0,0:0:0:0:
229,187,270065,2,0,P|272:203|307:201,1,77.999997619629,8|8,3:2|0:0,0:0:0:0:
288,86,270513,2,0,P|333:78|363:58,1,77.999997619629,8|4,0:0|3:0,0:0:0:0:
457,11,270967,6,0,B|486:74|486:74|456:147|456:147|487:239|487:239|442:305|368:276,1,364,6|0,0:0|0:0,0:0:0:0:
309,226,272758,6,0,B|246:237|246:237|170:224|170:224|116:264|116:264|55:250|20:195|40:137,1,364,2|0,0:0|0:0,0:0:0:0:
96,76,274549,6,0,B|161:59|207:90|207:90|274:129|332:78|332:78|396:130|460:105|460:105|393:196|436:283,1,572,2|0,0:0|0:0,0:0:0:0:
487,352,277235,6,0,P|416:312|340:329,1,156,2|0,0:0|0:0,0:0:0:0:
264,372,278131,6,0,B|236:324|236:324|248:230|248:230|200:292|102:293|51:230,1,364,2|0,0:0|0:0,0:0:0:0:
21,153,279922,6,0,B|14:57|83:17|83:17|133:68|133:68|212:66|239:140,1,364,2|0,0:0|0:0,0:0:0:0:
248,230,281713,5,2,0:0:0:0:
256,192,281937,12,0,288877,0:0:0:0:
