osu file format v14

[General]
AudioFilename: schwi.mp3
AudioLeadIn: 0
PreviewTime: 233678
Countdown: 0
SampleSet: Soft
StackLeniency: 0.7
Mode: 0
LetterboxInBreaks: 0
WidescreenStoryboard: 1

[Editor]
DistanceSpacing: 0.8
BeatDivisor: 4
GridSize: 4
TimelineZoom: 1.4

[Metadata]
Title:THERE IS A REASON
TitleUnicode:THERE IS A REASON
Artist:Suzuki Konomi
ArtistUnicode:鈴木このみ
Creator:Doormat
Version:NORMAL
Source:ノーゲーム・ノーライフ ゼロ
Tags:Kalibe Akitoshi Corinn Gaia no game no life zero 0 movie theme song ngnl nogenora
BeatmapID:1407828
BeatmapSetID:641718

[Difficulty]
HPDrainRate:3
CircleSize:3.5
OverallDifficulty:3
ApproachRate:4
SliderMultiplier:1
SliderTickRate:1

[Events]
//Background and Video events
0,0,"riku.jpg",0,0
//Break Periods
2,100781,113802
2,197695,214080
//Storyboard Layer 0 (Background)
//Storyboard Layer 1 (Fail)
//Storyboard Layer 2 (Pass)
//Storyboard Layer 3 (Foreground)
//Storyboard Sound Samples

[TimingPoints]
505,447.761194029851,4,2,1,30,1,0
2743,-100,4,2,1,50,0,0
2967,-100,4,2,1,35,0,0
3191,-100,4,2,1,20,0,0
7221,-100,4,2,1,30,0,0
11027,-100,4,2,1,30,0,0
14833,-100,4,2,1,40,0,0
43490,-100,4,2,1,30,0,0
67669,-100,4,2,1,5,0,0
68555,447.761194029851,4,2,1,50,1,0
97211,-100,4,2,1,30,0,0
100122,-100,4,2,1,5,0,0
100793,-100,4,2,1,50,0,0
115122,-100,4,2,1,60,0,0
129450,-100,4,2,1,70,0,0
130793,-100,4,2,3,70,0,0
131017,-100,4,2,1,70,0,0
134375,-100,4,2,3,70,0,0
134599,-100,4,2,1,70,0,0
136614,-100,4,2,1,80,0,0
137062,-100,4,2,3,80,0,0
137286,-100,4,2,1,80,0,0
138853,-100,4,2,3,80,0,0
139077,-100,4,2,1,80,0,0
140196,-100,4,2,1,70,0,0
141540,-100,4,2,3,70,0,0
141763,-100,4,2,1,70,0,0
143331,-100,4,2,3,70,0,0
143555,-100,4,2,1,70,0,0
145122,-100,4,2,3,70,0,0
145346,-100,4,2,1,70,0,0
147808,-100,4,2,3,70,0,0
148032,-100,4,2,1,70,0,0
149599,-100,4,2,3,70,0,0
149823,-100,4,2,1,70,0,0
150719,-100,4,2,1,60,0,0
152566,447.761194029851,4,2,1,70,1,0
152715,447.761194029851,4,2,1,70,1,0
154519,447.761194029851,4,2,3,80,1,1
168735,-100,4,2,3,80,0,0
168847,-100,4,2,3,80,0,1
183168,448.430493273543,4,2,1,80,1,0
190332,447.761194029851,4,2,1,80,1,0
197496,-100,4,2,1,60,0,0
213615,464.2166344294,4,2,1,60,1,0
214079,442.477876106195,4,2,1,60,1,0
215400,448.933782267116,4,2,1,70,1,0
224378,-100,4,2,1,75,0,0
226174,-100,4,2,1,80,0,0
227970,447.761194029851,4,2,1,85,1,0
229611,-100,4,2,1,50,0,0
233343,-100,4,2,1,5,0,0
233764,455.927051671733,4,2,1,5,1,0
235131,447.761194029851,4,2,3,90,1,1
235131,-90.9090909090909,4,2,3,90,0,1
249347,-90.9090909090909,4,2,3,90,0,0
249459,-90.9090909090909,4,2,3,90,0,1
258414,-90.9090909090909,4,2,3,93,0,1
260205,-90.9090909090909,4,2,3,95,0,1
261996,-90.9090909090909,4,2,3,98,0,1
263675,-90.9090909090909,4,2,3,98,0,0
263787,452.147701582517,4,2,3,100,1,1
263787,-90.9090909090909,4,2,3,100,0,1
265595,446.096654275093,4,2,3,100,1,1
265595,-90.9090909090909,4,2,3,100,0,1
267379,447.761194029851,4,2,3,100,1,1
267379,-90.9090909090909,4,2,3,100,0,1
270967,447.761194029851,4,2,1,60,1,0
272758,-100,4,2,1,55,0,0
274549,-100,4,2,1,50,0,0
277235,-100,4,2,1,55,0,0
278131,-100,4,2,1,60,0,0
279922,-100,4,2,1,50,0,0
281713,-100,4,2,1,40,0,0
283504,-100,4,2,1,30,0,0
285295,-100,4,2,1,20,0,0
287086,-100,4,2,1,10,0,0
288877,-100,4,2,1,5,0,0

[Colours]
Combo1 : 228,227,241
Combo2 : 248,240,19
Combo3 : 198,34,34
Combo4 : 190,59,129

[HitObjects]
172,308,505,6,0,P|243:287|310:317,1,150,2|2,0:2|0:0,0:0:0:0:
385,384,1624,1,2,0:0:0:0:
445,304,2072,2,0,B|429:152|429:152|325:192,1,250,2|2,0:0|0:0,0:0:0:0:
208,336,4087,6,0,L|41:313,1,150,2|2,0:0|0:0,0:0:0:0:
9,232,5206,1,2,0:0:0:0:
93,180,5654,1,2,0:0:0:0:
431,65,7669,5,2,0:0:0:0:
483,150,8116,1,2,0:0:0:0:
399,202,8564,2,0,P|351:192|286:196,1,100,2|2,0:0|0:0,0:0:0:0:
240,276,9460,2,0,P|166:280|95:258,1,150,2|2,0:0|0:0,0:0:0:0:
9,28,11251,6,0,B|18:79|57:112|57:112|99:101|129:48|129:48|169:80|233:68,1,300,2|0,0:0|0:0,0:0:0:0:
317,28,13042,1,2,0:0:0:0:
469,156,14833,5,2,0:0:0:0:
393,220,15281,2,0,P|341:212|293:208,1,100,0|2,0:0|0:0,0:0:0:0:
245,216,15952,1,0,0:0:0:0:
101,172,16624,2,0,L|113:60,1,100,2|2,0:0|0:0,0:0:0:0:
121,24,17296,1,2,0:0:0:0:
213,64,17743,2,0,P|245:56|321:44,1,100,0|0,0:0|0:0,0:0:0:0:
357,16,18415,6,0,P|349:80|349:132,1,100,2|0,0:0|0:0,0:0:0:0:
385,208,19310,1,2,0:0:0:0:
261,364,20206,2,0,L|157:344,1,100,2|0,0:0|0:0,0:0:0:0:
105,264,21102,1,2,0:0:0:0:
164,183,21549,1,2,0:0:0:0:
258,214,21997,5,2,0:0:0:0:
317,133,22445,2,0,P|309:80|293:24,1,100,0|2,0:0|0:0,0:0:0:0:
253,12,23116,1,2,0:0:0:0:
169,64,23564,2,0,L|49:44,1,100,2|2,0:0|0:0,0:0:0:0:
53,148,24460,2,0,L|151:164,1,100,2|2,0:0|0:0,0:0:0:0:
289,224,25579,6,0,P|325:184|425:188,1,150,2|2,0:0|0:0,0:0:0:0:
489,252,26699,1,2,0:0:0:0:
385,360,27370,2,0,B|325:340|325:340|261:372|261:372|198:352,1,200,2|2,0:0|0:0,0:0:0:0:
241,156,29161,5,2,0:0:0:0:
329,204,29609,1,2,0:0:0:0:
401,135,30057,2,0,L|393:40,2,75,2|0|0,0:0|0:0|0:0,0:0:0:0:
445,159,30952,2,0,P|437:192|433:268,1,100,2|2,0:0|0:0,0:0:0:0:
453,304,31624,1,2,0:0:0:0:
369,360,32072,2,0,L|261:344,1,100,0|0,0:0|0:0,0:0:0:0:
229,316,32743,6,0,L|130:330,1,100,2|0,0:0|0:0,0:0:0:0:
41,280,33639,2,0,P|25:328|33:368,2,75,2|0|2,0:0|0:0|0:0,0:0:0:0:
73,240,34534,1,2,0:0:0:0:
53,140,34982,1,2,0:0:0:0:
141,90,35430,2,0,L|195:99,1,50,2|2,0:0|0:0,0:0:0:0:
233,72,35878,2,0,L|287:81,1,50,2|2,0:0|0:0,0:0:0:0:
309,124,36325,6,0,P|275:161|262:208,1,100,2|2,0:0|0:0,0:0:0:0:
353,253,37221,2,0,P|386:216|399:169,1,100,2|0,0:0|0:0,0:0:0:0:
389,69,38116,1,2,0:0:0:0:
389,69,38340,2,0,L|269:53,1,100,2|2,0:0|0:0,0:0:0:0:
113,236,39907,6,0,P|146:230|226:238,1,100,2|2,0:0|0:0,0:0:0:0:
260,250,40579,1,2,0:0:0:0:
260,250,40803,2,0,P|309:255|359:249,1,100,2|0,0:0|0:0,0:0:0:0:
417,168,41699,1,2,0:0:0:0:
498,225,42146,2,0,L|485:296,1,50,2|2,0:0|0:0,0:0:0:0:
505,324,42594,2,0,P|465:312|405:332,1,100,2|0,0:0|0:0,0:0:0:0:
313,300,43490,5,2,0:0:0:0:
457,160,44385,2,0,L|449:56,1,100,0|2,0:0|0:0,0:0:0:0:
353,40,45281,2,0,L|345:144,1,100,2|0,0:0|0:0,0:0:0:0:
357,188,45952,1,2,0:0:0:0:
261,220,46400,2,0,P|211:212|162:205,1,100,2|0,0:0|0:0,0:0:0:0:
113,216,47072,5,2,3:2:0:0:
45,140,47519,1,0,0:0:0:0:
96,51,47967,1,2,0:0:0:0:
195,72,48415,1,2,0:0:0:0:
205,173,48863,2,0,P|205:222|212:272,1,100,2|2,0:0|0:0,0:0:0:0:
305,308,49758,2,0,P|311:258|312:208,1,100,2|2,0:0|0:0,0:0:0:0:
336,110,50654,6,0,P|428:141|504:73,1,200,2|2,0:0|0:0,0:0:0:0:
409,40,51997,1,0,0:0:0:0:
313,8,52445,1,2,0:0:0:0:
241,76,52893,1,2,0:0:0:0:
169,144,53340,1,2,0:0:0:0:
97,212,53788,1,2,0:0:0:0:
139,300,54236,6,0,P|236:295|356:297,1,200,2|2,0:0|0:0,0:0:0:0:
417,236,55579,1,0,0:0:0:0:
337,172,56027,2,0,P|325:140|345:64,1,100,2|0,0:0|0:0,0:0:0:0:
365,36,56699,1,2,0:0:0:0:
265,20,57146,2,0,L|161:32,1,100,2|0,0:0|0:0,0:0:0:0:
117,20,57818,5,2,3:2:0:0:
61,104,58266,1,0,0:0:0:0:
123,183,58713,1,2,0:0:0:0:
217,147,59161,1,0,0:0:0:0:
212,46,59609,2,0,P|285:28|317:36,1,100,2|0,0:0|3:0,0:0:0:0:
347,64,60281,2,0,P|332:137|311:163,1,100,2|2,0:0|0:0,0:0:0:0:
217,147,61176,6,0,L|57:140,1,150,2|0,3:2|0:0,0:0:0:0:
1,216,62296,1,2,0:0:0:0:
97,332,62967,2,0,P|145:308|245:328,1,150,2|0,3:2|0:0,0:0:0:0:
325,368,64087,1,2,0:0:0:0:
325,368,64310,2,0,L|441:348,1,100,2|2,0:0|0:0,0:0:0:0:
256,192,64982,12,0,67669,0:0:0:0:
177,136,68555,6,0,P|196:181|197:231,1,100,6|0,0:0|0:3,0:0:0:0:
101,252,69450,2,0,P|81:206|80:156,1,100,0|0,0:3|0:0,0:0:0:0:
177,136,70346,2,0,L|293:152,1,100,2|0,3:2|0:0,0:0:0:0:
357,92,71241,1,2,3:2:0:0:
414,172,71689,1,2,3:2:0:0:
333,229,72137,6,0,P|321:272|309:336,1,100,2|4,3:2|0:3,0:0:0:0:
220,284,73032,2,0,P|211:234|198:186,1,100,2|0,0:0|0:0,0:0:0:0:
133,112,73928,2,0,P|165:92|225:92,1,100,2|0,3:2|0:0,0:0:0:0:
313,144,74823,2,0,L|361:132,1,50,2|0,0:0|3:0,0:0:0:0:
409,148,75271,2,0,L|457:136,1,50,2|0,3:2|3:0,0:0:0:0:
505,152,75719,5,4,3:2:0:0:
485,252,76166,1,2,0:0:0:0:
383,263,76614,1,2,0:0:0:0:
340,170,77062,1,2,0:0:0:0:
237,181,77510,2,0,P|189:192|139:189,1,100,2|0,3:2|0:0,0:0:0:0:
133,88,78405,2,0,P|181:76|231:79,1,100,0|2,0:0|0:0,0:0:0:0:
317,128,79301,6,0,L|313:240,1,100,4|4,3:0|0:3,0:0:0:0:
249,304,80196,1,2,3:2:0:0:
313,384,80644,1,2,3:2:0:0:
408,347,81092,2,0,P|413:320|401:244,1,100,4|0,3:0|0:0,0:0:0:0:
361,220,81763,1,0,0:0:0:0:
361,220,81987,2,0,P|358:170|371:122,1,100,2|2,3:2|3:2,0:0:0:0:
333,28,82883,6,0,L|217:36,1,100,4|0,0:0|0:0,0:0:0:0:
133,32,83778,2,0,L|170:141,1,100,0|0,0:0|0:0,0:0:0:0:
233,200,84674,2,0,P|189:224|165:224,2,75,2|2|0,3:2|0:0|3:0,0:0:0:0:
273,168,85569,2,0,L|329:184,1,50,2|0,0:0|3:0,0:0:0:0:
372,180,86017,1,2,0:0:0:0:
472,184,86465,6,0,P|463:234|466:283,1,100,4|2,3:0|0:0,0:0:0:0:
389,348,87360,2,0,P|343:326|294:317,1,100,2|0,0:0|0:0,0:0:0:0:
198,287,88256,2,0,P|194:324|205:360,2,75,2|2|2,3:2|0:0|0:0,0:0:0:0:
217,240,89152,1,2,0:0:0:0:
141,172,89599,1,2,0:0:0:0:
73,248,90047,6,0,L|81:336,2,75,4|2|2,0:0|0:0|0:0,0:0:0:0:
43,208,90943,1,2,0:0:0:0:
53,108,91390,1,2,0:0:0:0:
134,166,91838,2,0,P|169:176|269:120,2,150,2|2|2,3:2|0:0|0:0,0:0:0:0:
43,208,93629,6,0,L|33:312,1,100,2|0,3:2|0:0,0:0:0:0:
5,348,94301,1,2,0:0:0:0:
5,348,94525,2,0,L|104:338,1,100,4|2,0:3|0:0,0:0:0:0:
193,292,95420,2,0,P|205:328|201:364,2,75,2|2|2,0:0|0:0|0:0,0:0:0:0:
157,256,96316,1,2,0:0:0:0:
225,184,96763,2,0,L|281:192,1,50,2|0,0:0|0:0,0:0:0:0:
256,192,97211,12,0,100122,0:0:0:0:
369,72,115122,6,0,L|297:84,1,50,4|0,3:2|3:0,0:0:0:0:
277,104,115569,2,2,L|227:95,1,50,8|0,3:0|3:0,0:0:0:0:
189,64,116017,2,0,P|197:104|181:168,1,100,8|8,3:2|3:0,0:0:0:0:
149,196,116689,1,0,3:0:0:0:
221,264,117137,1,0,3:0:0:0:
221,264,117360,2,0,L|273:252,1,50,8|0,3:0|3:0,0:0:0:0:
313,228,117808,2,0,P|300:276|308:325,1,100,8|8,3:2|3:0,0:0:0:0:
409,328,118704,6,0,P|421:279|413:230,1,100,4|8,3:2|3:0,0:0:0:0:
389,188,119375,1,0,3:0:0:0:
389,188,119599,2,0,P|381:138|393:90,1,100,8|8,3:2|3:0,0:0:0:0:
425,52,120271,1,0,3:0:0:0:
333,12,120719,1,0,3:0:0:0:
333,12,120943,2,0,L|273:20,1,50,8|0,3:0|3:0,0:0:0:0:
249,56,121390,2,0,L|137:44,1,100,8|8,3:2|3:0,0:0:0:0:
53,72,122286,6,0,P|61:116|69:176,1,100,4|8,3:2|3:0,0:0:0:0:
169,176,123181,2,0,P|175:126|184:77,1,100,8|0,3:2|3:0,0:0:0:0:
197,28,123853,2,0,L|305:44,1,100,0|0,3:0|3:0,0:0:0:0:
333,76,124525,1,8,3:0:0:0:
333,76,124749,2,0,L|431:61,1,100,0|0,3:0|3:0,0:0:0:0:
481,52,125420,1,8,3:0:0:0:
461,152,125868,6,0,P|451:201|448:250,1,100,4|8,3:2|3:0,0:0:0:0:
385,328,126763,2,0,L|397:388,2,50,8|4|4,3:2|3:0|3:0,0:0:0:0:
341,304,127435,2,0,L|345:196,1,100,12|0,3:2|3:0,0:0:0:0:
349,152,128107,1,8,3:2:0:0:
253,176,128555,2,0,L|189:168,1,50,4|4,3:0|3:0,0:0:0:0:
157,192,129002,2,0,L|93:184,1,50,8|8,3:0|3:0,0:0:0:0:
61,208,129450,6,0,P|69:172|57:124,2,75,4|8|0,1:2|1:3|1:0,0:0:0:0:
37,252,130346,1,12,0:0:0:0:
125,304,130793,1,0,0:0:0:0:
201,236,131241,2,0,P|245:216|309:236,1,100,4|0,1:3|0:0,0:0:0:0:
333,260,131913,1,0,1:0:0:0:
333,260,132137,2,0,P|381:269|426:249,1,100,12|8,0:0|0:3,0:0:0:0:
437,152,133032,6,0,L|531:136,2,75,4|8|0,1:2|1:3|1:0,0:0:0:0:
395,128,133928,1,12,0:0:0:0:
307,172,134375,1,0,0:0:0:0:
350,259,134823,2,0,P|357:288|341:368,1,100,4|2,1:3|1:2,0:0:0:0:
249,384,135719,1,12,0:0:0:0:
169,324,136166,2,0,L|173:260,1,50,2|8,0:0|0:0,0:0:0:0:
208,240,136614,6,0,P|171:244|135:236,2,75,4|0|2,0:0|3:0|1:2,0:0:0:0:
249,212,137510,2,0,L|313:220,1,50,12|2,1:2|1:2,0:0:0:0:
349,228,137957,1,12,1:2:0:0:
445,196,138405,2,0,P|449:233|441:269,2,75,4|0|2,0:0|3:0|1:2,0:0:0:0:
421,152,139301,2,0,L|357:144,1,50,12|2,1:2|1:2,0:0:0:0:
321,138,139749,1,8,1:3:0:0:
233,188,140196,6,0,P|221:144|233:96,2,75,4|8|0,1:2|1:3|1:0,0:0:0:0:
269,224,141092,1,12,0:0:0:0:
209,304,141540,1,0,0:0:0:0:
129,244,141987,2,0,P|96:237|24:261,1,100,4|0,1:2|0:0,0:0:0:0:
13,300,142659,1,0,1:0:0:0:
13,300,142883,2,0,P|20:267|-4:195,1,100,12|0,0:0|0:0,0:0:0:0:
41,112,143778,6,0,L|129:120,2,75,4|8|4,1:2|0:3|3:0,0:0:0:0:
17,68,144674,1,12,0:0:0:0:
105,20,145122,1,2,0:0:0:0:
190,72,145569,2,0,P|237:84|285:71,1,100,4|0,1:2|0:0,0:0:0:0:
325,40,146241,1,2,1:2:0:0:
324,40,146465,2,0,P|374:34|419:54,1,100,12|8,0:0|3:0,0:0:0:0:
453,92,147137,5,4,0:0:0:0:
385,164,147584,1,0,3:0:0:0:
385,164,147808,2,0,L|393:228,1,50,2|0,0:0|3:0,0:0:0:0:
417,256,148256,2,0,L|301:248,1,100,10|8,0:0|0:0,0:0:0:0:
269,244,148928,1,4,0:0:0:0:
173,272,149375,1,0,3:0:0:0:
173,272,149599,2,0,P|148:269|118:257,1,50,2|0,0:0|3:0,0:0:0:0:
81,236,150047,2,0,L|89:356,1,100,8|0,0:0|3:0,0:0:0:0:
97,384,150719,5,4,0:0:0:0:
256,192,150943,12,8,152715,0:0:0:0:
349,64,154519,6,0,L|241:72,1,100,6|8,0:0|0:0,0:0:0:0:
281,168,155414,2,0,L|389:160,1,100,2|8,0:0|0:0,0:0:0:0:
417,196,156086,1,0,3:0:0:0:
417,196,156310,2,0,P|436:159|467:139,2,75,2|0|0,0:0|3:0|3:0,0:0:0:0:
449,236,157205,1,2,0:0:0:0:
369,296,157653,1,10,0:0:0:0:
286,238,158101,6,0,P|236:245|187:255,1,100,2|8,0:0|0:0,0:0:0:0:
89,236,158996,2,0,P|106:189|122:141,1,100,2|8,0:0|0:0,0:0:0:0:
161,48,159892,2,0,P|121:40|77:52,2,75,2|0|0,0:0|0:0|3:0,0:0:0:0:
201,76,160787,2,0,L|249:60,1,50,2|0,0:0|3:0,0:0:0:0:
297,44,161235,2,0,P|325:56|401:68,1,100,8|4,0:0|0:0,0:0:0:0:
473,128,162130,5,8,0:0:0:0:
460,227,162578,1,2,0:0:0:0:
368,266,163026,1,8,0:0:0:0:
288,206,163474,1,6,0:0:0:0:
379,166,163921,1,8,0:0:0:0:
460,227,164369,1,2,0:0:0:0:
447,327,164817,1,8,0:0:0:0:
353,366,165265,6,0,P|329:360|241:344,1,100,4|8,0:0|0:0,0:0:0:0:
209,364,165936,1,0,3:0:0:0:
209,364,166160,2,0,P|221:342|259:261,1,100,2|8,0:0|0:0,0:0:0:0:
333,212,167056,2,0,P|357:218|445:234,1,100,2|12,0:0|0:0,0:0:0:0:
477,214,167727,1,2,3:2:0:0:
477,214,167951,2,0,L|469:160,1,50,0|8,3:0|0:0,0:0:0:0:
493,120,168399,2,0,L|485:66,1,50,8|8,0:3|0:3,0:0:0:0:
504,24,168847,6,0,P|456:42|406:38,1,100,4|8,0:0|0:0,0:0:0:0:
333,104,169742,2,0,L|245:92,2,75,2|0|0,0:0|3:0|3:0,0:0:0:0:
369,140,170638,2,0,L|457:128,2,75,2|0|0,0:0|3:0|3:0,0:0:0:0:
333,176,171533,1,2,0:0:0:0:
241,136,171981,1,8,0:0:0:0:
201,228,172429,6,0,P|160:241|96:225,1,100,2|8,0:0|0:0,0:0:0:0:
21,180,173324,2,0,L|1:264,2,75,2|0|0,0:0|3:0|3:0,0:0:0:0:
57,144,174220,2,0,L|39:71,2,75,2|0|0,0:0|3:0|3:0,0:0:0:0:
93,180,175116,1,2,0:0:0:0:
181,132,175563,1,12,0:0:0:0:
253,200,176011,6,0,P|249:244|245:316,1,100,6|8,3:2|0:0,0:0:0:0:
273,342,176683,1,0,3:0:0:0:
273,342,176907,2,0,L|209:334,2,50,2|2|8,0:0|3:2|0:0,0:0:0:0:
356,284,177802,2,0,P|403:267|452:274,1,100,6|8,0:0|0:0,0:0:0:0:
501,292,178474,1,0,3:0:0:0:
501,292,178698,2,0,P|484:245|491:196,1,100,2|8,0:0|0:0,0:0:0:0:
425,120,179593,6,0,P|375:127|325:130,1,100,4|8,0:0|0:0,0:0:0:0:
277,116,180265,1,0,3:0:0:0:
277,116,180489,1,2,0:0:0:0:
237,208,180936,1,12,0:0:0:0:
312,274,181384,2,0,P|377:260|461:256,2,150,8|8|2,3:0|0:3|0:0,0:0:0:0:
272,366,183168,6,0,P|241:340|121:360,1,150,4|4,0:0|0:0,0:0:0:0:
53,292,184289,2,0,P|56:267|56:242,1,50,0|8,3:0|0:0,0:0:0:0:
37,196,184737,2,0,P|35:155|42:87,1,100,4|0,0:0|3:0,0:0:0:0:
69,56,185410,1,8,0:0:0:0:
169,68,185858,2,0,L|273:52,1,100,8|12,0:3|0:0,0:0:0:0:
365,28,186755,6,0,P|348:101|338:175,1,150,4|4,0:0|0:0,0:0:0:0:
305,268,187876,2,0,P|261:260|249:260,1,50,0|8,3:0|0:0,0:0:0:0:
213,236,188324,2,0,L|205:348,1,100,4|0,0:0|3:0,0:0:0:0:
201,384,188997,1,8,0:0:0:0:
101,364,189446,2,0,L|97:314,1,50,8|8,3:0|3:0,0:0:0:0:
65,276,189894,2,0,L|61:226,1,50,0|0,3:0|3:0,0:0:0:0:
29,188,190332,6,0,P|53:196|129:176,1,100,4|8,0:0|0:0,0:0:0:0:
153,140,191003,2,0,P|201:132|247:151,1,100,4|0,0:0|3:0,0:0:0:0:
285,184,191675,1,8,0:0:0:0:
285,184,191899,1,6,0:0:0:0:
373,140,192346,1,2,0:0:0:0:
373,140,192570,2,0,L|365:72,1,50,12|2,0:0|0:0,0:0:0:0:
341,48,193018,2,0,P|389:55|435:36,1,100,4|8,3:0|3:0,0:0:0:0:
509,104,193914,6,0,L|497:216,1,100,4|8,0:0|0:0,0:0:0:0:
493,252,194585,2,0,L|399:215,1,100,4|0,0:0|3:0,0:0:0:0:
353,196,195257,1,8,0:0:0:0:
353,196,195481,1,4,0:0:0:0:
261,236,195929,1,0,3:0:0:0:
261,236,196152,2,0,L|269:304,1,50,8|2,0:0|0:0,0:0:0:0:
289,328,196600,2,0,P|241:320|173:320,2,100,8|8|4,3:0|3:0|0:0,0:0:0:0:
225,112,215400,5,6,0:0:0:0:
309,168,215848,1,6,0:0:0:0:
365,84,216297,1,6,0:0:0:0:
281,28,216746,2,0,L|221:20,1,50,6|2,0:0|0:0,0:0:0:0:
181,16,217195,1,6,0:0:0:0:
101,76,217644,2,0,L|109:136,1,50,6|8,0:0|0:0,0:0:0:0:
104,174,218093,1,6,0:0:0:0:
196,138,218542,1,4,3:0:0:0:
232,230,218991,5,6,3:2:0:0:
309,168,219440,1,6,0:0:0:0:
392,221,219889,1,6,0:0:0:0:
367,316,220338,2,0,L|305:324,1,50,6|2,0:0|0:0,0:0:0:0:
269,332,220787,1,6,0:0:0:0:
197,264,221236,2,0,L|205:202,1,50,4|8,0:3|0:0,0:0:0:0:
221,168,221685,2,0,L|159:160,1,50,8|8,3:0|0:3,0:0:0:0:
125,180,222134,2,0,L|63:172,1,50,4|2,3:0|0:0,0:0:0:0:
33,148,222582,5,6,0:0:0:0:
97,72,223031,1,4,0:3:0:0:
194,89,223480,1,6,0:0:0:0:
227,182,223929,1,8,0:0:0:0:
129,164,224378,1,6,0:0:0:0:
194,89,224827,1,4,0:3:0:0:
291,107,225276,1,4,0:3:0:0:
323,200,225725,1,8,0:0:0:0:
227,182,226174,6,0,L|165:172,1,50,6|0,0:2|0:0,0:0:0:0:
133,196,226623,2,0,L|71:186,1,50,4|12,0:3|0:0,0:0:0:0:
37,168,227072,1,4,0:3:0:0:
5,264,227521,1,8,0:0:0:0:
72,339,227970,1,4,0:0:0:0:
171,318,228417,2,0,P|205:312|281:320,1,100,12|4,0:0|0:3,0:0:0:0:
365,344,229313,2,0,P|361:312|373:256,1,66.6666666666667,8|8,0:3|3:3,0:0:0:0:
256,192,229761,12,0,233343,0:0:0:0:
101,168,235131,6,0,L|110:277,1,110.000003356934,14|10,0:0|0:0,0:0:0:0:
113,333,235802,1,0,3:0:0:0:
113,333,236026,2,0,L|216:295,1,110.000003356934,10|10,0:0|0:0,0:0:0:0:
273,298,236698,1,0,3:0:0:0:
273,298,236922,2,0,P|236:257|230:203,1,110.000003356934,10|10,0:0|0:0,0:0:0:0:
261,158,237593,1,0,3:0:0:0:
261,158,237817,1,10,0:0:0:0:
197,72,238265,1,10,0:0:0:0:
283,8,238713,6,0,L|411:20,1,110.000003356934,10|10,0:0|0:0,0:0:0:0:
445,0,239384,1,0,3:0:0:0:
445,0,239608,2,0,P|429:36|449:104,1,110.000003356934,10|10,0:0|0:0,0:0:0:0:
481,144,240280,1,0,3:0:0:0:
481,144,240504,2,0,P|500:194|482:245,1,110.000003356934,10|10,0:0|0:0,0:0:0:0:
449,288,241175,1,0,3:0:0:0:
449,288,241399,2,0,L|457:348,2,55.0000016784668,10|0|10,0:0|3:0|0:0,0:0:0:0:
353,232,242295,5,14,0:0:0:0:
338,341,242742,1,10,0:0:0:0:
228,360,243190,1,8,0:0:0:0:
175,262,243638,2,0,L|181:200,1,55.0000016784668,10|0,0:0|3:0,0:0:0:0:
201,156,244086,1,10,0:0:0:0:
101,108,244533,1,10,0:0:0:0:
24,188,244981,2,0,L|29:242,1,55.0000016784668,10|0,0:0|3:0,0:0:0:0:
73,276,245429,2,0,L|78:330,1,55.0000016784668,10|0,0:0|3:0,0:0:0:0:
49,376,245877,5,14,0:0:0:0:
161,380,246325,2,0,L|237:356,1,55.0000016784668,10|0,0:0|3:0,0:0:0:0:
269,368,246772,1,10,0:0:0:0:
229,264,247220,1,10,0:0:0:0:
315,193,247668,2,0,P|349:200|433:204,1,110.000003356934,10|14,0:0|0:0,0:0:0:0:
461,164,248339,1,0,3:0:0:0:
461,164,248563,2,0,P|450:131|411:56,1,110.000003356934,14|8,0:0|3:3,0:0:0:0:
309,40,249459,6,0,L|297:172,1,110.000003356934,14|10,0:0|0:0,0:0:0:0:
257,184,250131,1,0,3:0:0:0:
257,184,250354,2,0,L|266:293,1,110.000003356934,10|10,0:0|0:0,0:0:0:0:
309,328,251026,1,0,3:0:0:0:
309,328,251250,2,0,P|255:315|204:332,1,110.000003356934,10|10,0:0|0:0,0:0:0:0:
165,368,251922,1,0,3:0:0:0:
165,368,252145,1,10,0:0:0:0:
101,280,252593,1,10,0:0:0:0:
165,190,253041,6,0,L|277:200,1,110.000003356934,10|10,0:0|0:0,0:0:0:0:
321,228,253713,1,0,3:0:0:0:
321,228,253936,2,0,P|309:175|331:125,1,110.000003356934,10|10,0:0|0:0,0:0:0:0:
385,116,254608,1,0,3:0:0:0:
385,116,254832,2,0,P|421:155|427:209,1,110.000003356934,10|10,0:0|0:0,0:0:0:0:
417,264,255504,1,0,3:0:0:0:
417,264,255728,1,10,0:0:0:0:
317,312,256175,1,10,0:0:0:0:
273,208,256623,5,14,0:0:0:0:
165,190,257071,1,10,0:0:0:0:
95,274,257519,1,10,0:0:0:0:
203,292,257966,1,10,0:0:0:0:
165,190,258414,5,10,0:0:0:0:
250,122,258862,1,10,0:0:0:0:
340,182,259310,1,10,0:0:0:0:
310,286,259757,1,10,0:0:0:0:
219,225,260205,5,10,0:0:0:0:
250,122,260653,1,10,0:0:0:0:
147,91,261101,1,10,0:0:0:0:
116,194,261548,2,0,L|121:252,1,55.0000016784668,10|0,0:0|3:0,0:0:0:0:
107,302,261996,6,0,P|145:288|221:308,1,110.000003356934,14|8,0:0|0:3,0:0:0:0:
253,336,262668,1,4,0:2:0:0:
253,336,262892,2,0,L|307:329,1,55.0000016784668,0|0,1:0|1:0,0:0:0:0:
349,292,263339,2,0,L|403:285,1,55.0000016784668,2|2,0:0|0:0,0:0:0:0:
449,316,263787,5,6,0:0:0:0:
497,216,264239,1,6,0:0:0:0:
416,139,264691,1,6,0:0:0:0:
318,191,265143,2,0,L|257:184,1,55.0000016784668,6|0,0:0|3:0,0:0:0:0:
213,160,265595,5,6,0:0:0:0:
165,260,266041,1,6,0:0:0:0:
55,245,266487,1,6,0:0:0:0:
35,135,266933,1,6,0:0:0:0:
132,82,267379,6,0,P|165:84|253:84,1,110.000003356934,14|14,0:0|0:0,0:0:0:0:
265,192,268274,2,0,P|210:191|155:194,1,110.000003356934,14|12,0:0|0:0,0:0:0:0:
55,245,269170,5,14,0:0:0:0:
105,345,269617,2,0,L|177:336,1,55.0000016784668,8|8,3:0|0:0,0:0:0:0:
213,356,270065,2,0,L|285:347,1,55.0000016784668,8|8,3:2|0:0,0:0:0:0:
321,367,270513,2,0,L|393:358,1,55.0000016784668,8|4,0:0|3:0,0:0:0:0:
425,368,270967,6,0,B|413:312|441:272|441:272|473:228|469:176|469:176|409:180|385:148|385:148|429:100|417:44,1,400,6|2,0:0|0:0,0:0:0:0:
97,20,274549,6,0,B|112:66|65:124|65:124|128:138|172:105|172:105|194:146|251:166|251:166|166:187|129:228|129:228|61:188|-17:216,1,600,2|2,0:0|0:0,0:0:0:0:
193,280,278131,6,0,B|253:287|309:246|309:246|259:385|259:385|322:347|382:358,2,400,2|2|2,0:0|0:0|0:0,0:0:0:0:
256,192,281937,12,0,288877,0:0:0:0:
