osu file format v14

[General]
AudioFilename: audio.mp3
AudioLeadIn: 0
PreviewTime: 53591
Countdown: 0
SampleSet: Soft
StackLeniency: 0.4
Mode: 0
LetterboxInBreaks: 0
WidescreenStoryboard: 1

[Editor]
Bookmarks: 503,10615,20720,30832,40927,53558,63663,73757,80059,87670
DistanceSpacing: 1
BeatDivisor: 2
GridSize: 16
TimelineZoom: 2.699999

[Metadata]
Title:Redo (TV Size)
TitleUnicode:Redo (TV Size)
Artist:Suzuki Konomi
ArtistUnicode:鈴木このみ
Creator:fieryrage
Version:Wanpachi's Normal
Source:Re:ゼロから始める異世界生活
Tags:re:zero kara hajimeru isekai seikatsu rezero starting life in another world different from zero anime opening op japanese rock delis shirohamymommy flask wanpachi cycopton apo11o hooni glaceon
BeatmapID:2497127
BeatmapSetID:1193634

[Difficulty]
HPDrainRate:4
CircleSize:3
OverallDifficulty:4
ApproachRate:5
SliderMultiplier:1
SliderTickRate:1

[Events]
//Background and Video events
0,0,"rem.jpg",0,0
Video,-40,"when you die.mp4"
//Break Periods
//Storyboard Layer 0 (Background)
//Storyboard Layer 1 (Fail)
//Storyboard Layer 2 (Pass)
//Storyboard Layer 3 (Foreground)
//Storyboard Layer 4 (Overlay)
//Storyboard Sound Samples

[TimingPoints]
611,315.789473684211,4,2,0,50,1,0
611,-100,4,2,0,50,0,0
4874,319.148936170213,4,2,0,50,1,0
4874,-100,4,2,0,50,0,0
5671,315.789473684211,4,2,5,60,1,0
5671,-100,4,2,5,60,0,0
10723,-100,4,2,1,65,0,0
29986,318.302387267905,4,2,1,65,1,0
29986,-100,4,2,1,65,0,0
30940,329.67032967033,4,2,1,50,1,0
30940,-111.111111111111,4,2,1,50,0,0
31434,285.714285714286,4,2,1,50,1,0
31434,-111.111111111111,4,2,1,50,0,0
31862,363.636363636364,4,2,1,50,1,0
31862,-111.111111111111,4,2,1,50,0,0
32225,315.789473684211,4,2,1,50,1,0
32225,-111.111111111111,4,2,1,50,0,0
32540,333.333333333333,4,2,1,50,1,0
32540,-111.111111111111,4,2,1,50,0,0
32706,272.727272727273,4,2,1,50,1,0
32706,-124.223602484472,4,2,1,50,0,0
32978,372.670807453416,4,2,1,50,1,0
32978,-111.111111111111,4,2,1,50,0,0
33164,295.566502463054,4,2,1,50,1,0
33164,-111.111111111111,4,2,1,50,0,0
33459,329.67032967033,4,2,1,50,1,0
33459,-111.111111111111,4,2,1,50,0,0
33953,301.507537688442,4,2,1,50,1,0
33953,-111.111111111111,4,2,1,50,0,0
34254,315.789473684211,4,2,1,50,1,0
34254,-111.111111111111,4,2,1,50,0,0
35201,312.5,4,2,1,50,1,0
35201,-111.111111111111,4,2,1,50,0,0
35513,322.58064516129,4,2,1,65,1,0
35513,-111.111111111111,4,2,1,65,0,0
35674,314.13612565445,4,2,1,65,1,0
35674,-111.111111111111,4,2,1,65,0,0
35988,315.789473684211,4,2,1,65,1,0
35988,-100,4,2,1,65,0,0
36935,311.688311688312,4,2,1,65,1,0
36935,-100,4,2,1,65,0,0
37090,-101.112234580384,4,2,1,65,0,0
37246,315.789473684211,4,2,1,65,1,0
37246,-100,4,2,1,65,0,0
38509,314.13612565445,4,2,1,65,1,0
38509,-100,4,2,1,65,0,0
38823,301.507537688442,4,2,1,65,1,0
38823,-100,4,2,1,65,0,0
39124,319.148936170213,4,2,1,65,1,0
39124,-100,4,2,1,65,0,0
39762,318.302387267905,4,2,1,65,1,0
39762,-100,4,2,1,65,0,0
40398,-100,4,2,1,68,0,0
40716,-100,4,2,1,70,0,0
40876,-100,4,2,1,60,0,0
41035,324.324324324324,4,2,1,55,1,0
41035,-111.111111111111,4,2,1,55,0,0
41521,279.06976744186,4,2,1,55,1,0
41521,-111.111111111111,4,2,1,55,0,0
41800,461.538461538462,4,2,1,55,1,0
41800,-111.111111111111,4,2,1,55,0,0
42030,312.5,4,2,1,55,1,0
42030,-111.111111111111,4,2,1,55,0,0
42342,279.06976744186,4,2,1,55,1,0
42342,-111.111111111111,4,2,1,55,0,0
42621,329.67032967033,4,2,1,55,1,0
42621,-111.111111111111,4,2,1,55,0,0
42950,279.06976744186,4,2,1,55,1,0
42950,-111.111111111111,4,2,1,55,0,0
43089,394.736842105263,4,2,1,55,1,0
43089,-111.111111111111,4,2,1,55,0,0
43286,324.324324324324,4,2,1,55,1,0
43286,-111.111111111111,4,2,1,55,0,0
43610,272.727272727273,4,2,1,55,1,0
43610,-119.402985074627,4,2,1,55,0,0
43882,315.789473684211,4,2,1,55,1,0
43882,-111.111111111111,4,2,1,55,0,0
44671,361.44578313253,4,2,1,55,1,0
44671,-111.111111111111,4,2,1,55,0,0
44851,310.077519379845,4,2,1,57,1,0
44851,-111.111111111111,4,2,1,57,0,0
45161,-111.111111111111,4,2,1,53,0,0
45471,-111.111111111111,4,2,1,60,0,0
46091,315.789473684211,4,2,1,65,1,0
46091,-100,4,2,1,65,0,0
47192,-101.010101010101,4,2,1,65,0,0
47354,322.58064516129,4,2,1,65,1,0
47354,-100,4,2,1,65,0,0
47676,312.5,4,2,1,65,1,0
47676,-100,4,2,1,65,0,0
47988,317.460317460317,4,2,1,65,1,0
47988,-100,4,2,1,65,0,0
48622,313.31592689295,4,2,1,65,1,0
48622,-100,4,2,1,65,0,0
49248,307.692307692308,4,2,1,65,1,0
49248,-100,4,2,1,65,0,0
49709,-100,4,2,1,67,0,0
49863,324.324324324324,4,2,1,70,1,0
49863,-100,4,2,1,70,0,0
50187,-100,4,2,1,65,0,0
50511,-100,4,2,1,67,0,0
50835,308.483290488432,4,2,1,70,1,0
50835,-100,4,2,1,70,0,0
51143,315.789473684211,4,2,1,73,1,0
51143,-100,4,2,1,73,0,0
51300,303.030303030303,4,2,1,73,1,0
51300,-100,4,2,1,73,0,0
51603,315.789473684211,4,2,1,73,1,0
51603,-100,4,2,1,73,0,0
51760,326.086956521739,4,2,1,73,1,0
51760,-100,4,2,1,73,0,0
52086,321.71581769437,4,2,1,73,1,0
52086,-100,4,2,1,73,0,0
52407,-100,4,2,1,66,0,0
52729,304.568527918782,4,2,1,66,1,0
52729,-100,4,2,1,66,0,0
52881,-106.044538706257,4,2,1,66,0,0
53033,340.909090909091,4,2,1,66,1,0
53033,-100,4,2,1,66,0,0
53203,326.086956521739,4,2,1,66,1,0
53203,-100,4,2,1,66,0,0
53366,300,4,2,1,70,1,0
53366,-108.695652173913,4,2,1,70,0,0
53441,-100,4,2,1,60,0,0
53516,-100,4,2,1,50,0,0
53591,-100,4,2,1,40,0,0
53666,315.789473684211,4,2,1,75,1,1
53666,-100,4,2,1,75,0,1
59508,279.06976744186,4,2,1,75,1,1
59508,-100,4,2,1,75,0,1
59787,333.333333333333,4,2,1,75,1,1
59787,-100,4,2,1,75,0,1
60120,319.148936170213,4,2,1,75,1,1
60120,-100,4,2,1,75,0,1
60997,-99.2555831265509,4,2,1,75,0,1
61237,315.789473684211,4,2,1,75,1,1
61237,-100,4,2,1,75,0,1
62342,327.868852459016,4,2,1,75,1,1
62342,-100,4,2,1,75,0,1
62669,317.460317460317,4,2,1,75,1,1
62669,-100,4,2,1,75,0,1
62827,315.789473684211,4,2,1,75,1,1
62827,-100,4,2,1,75,0,1
63774,315.789473684211,4,2,1,80,1,1
63774,-100,4,2,1,80,0,1
67089,-100,4,2,1,75,0,1
67563,-100,4,2,1,80,0,1
68826,-100,4,2,1,70,0,0
71352,319.148936170213,4,2,1,70,1,0
71352,-100,4,2,1,70,0,0
71990,311.688311688312,4,2,1,70,1,0
71990,-100,4,2,1,70,0,0
72613,300,4,2,1,70,1,0
72613,-105.820105820106,4,2,1,70,0,0
72913,352.941176470588,4,2,1,70,1,0
72913,-100,4,2,1,70,0,0
73089,285.714285714286,4,2,1,70,1,0
73089,-100,4,2,1,70,0,0
73231,317.460317460317,4,2,1,70,1,0
73231,-100,4,2,1,70,0,0
73865,320.855614973262,4,2,1,70,1,0
73865,-100,4,2,1,70,0,0
74827,315.789473684211,4,2,1,70,1,0
74827,-100,4,2,1,70,0,0
75142,315.789473684211,4,2,1,70,1,0
75142,-100,4,2,1,70,0,0
76405,-99.304865938431,4,2,1,70,0,0
76720,310.880829015544,4,2,1,70,1,0
76720,-100,4,2,1,70,0,0
77341,306.122448979592,4,2,1,70,1,0
77341,-100,4,2,1,70,0,0
77647,315.789473684211,4,2,1,70,1,0
77647,-100,4,2,1,70,0,0
77962,333.333333333333,4,2,1,70,1,0
77962,-100,4,2,1,70,0,0
78295,303.030303030303,4,2,1,70,1,0
78295,-100,4,2,1,70,0,0
78598,315.789473684211,4,2,1,70,1,0
78598,-100,4,2,1,70,0,0
78913,307.692307692308,4,2,1,65,1,0
78913,-100,4,2,1,65,0,0
78989,-100,4,2,1,45,0,0
79143,-100,4,2,1,55,0,0
79220,-100,4,2,1,65,0,0
79451,-100,4,2,1,45,0,0
79682,333.333333333333,4,2,1,45,1,0
79682,-100,4,2,1,45,0,0
79765,-100,4,2,1,55,0,0
79848,319.148936170213,4,2,1,65,1,0
79848,-100,4,2,1,65,0,0
79927,-100,4,2,1,45,0,0
80007,-100,4,2,1,65,0,0
80167,324.324324324324,4,2,1,65,1,0
80167,-100,4,2,1,65,0,0
80653,-100,4,2,1,66,0,0
81139,315.789473684211,4,2,1,67,1,0
81139,-100,4,2,1,67,0,0
81612,307.692307692308,4,2,1,68,1,0
81612,-100,4,2,1,68,0,0
81919,315.789473684211,4,2,1,68,1,0
81919,-100,4,2,1,68,0,0
82076,-100,4,2,1,69,0,0
82234,324.324324324324,4,2,1,69,1,0
82234,-100,4,2,1,69,0,0
82396,-100,4,2,1,70,0,0
82720,315.789473684211,4,2,1,70,1,0
82720,-100,4,2,1,70,0,0
83193,-100,4,2,1,71,0,0
83509,309.278350515464,4,2,1,71,1,0
83509,-100,4,2,1,71,0,0
83663,310.880829015544,4,2,1,72,1,0
83663,-100,4,2,1,72,0,0
84129,-100,4,2,1,73,0,0
84284,329.67032967033,4,2,1,73,1,0
84284,-100,4,2,1,73,0,0
84613,304.568527918782,4,2,1,74,1,0
84613,-100,4,2,1,74,0,0
85222,322.58064516129,4,2,1,70,1,0
85222,-100,4,2,1,70,0,0
85867,-100,4,2,1,60,0,0
86351,-100,4,2,1,62,0,0
86512,316.622691292876,4,2,1,65,1,0
86512,-100,4,2,1,65,0,0
86670,-100,4,2,1,66,0,0
86828,-100,4,2,1,67,0,0
86986,-100,4,2,1,68,0,0
87145,-100,4,2,1,69,0,0
87303,-100,4,2,1,72,0,0
87778,315.789473684211,4,2,5,50,1,0
87778,-100,4,2,5,50,0,0
89041,-100,4,2,5,55,0,0

[Colours]
Combo1 : 57,203,215
Combo2 : 98,174,174
Combo3 : 138,138,138
Combo4 : 52,118,139

[HitObjects]
49,43,611,6,0,L|65:100,1,50,0|0,0:0|0:0,0:0:0:0:
151,137,1084,2,0,L|178:40,1,100,2|0,0:0|0:0,0:0:0:0:
219,12,1558,1,2,0:0:0:0:
302,67,1874,2,0,L|359:76,1,50,0|0,0:0|0:0,0:0:0:0:
449,62,2347,2,0,P|474:120|472:173,1,100,2|0,0:0|0:0,0:0:0:0:
451,200,2821,1,2,0:0:0:0:
375,265,3137,6,0,L|386:327,1,50,0|0,0:0|0:0,0:0:0:0:
304,375,3611,2,0,L|198:356,1,100,2|0,0:0|0:0,0:0:0:0:
157,372,4084,1,2,0:0:0:0:
68,325,4400,2,0,L|57:259,1,50,0|0,0:0|0:0,0:0:0:0:
32,180,4874,2,0,P|92:159|119:95,1,100,2|0,0:0|0:0,0:0:0:0:
98,82,5352,1,2,0:0:0:0:
180,24,5671,6,0,L|311:33,1,100,0|0,1:2|1:2,0:0:0:0:
318,61,6144,1,2,0:0:0:0:
318,61,6302,2,0,P|380:44|396:8,1,100,8|2,1:3|1:2,0:0:0:0:
492,40,6934,1,0,1:2:0:0:
453,132,7249,2,0,L|467:198,1,50,0|2,1:2|0:0,0:0:0:0:
498,218,7565,2,0,L|386:223,1,100,8|2,1:3|1:2,0:0:0:0:
357,314,8197,6,0,P|296:338|249:317,1,100,0|0,1:2|1:2,0:0:0:0:
228,294,8671,1,2,0:0:0:0:
228,294,8828,2,0,L|98:308,1,100,8|2,1:3|1:2,0:0:0:0:
28,294,9460,1,0,1:2:0:0:
57,198,9776,2,0,L|65:140,1,50,0|2,1:2|0:0,0:0:0:0:
89,104,10092,2,0,P|145:87|189:107,1,100,8|2,1:3|1:2,0:0:0:0:
278,74,10723,6,0,L|296:232,1,150,6|0,1:3|0:0,0:0:0:0:
304,272,11355,2,0,P|346:295|393:282,1,100,10|0,1:3|1:2,0:0:0:0:
483,236,11986,2,0,P|463:172|463:131,1,100,2|0,1:2|1:2,0:0:0:0:
457,39,12618,2,0,L|396:26,1,50,10|0,1:3|0:0,0:0:0:0:
372,64,12934,2,0,L|311:77,1,50,2|2,1:2|0:0,0:0:0:0:
287,39,13249,6,0,P|227:6|124:35,1,150,2|0,1:2|0:0,0:0:0:0:
114,54,13881,2,0,L|134:173,1,100,10|0,1:3|1:2,0:0:0:0:
59,223,14513,2,0,L|39:342,1,100,2|0,1:2|1:2,0:0:0:0:
77,356,14986,1,2,0:0:0:0:
77,356,15144,2,0,P|128:374|175:355,1,100,10|2,1:3|1:2,0:0:0:0:
318,340,15934,6,0,L|331:291,2,50,2|0|2,0:0|1:2|0:0,0:0:0:0:
343,384,16407,1,10,1:3:0:0:
442,374,16723,2,0,P|451:352|455:320,1,50,2|2,1:2|0:0,0:0:0:0:
459,276,17039,2,0,L|433:169,1,100,2|2,1:2|1:2,0:0:0:0:
449,130,17513,1,2,0:0:0:0:
449,130,17671,2,0,L|423:23,1,100,10|2,1:3|1:2,0:0:0:0:
329,5,18302,6,0,P|267:48|230:51,1,100,2|0,1:2|1:2,0:0:0:0:
149,19,18934,2,0,L|173:184,1,150,10|0,1:3|0:0,0:0:0:0:
205,202,19565,2,0,L|188:317,1,100,2|0,1:2|1:2,0:0:0:0:
123,375,20197,2,0,P|76:347|23:337,1,100,10|0,1:3|1:2,0:0:0:0:
67,243,20828,6,0,L|26:95,1,150,2|0,1:2|0:0,0:0:0:0:
2,54,21460,2,0,L|106:62,1,100,10|0,1:3|1:2,0:0:0:0:
197,30,22092,2,0,P|241:62|299:58,1,100,2|0,1:2|1:2,0:0:0:0:
385,62,22723,2,0,L|407:128,1,50,10|2,1:3|0:0,0:0:0:0:
445,131,23039,1,0,1:2:0:0:
414,225,23355,6,0,P|338:281|292:254,1,150,2|0,1:2|0:0,0:0:0:0:
252,239,23986,2,0,L|234:357,1,100,10|0,1:3|1:2,0:0:0:0:
136,346,24618,2,0,P|98:306|97:244,1,100,2|0,1:2|1:2,0:0:0:0:
38,178,25249,1,10,1:3:0:0:
92,94,25565,1,2,1:2:0:0:
240,114,26039,6,0,L|243:177,2,50,0|2|2,0:0|1:2|0:0,0:0:0:0:
279,83,26513,2,0,P|335:64|390:67,1,100,10|2,1:3|1:2,0:0:0:0:
419,98,26986,1,2,0:0:0:0:
419,98,27144,1,2,1:2:0:0:
393,195,27460,2,0,L|396:258,1,50,2|0,1:2|0:0,0:0:0:0:
430,280,27776,2,0,L|322:274,1,100,10|2,1:3|1:2,0:0:0:0:
245,328,28407,6,0,P|175:286|124:288,1,100,2|0,1:2|1:2,0:0:0:0:
78,223,29039,2,0,P|125:165|143:93,1,150,10|0,1:3|0:0,0:0:0:0:
139,43,29671,1,2,1:2:0:0:
231,8,29986,1,2,1:2:0:0:
315,61,30304,2,0,L|322:166,1,100,10|0,1:3|1:2,0:0:0:0:
268,229,30940,5,2,0:0:0:0:
182,201,31269,1,0,0:0:0:0:
182,201,31434,2,0,B|157:242|157:242|177:329,1,134.999995880127,2|2,0:0|0:0,0:0:0:0:
269,373,32225,2,0,L|381:358,1,89.9999972534181,2|2,0:0|0:0,0:0:0:0:
412,357,32706,2,0,P|464:313|465:234,1,134.999995880127,2|0,0:0|0:0,0:0:0:0:
472,169,33459,5,2,0:0:0:0:
399,116,33788,1,0,0:0:0:0:
399,116,33953,2,0,L|309:144,1,89.9999972534181,2|2,0:0|0:0,0:0:0:0:
195,72,34727,2,0,P|150:69|112:93,1,89.9999972534181,2|2,0:0|0:0,0:0:0:0:
119,138,35201,1,2,0:0:0:0:
67,207,35513,1,2,1:2:0:0:
67,207,35674,1,12,0:0:0:0:
104,299,35988,6,0,L|162:302,1,50,0|0,1:2|1:2,0:0:0:0:
190,335,36303,2,0,L|292:325,1,100,10|2,0:2|1:2,0:0:0:0:
372,266,36935,1,10,0:2:0:0:
372,266,37090,2,0,P|321:206|322:162,1,98.999999697876,2|2,0:2|1:2,0:0:0:0:
245,121,37719,1,2,0:2:0:0:
245,121,37877,2,0,L|253:61,2,50,2|2|8,1:2|1:2|0:2,0:0:0:0:
148,91,38509,6,0,L|82:80,1,50,0|0,1:2|1:2,0:0:0:0:
45,75,38823,2,0,P|75:142|79:187,1,100,10|2,0:2|1:2,0:0:0:0:
11,240,39443,1,10,0:2:0:0:
89,302,39762,2,0,B|139:283|189:287|189:287,1,100,6|12,1:2|0:2,0:0:0:0:
225,255,40239,1,0,1:2:0:0:
225,255,40398,2,0,L|215:184,1,50,14|0,0:2|1:2,0:0:0:0:
171,186,40716,1,12,0:2:0:0:
129,107,41035,5,2,0:0:0:0:
192,43,41359,1,2,0:0:0:0:
192,43,41521,2,0,P|251:51|293:87,1,89.9999972534181,2|0,0:0|0:0,0:0:0:0:
316,120,42030,1,2,0:0:0:0:
414,101,42342,2,0,L|392:203,1,89.9999972534181,2|0,0:0|0:0,0:0:0:0:
469,264,42950,1,2,0:0:0:0:
408,335,43286,1,2,0:0:0:0:
313,303,43610,6,0,B|258:281|216:303|237:325|193:346|139:325,1,179.999994506836,2|0,0:0|0:0,0:0:0:0:
54,335,44513,1,2,0:0:0:0:
36,238,44851,2,0,P|51:176|74:142,1,89.9999972534181,2|0,0:0|0:0,0:0:0:0:
95,69,45471,2,0,P|158:85|192:107,1,89.9999972534181,2|0,0:0|0:0,0:0:0:0:
274,124,46091,6,0,L|297:62,1,50,4|0,1:2|1:2,0:0:0:0:
306,30,46406,2,0,L|408:20,1,100,10|2,0:2|1:2,0:0:0:0:
479,84,47038,1,10,0:2:0:0:
479,84,47196,2,0,P|447:156|447:193,1,100,2|2,0:2|1:2,0:0:0:0:
387,258,47832,1,2,0:0:0:0:
387,258,47988,2,0,L|393:320,2,50,2|2|8,1:2|1:2|0:2,0:0:0:0:
307,195,48622,6,0,P|255:171|200:189,1,100,2|10,1:2|0:2,0:0:0:0:
142,251,49248,2,0,P|90:275|35:257,1,100,2|2,1:2|1:2,0:0:0:0:
18,177,49863,2,0,L|59:58,1,100,6|12,1:2|0:0,0:0:0:0:
62,38,50349,1,0,1:0:0:0:
62,38,50511,2,0,L|126:33,1,50,14|0,0:0|1:0,0:0:0:0:
160,54,50835,1,12,0:0:0:0:
250,18,51143,5,8,1:2:0:0:
250,18,51300,2,0,P|295:49|355:45,1,100,10|10,1:2|1:2,0:0:0:0:
381,28,51760,1,10,1:2:0:0:
465,84,52086,2,0,P|445:127|440:145,1,50,10|4,1:2|1:2,0:0:0:0:
388,212,52568,2,0,P|408:255|413:273,1,50,8|2,0:0|1:2,0:0:0:0:
357,330,53033,1,8,0:0:0:0:
255,339,53366,1,12,0:0:0:0:
212,254,53666,6,0,P|194:190|215:150,1,100,6|10,1:2|0:0,0:0:0:0:
249,137,54139,1,2,0:0:0:0:
206,46,54455,1,2,1:2:0:0:
115,94,54771,2,0,L|14:85,1,100,6|2,1:2|1:2,0:0:0:0:
11,185,55402,2,0,L|110:193,1,100,2|2,0:0|1:2,0:0:0:0:
154,170,55876,1,8,0:0:0:0:
215,249,56192,6,0,L|270:264,1,50,2|0,1:2|1:0,0:0:0:0:
308,239,56508,2,0,L|363:224,1,50,10|0,0:0|0:0,0:0:0:0:
401,247,56823,2,0,L|409:306,2,50,2|0|10,1:2|1:0|0:0,0:0:0:0:
483,189,57455,1,2,1:2:0:0:
483,189,57613,2,0,P|494:127|477:84,1,100,2|2,1:2|0:0,0:0:0:0:
459,48,58087,1,0,1:0:0:0:
362,22,58402,1,12,0:0:0:0:
292,93,58718,6,0,L|301:150,1,50,4|0,1:3|1:0,0:0:0:0:
261,174,59034,2,0,P|193:183|158:164,1,100,6|2,0:3|0:0,0:0:0:0:
142,66,59647,1,2,0:0:0:0:
142,66,59787,2,0,L|26:73,1,100,6|0,1:2|1:0,0:0:0:0:
13,108,60279,1,8,0:0:0:0:
65,193,60598,2,0,P|75:259|69:313,1,100,2|14,1:2|0:0,0:0:0:0:
110,326,61077,6,0,P|165:349|202:322,1,100,2|8,0:0|0:0,0:0:0:0:
215,285,61552,1,8,0:0:0:0:
310,256,61868,2,0,L|376:272,1,50,8|8,0:0|0:3,0:0:0:0:
399,293,62184,1,0,1:0:0:0:
399,293,62342,2,0,P|434:243|425:183,1,100,4|2,1:2|1:2,0:0:0:0:
463,165,62827,1,10,0:0:0:0:
380,109,63142,2,0,L|386:48,2,50,6|10|8,1:3|0:3|1:2,0:0:0:0:
289,151,63774,6,0,P|230:131|180:135,1,100,6|10,1:2|0:0,0:0:0:0:
161,171,64247,1,2,1:2:0:0:
213,256,64563,2,0,P|193:291|183:314,1,50,2|8,1:2|0:0,0:0:0:0:
166,344,64879,2,0,L|35:321,1,100,2|2,1:2|1:2,0:0:0:0:
5,248,65510,2,0,P|50:189|48:135,1,100,2|2,1:2|1:2,0:0:0:0:
35,118,65984,1,8,0:0:0:0:
120,65,66300,6,0,L|198:68,1,50,10|0,0:0|1:0,0:0:0:0:
211,95,66616,2,0,L|289:98,1,50,10|0,0:0|1:0,0:0:0:0:
299,65,66931,2,0,L|302:-13,2,50,10|10|10,0:0|0:3|1:2,0:0:0:0:
359,145,67563,2,0,P|428:151|454:126,1,100,6|0,1:2|1:0,0:0:0:0:
496,119,68037,2,0,L|488:238,1,100,10|0,0:0|1:0,0:0:0:0:
508,265,68510,1,10,0:0:0:0:
424,320,68826,6,0,P|368:272|263:282,1,150,6|0,1:3|0:0,0:0:0:0:
266,310,69458,1,12,0:0:0:0:
173,348,69774,1,4,0:3:0:0:
95,284,70089,2,0,L|109:128,1,150,6|0,1:3|1:0,0:0:0:0:
110,84,70721,2,0,P|171:51|232:64,1,100,12|0,0:0|1:0,0:0:0:0:
239,83,71195,1,10,0:0:0:0:
239,83,71352,6,0,L|406:70,1,150,6|0,1:2|1:0,0:0:0:0:
432,45,71990,1,12,0:0:0:0:
495,122,72301,1,8,1:2:0:0:
426,192,72613,2,0,P|398:281|386:350,1,150,6|0,1:2|1:0,0:0:0:0:
354,366,73231,1,8,0:0:0:0:
268,314,73548,2,0,L|215:304,1,50,8|0,0:0|0:0,0:0:0:0:
181,337,73865,6,0,L|205:177,1,150,6|0,1:2|1:0,0:0:0:0:
248,168,74506,2,0,L|230:48,1,100,12|0,0:0|0:0,0:0:0:0:
139,36,75142,2,0,P|61:84|68:166,1,150,6|0,1:2|1:0,0:0:0:0:
93,168,75773,2,0,L|72:282,1,100,8|12,0:0|0:0,0:0:0:0:
68,316,76247,1,2,1:2:0:0:
68,316,76405,6,0,P|144:289|185:305,1,100.700003003975,6|0,1:3|1:0,0:0:0:0:
186,335,76875,1,8,0:0:0:0:
329,285,77341,2,0,L|385:299,1,50,8|0,0:0|1:0,0:0:0:0:
420,318,77647,1,8,0:0:0:0:
487,252,77962,2,0,L|475:197,1,50,6|8,1:3|0:0,0:0:0:0:
428,176,78295,2,0,P|472:115|454:62,1,100,2|14,0:3|0:0,0:0:0:0:
381,42,78913,6,0,L|255:60,1,100,14|8,1:3|0:0,0:0:0:0:
251,95,79374,2,0,P|188:68|177:21,1,100,8|8,1:3|0:0,0:0:0:0:
127,26,79848,1,8,1:3:0:0:
75,109,80167,6,0,L|18:106,2,50,6|2|2,1:2|0:0|1:2,0:0:0:0:
115,137,80653,2,0,P|136:194|133:235,1,100,14|0,0:0|1:0,0:0:0:0:
104,274,81139,2,0,L|47:277,2,50,14|2|2,0:0|1:2|1:2,0:0:0:0:
141,309,81612,1,14,0:0:0:0:
232,275,81919,1,0,1:0:0:0:
232,275,82076,1,14,0:0:0:0:
306,339,82396,1,14,0:0:0:0:
403,308,82720,6,0,L|460:311,2,50,14|2|2,0:0|1:2|1:2,0:0:0:0:
373,267,83193,2,0,L|390:135,1,100,14|0,0:0|1:0,0:0:0:0:
410,124,83663,2,0,L|467:121,2,50,14|2|2,0:0|1:2|1:2,0:0:0:0:
379,84,84129,1,14,0:0:0:0:
290,49,84448,1,2,1:2:0:0:
290,49,84613,2,0,P|234:69|170:58,1,100,12|0,0:0|0:0,0:0:0:0:
122,128,85222,6,0,P|167:212|62:245,1,200,6|2,1:2|0:0,0:0:0:0:
227,329,86351,1,0,1:0:0:0:
227,329,86512,2,0,L|316:318,1,50,10|8,1:3|0:3,0:0:0:0:
320,346,86828,2,0,L|409:335,1,50,8|8,0:3|0:3,0:0:0:0:
402,301,87145,1,10,1:3:0:0:
402,301,87303,1,12,1:2:0:0:
488,178,87778,6,0,L|481:123,1,50,0|0,0:0|0:0,0:0:0:0:
414,54,88251,2,0,P|350:72|322:126,1,100,2|0,0:0|0:0,0:0:0:0:
321,149,88725,1,2,0:0:0:0:
321,149,88883,1,2,0:0:0:0:
