osu file format v14

[General]
AudioFilename: audio.mp3
AudioLeadIn: 0
PreviewTime: 53591
Countdown: 0
SampleSet: Soft
StackLeniency: 0.4
Mode: 0
LetterboxInBreaks: 0
WidescreenStoryboard: 1

[Editor]
DistanceSpacing: 0.7
BeatDivisor: 4
GridSize: 4
TimelineZoom: 1.8

[Metadata]
Title:Redo (TV Size)
TitleUnicode:Redo (TV Size)
Artist:Suzuki Konomi
ArtistUnicode:鈴木このみ
Creator:fieryrage
Version:SMM's Extra
Source:Re:ゼロから始める異世界生活
Tags:re:zero kara hajimeru isekai seikatsu rezero starting life in another world different from zero anime opening op japanese rock delis shirohamymommy flask wanpachi cycopton apo11o hooni glaceon
BeatmapID:2489909
BeatmapSetID:1193634

[Difficulty]
HPDrainRate:6
CircleSize:4
OverallDifficulty:8.5
ApproachRate:9.2
SliderMultiplier:2.1
SliderTickRate:1

[Events]
//Background and Video events
0,0,"rem.jpg",0,0
Video,-40,"when you die.mp4"
//Break Periods
2,31140,34157
//Storyboard Layer 0 (Background)
//Storyboard Layer 1 (Fail)
//Storyboard Layer 2 (Pass)
//Storyboard Layer 3 (Foreground)
//Storyboard Layer 4 (Overlay)
//Storyboard Sound Samples

[TimingPoints]
611,315.789473684211,4,2,0,50,1,0
611,-100,4,2,0,50,0,0
768,-303.030303030303,4,2,0,50,0,0
1005,-100,4,2,0,50,0,0
2032,-303.030303030303,4,2,0,50,0,0
2347,-100,4,2,0,50,0,0
3295,-303.030303030303,4,2,0,50,0,0
3611,-100,4,2,0,50,0,0
4558,-303.030303030303,4,2,0,50,0,0
4874,319.148936170213,4,2,0,50,1,0
4874,-100,4,2,0,50,0,0
5671,315.789473684211,4,2,5,60,1,0
5671,-200,4,2,5,60,0,0
6302,-133.333333333333,4,2,5,60,0,0
7881,-250,4,2,5,60,0,0
8355,-133.333333333333,4,2,5,60,0,0
9302,-100,4,2,5,60,0,0
9618,-133.333333333333,4,2,5,60,0,0
10092,-100,4,2,5,60,0,0
10407,-83.3333333333333,4,2,5,60,0,0
10723,-166.666666666667,4,2,1,65,0,0
11355,-250.000000000001,4,2,1,65,0,0
11986,-500.000000000003,4,2,1,65,0,0
13881,-250.000000000001,4,2,1,65,0,0
14513,-166.666666666667,4,2,1,65,0,0
15144,-76.9230769230769,4,2,1,65,0,0
17039,-333.333333333333,4,2,1,65,0,0
17355,-166.666666666667,4,2,1,65,0,0
17671,-100,4,2,1,65,0,0
18302,-125,4,2,1,65,0,0
20828,-250,4,2,1,65,0,0
21460,-142.857142857143,4,2,1,65,0,0
23986,-111.111111111111,4,2,1,65,0,0
28092,-142.857142857143,4,2,1,65,0,0
28407,-111.111111111111,4,2,1,65,0,0
29039,-142.857142857143,4,2,1,65,0,0
29671,-200,4,2,1,65,0,0
29986,318.302387267905,4,2,1,65,1,0
29986,-200,4,2,1,65,0,0
30304,-333.333333333333,4,2,1,65,0,0
30940,329.67032967033,4,2,1,50,1,0
30940,-333.333333333333,4,2,1,50,0,0
31434,285.714285714286,4,2,1,50,1,0
31434,-333.333333333333,4,2,1,50,0,0
31862,363.636363636364,4,2,1,50,1,0
31862,-333.333333333333,4,2,1,50,0,0
32225,315.789473684211,4,2,1,50,1,0
32225,-333.333333333333,4,2,1,50,0,0
32540,333.333333333333,4,2,1,50,1,0
32540,-333.333333333333,4,2,1,50,0,0
32706,272.727272727273,4,2,1,50,1,0
32706,-333.333333333333,4,2,1,50,0,0
32978,372.670807453416,4,2,1,50,1,0
32978,-333.333333333333,4,2,1,50,0,0
33164,295.566502463054,4,2,1,50,1,0
33164,-100,4,2,1,50,0,0
33459,329.67032967033,4,2,1,50,1,0
33459,-333.333333333333,4,2,1,50,0,0
33953,301.507537688442,4,2,1,50,1,0
33953,-333.333333333333,4,2,1,50,0,0
34254,315.789473684211,4,2,1,50,1,0
34254,-333.333333333333,4,2,1,50,0,0
35201,312.5,4,2,1,50,1,0
35201,-333.333333333333,4,2,1,50,0,0
35513,322.58064516129,4,2,1,65,1,0
35513,-100,4,2,1,65,0,0
35674,314.13612565445,4,2,1,65,1,0
35674,-83.3333333333333,4,2,1,65,0,0
35988,315.789473684211,4,2,1,65,1,0
35988,-83.3333333333333,4,2,1,65,0,0
36303,-100,4,2,1,65,0,0
36935,311.688311688312,4,2,1,65,1,0
36935,-83.3333333333333,4,2,1,65,0,0
37246,315.789473684211,4,2,1,65,1,0
37246,-83.3333333333333,4,2,1,65,0,0
37719,-166.666666666667,4,2,1,65,0,0
38509,314.13612565445,4,2,1,65,1,0
38509,-100,4,2,1,65,0,0
38823,301.507537688442,4,2,1,65,1,0
38823,-71.4285714285714,4,2,1,65,0,0
39124,319.148936170213,4,2,1,65,1,0
39124,-71.4285714285714,4,2,1,65,0,0
39762,318.302387267905,4,2,1,65,1,0
39762,-100,4,2,1,65,0,0
40080,-83.3333333333333,4,2,1,65,0,0
40398,-83.3333333333333,4,2,1,68,0,0
40716,-83.3333333333333,4,2,1,70,0,0
40876,-62.5,4,2,1,60,0,0
41035,324.324324324324,4,2,1,55,1,0
41035,-142.857142857143,4,2,1,55,0,0
41521,279.06976744186,4,2,1,55,1,0
41521,-250,4,2,1,55,0,0
41800,461.538461538462,4,2,1,55,1,0
41800,-250,4,2,1,55,0,0
42030,312.5,4,2,1,55,1,0
42030,-250,4,2,1,55,0,0
42342,279.06976744186,4,2,1,55,1,0
42342,-537.634408602151,4,2,1,55,0,0
42621,329.67032967033,4,2,1,55,1,0
42621,-100,4,2,1,55,0,0
42868,-100,4,2,2,5,0,0
42950,279.06976744186,4,2,1,55,1,0
42950,-161.290322580645,4,2,1,55,0,0
43089,394.736842105263,4,2,1,55,1,0
43089,-100,4,2,1,55,0,0
43187,-100,4,2,2,5,0,0
43286,324.324324324324,4,2,1,55,1,0
43286,-111.111111111111,4,2,1,55,0,0
43529,-111.111111111111,4,2,2,5,0,0
43610,272.727272727273,4,2,1,55,1,0
43610,-106.382978723404,4,2,1,55,0,0
43882,315.789473684211,4,2,1,55,1,0
43882,-100,4,2,1,55,0,0
43960,-100,4,2,2,5,0,0
44197,-100,4,2,1,55,0,0
44671,361.44578313253,4,2,1,55,1,0
44671,-100,4,2,1,55,0,0
44851,310.077519379845,4,2,1,57,1,0
44851,-1000,4,2,1,57,0,0
45161,-100,4,2,1,53,0,0
45465,-100,4,2,1,53,0,0
45471,-100,4,2,1,60,0,0
45548,-100,4,2,2,5,0,0
46091,315.789473684211,4,2,1,65,1,0
46091,-100,4,2,1,65,0,0
46564,-100,4,2,1,65,0,0
47196,-200,4,2,1,65,0,0
47354,322.58064516129,4,2,1,65,1,0
47354,-200,4,2,1,65,0,0
47676,312.5,4,2,1,65,1,0
47676,-200,4,2,1,65,0,0
47988,317.460317460317,4,2,1,65,1,0
47988,-100,4,2,1,65,0,0
48622,313.31592689295,4,2,1,65,1,0
48622,-100,4,2,1,65,0,0
48778,-66.6666666666667,4,2,1,65,0,0
49248,307.692307692308,4,2,1,65,1,0
49248,-66.6666666666667,4,2,1,65,0,0
49709,-66.6666666666667,4,2,1,67,0,0
49863,324.324324324324,4,2,1,70,1,0
49863,-58.8235294117647,4,2,1,70,0,0
50187,-100,4,2,1,65,0,0
50511,-100,4,2,1,67,0,0
50515,-58.8235294117647,4,2,1,67,0,0
50835,308.483290488432,4,2,1,70,1,0
50835,-100,4,2,1,70,0,0
51143,315.789473684211,4,2,1,73,1,0
51143,-50,4,2,1,73,0,0
51300,303.030303030303,4,2,1,73,1,0
51300,-150.01500150015,4,2,1,73,0,0
51603,315.789473684211,4,2,1,73,1,0
51603,-50,4,2,1,73,0,0
51760,326.086956521739,4,2,1,73,1,0
51760,-150.01500150015,4,2,1,73,0,0
52086,321.71581769437,4,2,1,73,1,0
52086,-50,4,2,1,73,0,0
52246,-100,4,2,1,73,0,0
52407,-100,4,2,1,66,0,0
52488,-83.3333333333333,4,2,1,66,0,0
52729,304.568527918782,4,2,1,66,1,0
52729,-83.3333333333333,4,2,1,66,0,0
53033,340.909090909091,4,2,1,66,1,0
53033,-245.098039215686,4,2,1,66,0,0
53203,326.086956521739,4,2,1,66,1,0
53203,-100,4,2,1,66,0,0
53366,300,4,2,1,70,1,0
53366,-66.6666666666667,4,2,1,70,0,0
53441,-100,4,2,1,60,0,0
53516,-50,4,2,1,50,0,0
53591,-50,4,2,1,40,0,0
53666,315.789473684211,4,2,1,75,1,1
53666,-76.9230769230769,4,2,1,75,0,1
53981,-90.9090909090909,4,2,1,75,0,1
54139,-71.4285714285714,4,2,1,75,0,1
55087,-83.3333333333333,4,2,1,75,0,1
56034,-100,4,2,1,75,0,1
57534,-58.8235294117647,4,2,1,75,0,1
58718,-66.6666666666667,4,2,1,75,0,1
58876,-200,4,2,1,75,0,1
59192,-50,4,2,1,75,0,1
59508,279.06976744186,4,2,1,75,1,1
59508,-50,4,2,1,75,0,1
59787,333.333333333333,4,2,1,75,1,1
59787,-76.9230769230769,4,2,1,75,0,1
60120,319.148936170213,4,2,1,75,1,1
60120,-76.9230769230769,4,2,1,75,0,1
60279,-100,4,2,1,75,0,1
60598,-90.9090909090909,4,2,1,75,0,1
61237,315.789473684211,4,2,1,75,1,1
61237,-66.6666666666667,4,2,1,75,0,1
61552,-200,4,2,1,75,0,1
61710,-111.111111111111,4,2,1,75,0,1
62026,-66.6666666666667,4,2,1,75,0,1
62184,-80,4,2,1,75,0,1
62342,327.868852459016,4,2,1,75,1,1
62342,-333.333333333333,4,2,1,75,0,1
62669,317.460317460317,4,2,1,75,1,1
62669,-333.333333333333,4,2,1,75,0,1
62827,315.789473684211,4,2,1,75,1,1
62827,-333.333333333333,4,2,1,75,0,1
62984,-50,4,2,1,75,0,1
63458,-50,4,2,1,75,0,0
63774,315.789473684211,4,2,1,80,1,1
63774,-50,4,2,1,80,0,1
64247,-55.5555555555556,4,2,1,80,0,1
64879,-58.8235294117647,4,2,1,80,0,1
65037,-200,4,2,1,80,0,1
65195,-62.5,4,2,1,80,0,1
65352,-142.857142857143,4,2,1,80,0,1
65510,-66.6666666666667,4,2,1,80,0,1
65668,-111.111111111111,4,2,1,80,0,1
65826,-71.4285714285714,4,2,1,80,0,1
65984,-55.5555555555556,4,2,1,80,0,1
67089,-55.5555555555556,4,2,1,75,0,1
67563,-55.5555555555556,4,2,1,80,0,1
67879,-58.8235294117647,4,2,1,80,0,1
68037,-90.9090909090909,4,2,1,80,0,1
68352,-62.5,4,2,1,80,0,1
68510,-52.6315789473684,4,2,1,80,0,1
68826,-52.6315789473684,4,2,1,70,0,0
69458,-83.3333333333333,4,2,1,70,0,0
69774,-142.857142857143,4,2,1,70,0,0
70721,-62.5,4,2,1,70,0,0
71037,-58.8235294117647,4,2,1,70,0,0
71352,319.148936170213,4,2,1,70,1,0
71352,-58.8235294117647,4,2,1,70,0,0
71990,311.688311688312,4,2,1,70,1,0
71990,-50,4,2,1,70,0,0
72613,300,4,2,1,70,1,0
72613,-100,4,2,1,70,0,0
72913,352.941176470588,4,2,1,70,1,0
72913,-100,4,2,1,70,0,0
73089,285.714285714286,4,2,1,70,1,0
73089,-100,4,2,1,70,0,0
73231,317.460317460317,4,2,1,70,1,0
73231,-111.111111111111,4,2,1,70,0,0
73865,320.855614973262,4,2,1,70,1,0
73865,-100,4,2,1,70,0,0
74185,-249.999999999999,4,2,1,70,0,0
74506,-100,4,2,1,70,0,0
74827,315.789473684211,4,2,1,70,1,0
74827,-100,4,2,1,70,0,0
75142,315.789473684211,4,2,1,70,1,0
75142,-83.3333333333333,4,2,1,70,0,0
76405,-66.6666666666667,4,2,1,70,0,0
76720,310.880829015544,4,2,1,70,1,0
76720,-55.5555555555556,4,2,1,70,0,0
76875,-66.6666666666667,4,2,1,70,0,0
77186,-55.5555555555556,4,2,1,70,0,0
77341,306.122448979592,4,2,1,70,1,0
77341,-100,4,2,1,70,0,0
77647,315.789473684211,4,2,1,70,1,0
77647,-200,4,2,1,70,0,0
77962,333.333333333333,4,2,1,70,1,0
77962,-200,4,2,1,70,0,0
78128,-194.174757281553,4,2,1,70,0,0
78295,303.030303030303,4,2,1,70,1,0
78295,-200,4,2,1,70,0,0
78598,315.789473684211,4,2,1,70,1,0
78598,-200,4,2,1,70,0,0
78913,307.692307692308,4,2,1,65,1,0
78913,-100,4,2,1,65,0,0
78989,-100,4,2,1,45,0,0
79143,-100,4,2,1,55,0,0
79220,-100,4,2,1,65,0,0
79451,-100,4,2,1,45,0,0
79682,333.333333333333,4,2,1,45,1,0
79682,-100,4,2,1,45,0,0
79765,-100,4,2,1,55,0,0
79848,319.148936170213,4,2,1,65,1,0
79848,-100,4,2,1,65,0,0
79927,-100,4,2,1,45,0,0
80007,-100,4,2,1,65,0,0
80167,324.324324324324,4,2,1,65,1,0
80167,-100,4,2,1,65,0,0
80653,-100,4,2,1,66,0,0
81139,315.789473684211,4,2,1,67,1,0
81139,-100,4,2,1,67,0,0
81612,307.692307692308,4,2,1,68,1,0
81612,-100,4,2,1,68,0,0
81919,315.789473684211,4,2,1,68,1,0
81919,-100,4,2,1,68,0,0
82076,-58.8235294117647,4,2,1,69,0,0
82234,324.324324324324,4,2,1,69,1,0
82234,-100,4,2,1,69,0,0
82396,-52.6315789473684,4,2,1,70,0,0
82720,315.789473684211,4,2,1,70,1,0
82720,-100,4,2,1,70,0,0
83193,-100,4,2,1,71,0,0
83509,309.278350515464,4,2,1,71,1,0
83509,-100,4,2,1,71,0,0
83663,310.880829015544,4,2,1,72,1,0
83663,-100,4,2,1,72,0,0
84129,-100,4,2,1,73,0,0
84284,329.67032967033,4,2,1,73,1,0
84284,-100,4,2,1,73,0,0
84613,304.568527918782,4,2,1,74,1,0
84613,-76.9230769230769,4,2,1,74,0,0
85222,322.58064516129,4,2,1,70,1,0
85222,-166.666666666667,4,2,1,70,0,0
85867,-166.666666666667,4,2,1,60,0,0
86351,-100,4,2,1,62,0,0
86512,316.622691292876,4,2,1,65,1,0
86512,-50,4,2,1,65,0,0
86670,-52.6315789473684,4,2,1,66,0,0
86828,-55.5555555555556,4,2,1,67,0,0
86986,-58.8235294117647,4,2,1,68,0,0
87145,-62.5,4,2,1,69,0,0
87303,-500,4,2,1,72,0,0
87778,315.789473684211,4,2,5,50,1,0
87778,-100,4,2,5,50,0,0
87935,-300.0300030003,4,2,5,50,0,0
88409,-66.6666666666667,4,2,5,50,0,0
89041,-1000,4,2,5,55,0,0
89120,-1000,4,2,2,5,0,0

[Colours]
Combo1 : 57,203,215
Combo2 : 98,174,174
Combo3 : 138,138,138
Combo4 : 52,118,139

[HitObjects]
64,124,611,6,0,L|76:192,1,52.5,0|0,0:0|0:0,0:0:0:0:
140,112,768,6,0,L|152:176,1,51.9749998413849,0|0,0:0|0:0,0:0:0:0:
244,304,1084,6,0,B|276:260|280:200|280:200|260:228|236:236,1,157.5,2|0,0:0|0:0,0:0:0:0:
208,248,1400,5,0,0:0:0:0:
288,260,1558,1,2,0:0:0:0:
360,224,1716,1,2,0:0:0:0:
200,348,1874,6,0,P|180:360|152:364,1,52.5,0|0,0:0|0:0,0:0:0:0:
132,288,2032,6,0,P|153:276|180:272,1,51.9749998413849,0|0,0:0|0:0,0:0:0:0:
28,364,2347,6,0,B|60:312|56:252|56:252|28:220,1,157.5,2|0,0:0|0:0,0:0:0:0:
16,260,2663,5,0,0:0:0:0:
120,216,2821,1,2,0:0:0:0:
152,136,2979,1,2,0:0:0:0:
328,52,3137,6,0,B|348:72|348:72|340:100,1,52.5,0|0,0:0|0:0,0:0:0:0:
268,116,3295,6,0,B|250:97|250:97|256:68,1,51.9749998413849,0|0,0:0|0:0,0:0:0:0:
332,276,3611,6,0,B|288:276|264:244|264:244|288:276|272:324,1,157.5,2|0,0:0|0:0,0:0:0:0:
292,336,3926,6,0,L|268:284,1,52.5,0|0,0:0|0:0,0:0:0:0:
208,180,4084,6,0,P|184:200|152:200,1,52.5,2|0,0:0|0:0,0:0:0:0:
104,248,4242,2,0,P|76:240|48:208,1,52.5,2|0,0:0|0:0,0:0:0:0:
288,48,4400,6,0,B|292:36|292:36|320:44|320:44|317:57,1,52.5,0|0,0:0|0:0,0:0:0:0:
304,127,4558,6,0,B|301:139|301:139|272:131|272:131|275:118,1,51.9749998413849,0|0,0:0|0:0,0:0:0:0:
416,52,4874,6,0,B|440:84|432:108|432:108|444:136|436:156|436:156|420:132|388:132,1,157.5,2|0,0:0|0:0,0:0:0:0:
380,144,5193,2,0,P|360:164|356:188,1,52.5,0|0,0:0|0:0,0:0:0:0:
372,356,5352,6,0,P|388:336|396:304,1,52.5,2|0,0:0|0:0,0:0:0:0:
312,208,5512,2,0,P|319:241|339:269,1,52.5,2|0,0:0|0:0,0:0:0:0:
224,112,5671,6,0,L|196:120,1,26.25,0|0,1:2|0:0,0:0:0:0:
128,140,5828,2,0,L|100:148,1,26.25,0|0,0:0|0:0,0:0:0:0:
224,112,6144,2,0,L|200:148,1,26.25,2|0,0:0|0:0,0:0:0:0:
128,140,6302,6,0,L|92:212,1,78.75,8|0,1:3|0:0,0:0:0:0:
128,284,6618,2,0,L|92:356,1,78.75,2|2,1:2|0:0,0:0:0:0:
160,384,6934,5,0,1:2:0:0:
296,356,7092,2,0,P|304:312|292:268,1,78.7500030040742,0|0,0:0|1:2,0:0:0:0:
216,168,7407,5,2,0:0:0:0:
228,164,7460,1,0,0:0:0:0:
240,160,7513,1,0,0:0:0:0:
252,156,7565,2,0,L|272:68,1,78.7500030040742,8|0,1:3|0:0,0:0:0:0:
148,220,7881,2,0,P|124:212|96:216,1,42,2|2,1:2|0:0,0:0:0:0:
32,248,8197,5,0,1:2:0:0:
200,288,8355,2,0,P|244:284|280:256,1,78.7500030040742,0|0,0:0|1:2,0:0:0:0:
304,192,8671,1,2,0:0:0:0:
200,288,8828,2,0,P|160:248|120:240,1,78.7500030040742,8|0,1:3|0:0,0:0:0:0:
336,340,9144,6,0,L|324:368,2,19.6875007510186,2|0|0,1:2|0:0|0:0,0:0:0:0:
384,280,9302,2,0,P|360:264|336:264,1,52.5,2|0,0:0|0:0,0:0:0:0:
456,52,9460,5,0,1:2:0:0:
372,32,9618,2,0,L|396:120,1,78.7500030040742,0|0,0:0|1:2,0:0:0:0:
124,204,9934,5,2,0:0:0:0:
136,196,9986,1,0,0:0:0:0:
144,184,10039,1,0,0:0:0:0:
148,168,10092,2,0,P|184:208|248:216,1,105,8|0,1:3|0:0,0:0:0:0:
248,36,10407,2,0,B|236:68|244:100|244:100|224:72|196:64,1,125.999996154785,2|2,1:2|0:0,0:0:0:0:
28,140,10723,6,0,P|24:212|32:276,1,125.999996154785,6|0,1:3|1:2,0:0:0:0:
112,260,11197,1,0,0:0:0:0:
320,348,11355,6,0,P|368:352|416:348,1,84,10|0,1:3|1:2,0:0:0:0:
480,344,11828,1,0,0:0:0:0:
408,156,11986,6,0,P|411:133|408:112,1,42,2|0,1:2|1:2,0:0:0:0:
408,40,12460,1,0,0:0:0:0:
164,156,12618,5,10,1:3:0:0:
220,96,12776,1,0,0:0:0:0:
348,228,12934,5,2,1:2:0:0:
292,288,13092,1,2,0:0:0:0:
244,192,13249,6,0,P|260:204|256:184,1,42,2|0,1:2|1:2,0:0:0:0:
204,264,13723,1,0,0:0:0:0:
116,268,13881,6,0,P|96:292|128:280,1,84,10|0,1:3|1:2,0:0:0:0:
52,208,14355,1,0,0:0:0:0:
128,120,14513,6,0,P|100:80|100:132,1,125.999996154785,2|0,1:2|1:2,0:0:0:0:
200,60,14986,1,2,0:0:0:0:
372,120,15144,6,0,B|400:100|404:64|404:64|420:96|452:112,3,136.499993751526,10|0|2|0,1:3|0:0|1:2|0:0,0:0:0:0:
288,132,15776,5,0,1:2:0:0:
196,336,15934,5,2,0:0:0:0:
252,284,16092,1,0,1:2:0:0:
328,272,16249,1,2,0:0:0:0:
196,336,16407,5,10,1:3:0:0:
224,208,16565,1,0,0:0:0:0:
132,296,16723,5,2,1:2:0:0:
144,220,16881,1,2,0:0:0:0:
64,232,17039,6,0,P|60:248|60:264,1,31.4999990386963,2|0,1:2|0:0,0:0:0:0:
20,208,17355,2,0,P|20:248|12:280,1,62.9999980773926,2|2,1:2|0:0,0:0:0:0:
56,128,17671,6,0,P|64:192|40:352,1,210,10|2,1:3|1:2,0:0:0:0:
124,336,18144,1,0,0:0:0:0:
188,96,18302,6,0,P|248:44|328:64,1,168,2|0,1:2|1:2,0:0:0:0:
268,120,18776,1,0,0:0:0:0:
448,48,18934,5,10,1:3:0:0:
424,140,19092,1,0,0:0:0:0:
424,140,19171,1,0,0:0:0:0:
484,208,19328,1,0,0:2:0:0:
484,208,19407,1,0,0:0:0:0:
324,288,19565,6,0,P|264:340|184:320,1,168,2|0,1:2|1:2,0:0:0:0:
244,264,20039,1,0,0:0:0:0:
64,336,20197,5,10,1:3:0:0:
88,244,20355,1,0,0:0:0:0:
88,244,20434,1,0,0:0:0:0:
88,244,20513,1,0,1:2:0:0:
28,176,20671,1,0,0:0:0:0:
288,168,20828,6,0,P|328:176|380:176,1,84,2|0,1:2|1:2,0:0:0:0:
240,96,21302,1,0,0:0:0:0:
216,220,21460,2,0,P|208:268|208:304,1,73.4999977569581,10|0,1:3|0:0,0:0:0:0:
44,224,21776,2,0,P|80:232|128:232,1,73.4999977569581,0|0,1:2|0:0,0:0:0:0:
376,348,22092,5,2,1:2:0:0:
460,312,22249,1,0,0:0:0:0:
304,288,22407,5,0,1:2:0:0:
336,176,22565,1,0,0:0:0:0:
440,48,22723,5,10,1:3:0:0:
484,116,22881,2,0,P|484:128|480:136,2,18.3749994392395,2|0|0,0:0|0:0|0:0,0:0:0:0:
244,160,23039,5,0,1:2:0:0:
272,76,23197,1,0,0:0:0:0:
48,44,23355,6,0,B|80:84|68:136|68:136|56:124|36:120,2,110.249996635437,2|0|0,1:2|0:0|0:0,0:0:0:0:
224,160,23986,6,0,L|240:96,1,47.2499985580445,10|0,1:3|0:0,0:0:0:0:
224,160,24302,6,0,L|268:136,1,47.2499985580445,0|0,1:2|0:0,0:0:0:0:
224,160,24618,6,0,L|276:172,1,47.2499985580445,2|0,1:2|0:0,0:0:0:0:
316,232,24776,6,0,L|284:116,1,94.499997116089,0|0,0:0|1:2,0:0:0:0:
288,312,25092,1,0,0:0:0:0:
276,308,25144,1,0,0:0:0:0:
264,304,25197,1,0,0:0:0:0:
252,300,25249,2,0,L|144:260,1,94.499997116089,10|0,1:3|0:0,0:0:0:0:
132,72,25565,2,0,B|120:96|100:112|100:112|124:108|144:124,1,94.499997116089,2|0,1:2|0:0,0:0:0:0:
64,364,25881,5,0,1:2:0:0:
32,268,26039,1,0,0:0:0:0:
80,372,26197,1,2,1:2:0:0:
84,368,26355,1,2,0:0:0:0:
168,176,26513,5,10,1:3:0:0:
160,328,26671,1,0,0:0:0:0:
188,168,26828,1,2,1:2:0:0:
192,176,26986,1,2,0:0:0:0:
260,356,27144,5,2,1:2:0:0:
296,176,27302,1,2,0:0:0:0:
368,192,27460,5,2,1:2:0:0:
380,360,27618,1,0,0:0:0:0:
452,320,27776,5,10,1:3:0:0:
440,228,27934,1,0,0:0:0:0:
368,284,28092,1,2,1:2:0:0:
80,156,28407,6,0,P|160:88|264:100,1,188.999994232178,2|0,1:2|1:2,0:0:0:0:
80,156,29039,2,0,P|160:144|216:192,1,146.999995513916,10|0,1:3|1:2,0:0:0:0:
80,156,29671,2,0,P|120:176|140:232,1,105,2|2,1:2|1:2,0:0:0:0:
80,156,30304,2,0,P|68:212|40:232,1,94.499997116089,10|0,1:3|0:0,0:0:0:0:
39,232,30940,5,2,0:0:0:0:
256,192,34727,12,2,35513,1:2:0:0:
328,284,35674,6,0,B|344:256|344:256|328:220,1,62.9999980773926,12|0,0:0|0:0,0:0:0:0:
220,112,35831,5,0,1:0:0:0:
320,80,35909,1,0,1:0:0:0:
256,28,35988,6,0,B|264:112|264:112|248:152|248:152|256:240,1,188.999994232178,0|0,1:2|0:0,0:0:0:0:
184,272,36303,2,0,P|132:280|72:248,1,105,10|0,0:2|0:0,0:0:0:0:
24,88,36619,5,2,1:2:0:0:
24,88,36777,1,0,1:2:0:0:
148,200,36935,6,0,L|212:192,1,62.9999980773926,10|0,0:2|0:0,0:0:0:0:
432,148,37090,2,0,P|384:116|312:128,1,125.999996154785,2|0,0:2|1:2,0:0:0:0:
336,144,37324,1,0,1:0:0:0:
352,164,37403,1,2,1:2:0:0:
128,52,37561,1,8,0:2:0:0:
216,40,37719,6,0,P|228:72|224:104,1,62.9999980773926,2|2,0:2|1:2,0:0:0:0:
212,180,38035,2,0,P|188:212|160:224,1,62.9999980773926,2|8,1:2|0:2,0:0:0:0:
92,232,38351,1,0,0:0:0:0:
268,304,38509,6,0,L|328:288,1,52.5,0|0,1:2|0:0,0:0:0:0:
344,312,38666,2,0,L|284:328,1,52.5,0|0,1:2|0:0,0:0:0:0:
368,128,38823,6,0,B|384:104|368:72|368:72|456:104|432:212,1,220.499993270874,10|0,0:2|0:0,0:0:0:0:
284,168,39124,2,0,B|184:144|96:191|96:191|128:204|128:240,1,220.499993270874,2|0,1:2|0:0,0:0:0:0:
276,68,39443,5,10,0:2:0:0:
276,68,39762,2,0,L|132:96,1,105,6|0,1:2|1:2,0:0:0:0:
100,104,40000,1,0,1:0:0:0:
188,124,40080,6,0,L|116:140,1,62.9999980773926,12|0,0:2|0:0,0:0:0:0:
44,152,40239,1,0,1:2:0:0:
252,156,40398,6,0,L|208:248,1,62.9999980773926,14|0,0:2|0:0,0:0:0:0:
180,284,40557,1,0,1:2:0:0:
324,136,40716,6,0,L|356:212,1,62.9999980773926,12|0,0:2|0:0,0:0:0:0:
356,344,40876,6,0,B|396:360|396:360|416:324,1,84,8|8,0:2|0:2,0:0:0:0:
420,232,41035,6,0,P|432:152|416:68,1,146.999995513916,2|2,0:0|0:0,0:0:0:0:
260,264,41521,2,0,P|304:272|356:268,1,84,2|0,0:0|0:0,0:0:0:0:
308,192,42030,1,2,0:0:0:0:
308,192,42186,1,0,0:0:0:0:
124,232,42342,6,0,P|84:236|44:224,1,73.5,2|0,0:0|0:0,0:0:0:0:
36,240,42950,6,0,P|88:248|152:236,1,110.249996635437,2|0,0:0|0:0,0:0:0:0:
164,252,43286,6,0,P|96:264|24:256,1,141.749995674133,2|0,0:0|0:0,0:0:0:0:
160,111,43610,6,0,B|164:11|301:-12|369:77|349:200|241:231|168:163,1,425.2499870224,2|0,0:0|0:0,0:0:0:0:
236,116,44355,1,0,0:0:0:0:
308,88,44513,1,2,0:0:0:0:
388,84,44671,1,0,0:0:0:0:
468,104,44851,6,0,P|492:101|512:96,2,42,2|2|4,0:0|0:0|1:2,0:0:0:0:
300,312,46248,5,0,1:2:0:0:
380,292,46406,1,10,0:2:0:0:
160,252,46564,6,0,L|104:240,1,52.5,0|0,0:0|0:0,0:0:0:0:
88,236,46722,1,2,1:2:0:0:
360,188,46880,1,0,1:2:0:0:
448,168,47038,1,10,0:2:0:0:
272,136,47196,6,0,L|312:88,1,52.5,2|0,0:2|1:2,0:0:0:0:
184,132,47515,2,0,L|192:72,1,52.5,2|8,1:2|0:2,0:0:0:0:
256,236,47832,1,2,0:0:0:0:
108,48,47988,5,2,1:2:0:0:
80,300,48146,1,2,1:2:0:0:
100,127,48305,1,8,0:2:0:0:
88,218,48464,1,0,0:0:0:0:
380,280,48622,5,2,1:2:0:0:
436,228,48778,2,0,P|452:196|452:148,1,78.7500030040742,0|0,1:2|0:0,0:0:0:0:
444,76,48935,5,10,0:2:0:0:
360,200,49091,1,0,0:0:0:0:
208,232,49248,1,2,1:2:0:0:
376,124,49401,6,0,P|344:96|284:84,1,78.7500030040742,8|8,0:0|0:0,0:0:0:0:
236,108,49555,1,2,1:2:0:0:
139,290,49709,6,0,P|171:318|231:330,1,78.7500030040742,8|8,0:0|0:0,0:0:0:0:
428,196,49863,6,0,B|430:190|430:190|287:203|287:203|271:197|271:197|186:207|186:207|183:214|183:214|179:211|179:211|100:219|100:219|89:208,3,357.000006809235,6|12|14|12,1:2|0:0|0:0|0:0,0:0:0:0:
40,72,50989,5,0,0:0:0:0:
46,303,51143,6,0,L|158:319,1,105,8|0,1:2|0:0,0:0:0:0:
149,317,51300,6,0,L|264:335,1,104.989501477056,10|0,1:2|0:0,0:0:0:0:
463,220,51603,6,0,L|351:236,1,105,10|0,1:2|0:0,0:0:0:0:
360,234,51760,6,0,L|245:252,1,104.989501477056,10|0,1:2|0:0,0:0:0:0:
39,136,52086,6,0,L|151:152,1,105,10|0,1:2|0:0,0:0:0:0:
142,150,52246,6,0,L|255:166,1,105,4|2,1:2|0:0,0:0:0:0:
234,32,52488,6,0,P|230:71|245:99,1,62.9999980773926,8|8,0:0|0:0,0:0:0:0:
417,56,52729,1,2,1:2:0:0:
160,238,52881,6,0,P|185:238|227:264,1,62.9999980773926,2|8,0:0|0:0,0:0:0:0:
298,260,53033,6,0,P|334:258|355:238,1,63,8|0,0:0|0:0,0:0:0:0:
75,328,53366,6,0,B|68:352|115:371|175:351,1,78.7500030040742,12|0,0:0|0:0,0:0:0:0:
221,352,53516,2,0,B|263:316|327:333|299:360|303:375,1,105,0|0,0:0|0:0,0:0:0:0:
440,317,53666,6,0,B|416:242|456:157|456:157|437:177|416:177,1,204.749990627289,6|0,1:2|0:0,0:0:0:0:
358,135,53981,2,0,P|333:157|300:152,1,57.7500017623902,10|0,0:0|0:0,0:0:0:0:
36,187,54139,6,0,B|70:164|80:126|80:126|103:156|148:166,1,146.999995513916,2|0,0:0|1:0,0:0:0:0:
165,295,54455,2,0,B|131:318|121:356|121:356|98:326|53:316,1,146.999995513916,2|8,1:2|0:0,0:0:0:0:
106,242,54771,6,0,B|170:199|252:219|252:219|242:179|264:144,1,220.499993270874,6|0,1:2|0:0,0:0:0:0:
333,122,55087,2,0,P|340:155|330:187,1,62.9999980773926,2|0,1:2|0:0,0:0:0:0:
150,72,55244,5,8,0:0:0:0:
228,80,55402,1,2,0:0:0:0:
298,42,55560,1,0,1:0:0:0:
300,124,55718,1,2,1:2:0:0:
349,188,55876,1,8,0:0:0:0:
376,384,56034,6,0,L|391:324,1,52.5,8|8,0:0|0:0,0:0:0:0:
396,312,56192,5,2,1:2:0:0:
80,344,56350,5,0,1:0:0:0:
108,52,56508,5,10,0:0:0:0:
416,88,56666,5,0,0:0:0:0:
348,252,56823,5,2,1:2:0:0:
168,220,56981,5,0,1:0:0:0:
220,112,57139,5,10,0:0:0:0:
332,164,57297,5,0,0:0:0:0:
256,236,57455,5,2,1:2:0:0:
291,141,57613,6,0,L|258:374,1,178.500003404617,2|8,1:2|0:0,0:0:0:0:
94,333,57929,2,0,L|108:142,1,178.500003404617,2|0,0:0|1:0,0:0:0:0:
219,102,58244,2,0,L|238:300,1,178.500003404617,0|12,1:0|0:0,0:0:0:0:
185,343,58560,1,0,0:0:0:0:
393,47,58718,6,0,P|405:82|402:128,1,78.7500030040742,4|0,1:3|0:0,0:0:0:0:
437,150,58876,6,0,P|425:115|428:69,1,78.7500030040742,0|0,1:0|0:0,0:0:0:0:
353,195,59192,6,0,B|335:225|335:225|318:240|318:240|325:262|324:297,1,105,12|0,0:0|0:0,0:0:0:0:
353,195,59508,2,0,B|325:211|325:211|319:210|319:210|270:222|270:222|264:239,1,105,12|0,0:0|0:0,0:0:0:0:
51,120,59787,6,0,B|116:77|183:89|183:89|249:131|318:104,1,272.999987503052,6|0,1:2|1:0,0:0:0:0:
442,150,60279,2,0,P|467:103|458:45,1,105,8|0,0:0|0:0,0:0:0:0:
232,268,60598,6,0,L|171:290,1,57.7500017623902,2|0,1:2|0:0,0:0:0:0:
232,268,60758,2,0,L|293:246,1,57.7500017623902,0|0,1:0|0:0,0:0:0:0:
188,196,60917,6,0,B|141:194|106:232|106:232|39:158,1,173.250005287171,14|0,0:0|0:0,0:0:0:0:
29,78,61237,6,0,P|65:96|111:93,1,78.7500030040742,4|0,1:2|0:0,0:0:0:0:
257,141,61394,1,8,0:0:0:0:
243,95,61473,1,8,0:0:0:0:
247,47,61552,2,0,P|246:32|248:16,1,26.25,8|0,0:0|1:0,0:0:0:0:
164,222,61710,6,0,L|191:369,1,141.749995674133,4|8,1:3|0:0,0:0:0:0:
261,360,62026,6,0,L|344:338,1,78.7500030040742,8|8,0:3|0:3,0:0:0:0:
414,348,62184,6,0,L|394:274,1,65.625,0|0,1:0|1:0,0:0:0:0:
268,93,62342,6,0,L|204:109,1,62.9999980773926,4|2,1:2|1:2,0:0:0:0:
135,129,62748,1,0,1:0:0:0:
135,129,62827,1,10,0:0:0:0:
357,41,62984,6,0,B|393:74|385:108|385:108|357:97,1,105,2|8,0:0|0:0,0:0:0:0:
166,283,63142,5,6,1:3:0:0:
216,268,63221,1,0,1:0:0:0:
266,253,63300,1,10,0:3:0:0:
316,238,63379,1,8,0:3:0:0:
215,298,63458,5,8,1:2:0:0:
287,309,63537,1,8,0:0:0:0:
359,321,63616,1,8,0:0:0:0:
430,333,63695,1,8,0:0:0:0:
486,381,63774,6,0,B|562:240|492:75|492:75|500:127|447:181,1,420,6|10,1:2|0:0,0:0:0:0:
175,103,64247,2,0,P|218:74|276:75,1,94.499997116089,2|0,1:2|0:0,0:0:0:0:
327,112,64405,1,8,0:0:0:0:
225,275,64563,1,2,1:2:0:0:
394,218,64721,1,8,0:0:0:0:
108,148,64879,6,0,P|64:147|24:168,1,89.2500017023087,2|0,1:2|1:0,0:0:0:0:
88,204,65037,6,0,L|99:179,1,26.25,8|0,0:0|0:0,0:0:0:0:
186,165,65195,6,0,P|170:202|166:255,1,84,2|0,1:2|0:0,0:0:0:0:
240,236,65352,6,0,L|194:199,1,36.749998878479,8|0,0:0|0:0,0:0:0:0:
252,107,65510,6,0,P|291:150|328:163,1,78.7500030040742,2|0,1:2|0:0,0:0:0:0:
377,126,65668,6,0,P|351:132|335:144,1,47.2499985580445,8|0,0:0|0:0,0:0:0:0:
285,91,65826,6,0,L|357:52,1,73.4999977569581,2|0,1:2|0:0,0:0:0:0:
426,45,65984,6,0,L|359:155,1,94.499997116089,8|0,0:0|0:0,0:0:0:0:
246,211,66142,5,2,1:2:0:0:
269,169,66300,1,10,0:0:0:0:
268,241,66458,5,0,1:0:0:0:
236,158,66616,1,10,0:0:0:0:
320,251,66774,5,0,1:0:0:0:
187,177,66931,1,10,0:0:0:0:
373,219,67089,5,10,0:3:0:0:
147,218,67247,1,10,1:2:0:0:
256,188,67405,5,10,0:0:0:0:
256,188,67484,1,8,0:0:0:0:
256,188,67563,2,0,B|276:136|256:80|224:52|224:52|260:88|324:96|344:40,1,283.499991348267,6|0,1:2|0:0,0:0:0:0:
176,120,67879,6,0,P|160:100|72:88,1,89.2500017023087,0|0,1:0|0:0,0:0:0:0:
364,224,68037,6,0,P|436:220|480:108,1,173.250005287171,10|0,0:0|0:0,0:0:0:0:
432,40,68352,6,0,B|472:44|496:64|496:64|496:46|508:32,1,84,0|0,1:0|0:0,0:0:0:0:
384,128,68510,6,0,B|336:80|208:84|244:168|152:236|128:96,1,299.249992009163,10|0,0:0|0:0,0:0:0:0:
140,48,68826,5,6,1:3:0:0:
180,40,68984,1,8,0:0:0:0:
220,32,69142,1,4,1:3:0:0:
72,324,69458,6,0,B|41:319|41:319|2:272|2:272|32:217|32:217|65:209,1,188.999994232178,12|0,0:0|0:0,0:0:0:0:
201,237,69774,6,0,P|206:258|203:274,1,36.749998878479,4|0,0:3|0:0,0:0:0:0:
120,305,69931,5,8,0:0:0:0:
125,265,70010,1,8,0:0:0:0:
122,224,70089,1,6,1:3:0:0:
108,153,70247,1,8,0:0:0:0:
121,84,70405,1,4,0:3:0:0:
374,122,70721,6,0,B|392:99|392:99|428:93|428:93|465:109|465:109|481:140|481:140|475:181|475:181|448:207|448:207|416:203,1,252,12|8,0:0|0:0,0:0:0:0:
307,287,71037,6,0,B|301:311|301:311|235:324|175:275|175:275|183:254,1,178.500003404617,0|10,1:0|0:0,0:0:0:0:
269,175,71274,5,8,0:0:0:0:
269,175,71352,1,6,1:2:0:0:
346,196,71511,5,0,0:0:0:0:
188,154,71671,1,4,0:3:0:0:
466,214,71990,6,0,B|480:241|480:241|477:243|477:243|479:284|479:284|475:282|475:282|455:309|455:309|452:307|452:307|425:324|425:324|422:321|422:321|390:319|390:319|389:315|389:315|362:306|362:306|363:301|363:301|347:276|347:276|349:272|349:272|343:241|343:241|347:239|347:239|352:210|352:210|356:212|356:212|386:184|386:184|390:186|390:186|427:182|427:182|428:186|428:186|436:192,2,420,12|8|6,0:0|1:2|1:2,0:0:0:0:
407,90,72763,5,8,0:0:0:0:
360,120,72838,1,8,0:0:0:0:
329,110,72913,1,8,0:3:0:0:
278,144,73001,1,0,1:0:0:0:
224,131,73089,1,0,1:0:0:0:
167,178,73160,1,0,1:0:0:0:
129,147,73231,6,0,B|134:78|134:78|80:128,1,141.749995674133,8|0,0:0|0:0,0:0:0:0:
209,278,73548,2,0,B|214:347|214:347|160:297,1,141.749995674133,8|8,0:0|0:0,0:0:0:0:
22,207,73865,5,6,1:2:0:0:
98,235,74025,1,8,0:0:0:0:
387,165,74185,2,0,L|451:179,1,63,4|0,0:3|0:0,0:0:0:0:
475,169,74506,6,0,L|364:148,1,105,12|0,0:0|1:0,0:0:0:0:
169,114,74827,1,0,0:0:0:0:
85,95,74984,1,4,1:2:0:0:
295,75,75142,6,0,P|309:105|303:139,1,62.9999980773926,6|0,1:2|0:0,0:0:0:0:
251,298,75299,1,8,0:0:0:0:
223,226,75457,1,0,0:0:0:0:
259,305,75615,1,0,1:0:0:0:
259,305,75694,1,0,1:0:0:0:
259,305,75773,1,8,0:0:0:0:
223,226,75931,1,0,1:0:0:0:
345,347,76089,6,0,P|379:349|402:334,1,62.9999980773926,12|0,0:0|0:0,0:0:0:0:
389,259,76247,2,0,P|355:257|332:272,1,62.9999980773926,2|0,1:2|1:0,0:0:0:0:
180,343,76405,6,0,B|119:382|51:331|16:213|150:181,1,236.250009012223,6|0,1:3|0:0,0:0:0:0:
164,239,76720,6,0,P|173:199|166:144,1,94.499997116089,0|0,1:0|0:0,0:0:0:0:
91,27,76875,6,0,B|71:32|71:32|28:43|42:102|83:93|83:93|203:65,1,236.250009012223,8|0,0:0|0:0,0:0:0:0:
346,103,77186,6,0,P|311:122|253:118,1,94.499997116089,0|0,1:0|0:0,0:0:0:0:
406,42,77341,6,0,L|378:163,1,105,8|0,0:0|1:0,0:0:0:0:
342,340,77647,6,0,P|381:338|413:306,1,78.75,8|0,0:0|0:0,0:0:0:0:
437,245,77962,1,6,1:3:0:0:
249,353,78128,6,0,P|270:316|266:273,1,78.75,8|0,0:0|0:0,0:0:0:0:
252,209,78446,1,0,1:0:0:0:
160,367,78598,6,0,P|130:343|87:339,1,78.75,14|0,0:0|0:0,0:0:0:0:
21,357,78913,1,14,1:3:0:0:
135,61,79220,5,8,0:0:0:0:
151,115,79297,1,8,0:0:0:0:
167,169,79374,1,8,1:3:0:0:
286,77,79682,5,8,0:0:0:0:
271,154,79765,1,8,0:0:0:0:
253,231,79848,1,8,1:3:0:0:
401,324,80007,5,8,0:0:0:0:
381,223,80087,5,8,0:0:0:0:
358,123,80167,5,6,1:2:0:0:
432,143,80329,1,2,0:0:0:0:
376,194,80491,1,2,1:2:0:0:
420,68,80653,5,14,0:0:0:0:
458,216,80815,1,0,1:0:0:0:
289,70,80977,5,0,1:0:0:0:
432,143,81139,1,14,0:0:0:0:
323,264,81296,1,2,1:2:0:0:
231,236,81454,5,2,1:2:0:0:
301,179,81612,1,14,0:0:0:0:
323,264,81765,1,0,1:0:0:0:
257,200,81919,1,0,1:0:0:0:
131,338,82076,6,0,B|148:262|148:262|142:242|142:242|164:152,1,178.500003404617,14|0,0:0|1:0,0:0:0:0:
382,93,82396,6,0,B|401:7|537:60|486:142,1,199.499994672775,14|0,0:0|1:0,0:0:0:0:
313,303,82720,5,14,0:0:0:0:
401,258,82877,1,2,1:2:0:0:
305,268,83035,1,2,1:2:0:0:
227,303,83193,5,14,0:0:0:0:
303,221,83351,1,0,1:0:0:0:
291,106,83509,1,0,1:0:0:0:
250,243,83663,1,14,0:0:0:0:
197,125,83818,1,2,1:2:0:0:
224,32,83973,5,2,1:2:0:0:
161,208,84129,1,14,0:0:0:0:
118,45,84284,1,2,1:2:0:0:
132,242,84448,1,2,1:2:0:0:
12,88,84613,6,0,B|46:45|139:102|130:180|-9:222|11:256|43:286,1,272.999987503052,12|0,0:0|0:0,0:0:0:0:
35,357,85069,5,2,0:0:0:0:
35,357,85145,1,0,0:0:0:0:
35,357,85222,2,0,P|106:372|167:366,1,125.999996154785,6|0,1:2|0:0,0:0:0:0:
228,333,85867,2,0,P|299:325|366:341,1,125.999996154785,2|0,0:0|0:0,0:0:0:0:
436,328,86351,5,0,1:0:0:0:
436,328,86431,1,0,1:0:0:0:
436,328,86512,2,0,B|455:344|455:344|486:269,1,105,10|0,1:3|0:0,0:0:0:0:
364,36,86670,6,0,B|327:59|318:91|318:91|321:123,1,99.7499973363877,8|0,0:3|0:0,0:0:0:0:
409,202,86828,6,0,B|419:235|399:261|363:258|347:239,1,94.499997116089,8|0,0:3|0:0,0:0:0:0:
256,174,86986,6,0,P|212:154|165:153,1,89.2500017023087,8|0,0:3|0:0,0:0:0:0:
23,233,87145,6,0,B|47:224|47:224|61:188|61:188|48:164,1,84,10|0,1:3|0:0,0:0:0:0:
249,319,87303,6,0,P|255:298|268:313,1,42,12|0,1:2|0:0,0:0:0:0:
123,350,87778,6,0,L|109:298,1,52.5,0|0,0:0|0:0,0:0:0:0:
48,368,87935,6,0,L|34:314,1,52.4947507385278,0|0,0:0|0:0,0:0:0:0:
16,245,88251,1,2,0:0:0:0:
229,343,88409,6,0,B|204:310|204:310|210:271,1,78.7500030040742,8|0,0:3|0:0,0:0:0:0:
233,237,88567,1,0,0:0:0:0:
266,43,88725,6,0,B|252:62|252:62|261:83,2,39.3750015020371,2|0|0,0:0|0:0|0:0,0:0:0:0:
342,79,88883,5,2,0:0:0:0:
199,123,89041,6,0,P|192:128|176:128,1,21,4|0,1:3|0:0,0:0:0:0:
