osu file format v14

[General]
AudioFilename: audio.mp3
AudioLeadIn: 0
PreviewTime: 53591
Countdown: 0
SampleSet: Soft
StackLeniency: 0.4
Mode: 0
LetterboxInBreaks: 0
WidescreenStoryboard: 1

[Editor]
DistanceSpacing: 1.2
BeatDivisor: 4
GridSize: 16
TimelineZoom: 3.399999

[Metadata]
Title:Redo (TV Size)
TitleUnicode:Redo (TV Size)
Artist:Suzuki Konomi
ArtistUnicode:鈴木このみ
Creator:fieryrage
Version:Hooni's Insane
Source:Re:ゼロから始める異世界生活
Tags:re:zero kara hajimeru isekai seikatsu rezero starting life in another world different from zero anime opening op japanese rock delis shirohamymommy flask wanpachi cycopton apo11o hooni glaceon
BeatmapID:2510566
BeatmapSetID:1193634

[Difficulty]
HPDrainRate:5
CircleSize:3.7
OverallDifficulty:8
ApproachRate:9
SliderMultiplier:2
SliderTickRate:1

[Events]
//Background and Video events
0,0,"rem.jpg",0,0
Video,-40,"when you die.mp4"
//Break Periods
//Storyboard Layer 0 (Background)
//Storyboard Layer 1 (Fail)
//Storyboard Layer 2 (Pass)
//Storyboard Layer 3 (Foreground)
//Storyboard Layer 4 (Overlay)
//Storyboard Sound Samples

[TimingPoints]
611,315.789473684211,4,2,0,50,1,0
611,-142.857142857143,4,2,0,50,0,0
1084,-142.857142857143,4,2,0,50,0,0
1400,-142.857142857143,4,2,0,50,0,0
2347,-142.857142857143,4,2,0,50,0,0
2663,-142.857142857143,4,2,0,50,0,0
3611,-142.857142857143,4,2,0,50,0,0
3926,-142.857142857143,4,2,0,50,0,0
4874,319.148936170213,4,2,0,50,1,0
4874,-142.857142857143,4,2,0,50,0,0
5193,-142.857142857143,4,2,0,50,0,0
5671,315.789473684211,4,2,5,60,1,0
5671,-142.857142857143,4,2,5,60,0,0
6618,-142.857142857143,4,2,5,60,0,0
6775,-142.857142857143,4,2,5,60,0,0
7407,-142.857142857143,4,2,5,60,0,0
7565,-142.857142857143,4,2,5,60,0,0
9144,-142.857142857143,4,2,5,60,0,0
9302,-142.857142857143,4,2,5,60,0,0
9934,-142.857142857143,4,2,5,60,0,0
10091,-142.857142857143,4,2,5,60,0,0
10723,-142.857142857143,4,2,1,65,0,0
11828,-142.857142857143,4,2,1,65,0,0
12460,-142.857142857143,4,2,1,65,0,0
12618,-142.857142857143,4,2,1,65,0,0
14196,-142.857142857143,4,2,1,65,0,0
14354,-142.857142857143,4,2,1,65,0,0
14986,-142.857142857143,4,2,1,65,0,0
15144,-142.857142857143,4,2,1,65,0,0
16881,-142.857142857143,4,2,1,65,0,0
17512,-142.857142857143,4,2,1,65,0,0
17670,-142.857142857143,4,2,1,65,0,0
19249,-142.857142857143,4,2,1,65,0,0
19407,-142.857142857143,4,2,1,65,0,0
20039,-142.857142857143,4,2,1,65,0,0
20196,-142.857142857143,4,2,1,65,0,0
21775,-142.857142857143,4,2,1,65,0,0
21933,-142.857142857143,4,2,1,65,0,0
22565,-142.857142857143,4,2,1,65,0,0
22723,-142.857142857143,4,2,1,65,0,0
24460,-142.857142857143,4,2,1,65,0,0
25091,-142.857142857143,4,2,1,65,0,0
25249,-142.857142857143,4,2,1,65,0,0
26828,-142.857142857143,4,2,1,65,0,0
26986,-142.857142857143,4,2,1,65,0,0
27618,-142.857142857143,4,2,1,65,0,0
27775,-142.857142857143,4,2,1,65,0,0
29354,-142.857142857143,4,2,1,65,0,0
29512,-142.857142857143,4,2,1,65,0,0
29986,318.302387267905,4,2,1,65,1,0
29986,-142.857142857143,4,2,1,65,0,0
30127,-142.857142857143,4,2,1,65,0,0
30145,-142.857142857143,4,2,1,65,0,0
30304,-142.857142857143,4,2,1,65,0,0
30622,-142.857142857143,4,2,1,65,0,0
30940,329.67032967033,4,2,1,50,1,0
30940,-250.000000000001,4,2,1,50,0,0
31434,285.714285714286,4,2,1,50,1,0
31434,-333.333333333333,4,2,1,50,0,0
31862,363.636363636364,4,2,1,50,1,0
31862,-142.857142857143,4,2,1,50,0,0
32225,315.789473684211,4,2,1,50,1,0
32225,-285.714285714286,4,2,1,50,0,0
32540,333.333333333333,4,2,1,50,1,0
32540,-142.857142857143,4,2,1,50,0,0
32706,272.727272727273,4,2,1,50,1,0
32706,-294.117647058824,4,2,1,50,0,0
32978,372.670807453416,4,2,1,50,1,0
32978,-222.222222222222,4,2,1,50,0,0
33164,295.566502463054,4,2,1,50,1,0
33164,-270.27027027027,4,2,1,50,0,0
33459,329.67032967033,4,2,1,50,1,0
33459,-250,4,2,1,50,0,0
33953,301.507537688442,4,2,1,50,1,0
33953,-270.27027027027,4,2,1,50,0,0
34254,315.789473684211,4,2,1,50,1,0
34254,-285.714285714286,4,2,1,50,0,0
35201,312.5,4,2,1,50,1,0
35201,-222.222222222222,4,2,1,50,0,0
35513,322.58064516129,4,2,1,65,1,0
35513,-142.857142857143,4,2,1,65,0,0
35674,314.13612565445,4,2,1,65,1,0
35674,-125,4,2,1,65,0,0
35752,-142.857142857143,4,2,1,65,0,0
35988,315.789473684211,4,2,1,65,1,0
35988,-125,4,2,1,65,0,0
36935,311.688311688312,4,2,1,65,1,0
36935,-125,4,2,1,65,0,0
37246,315.789473684211,4,2,1,65,1,0
37246,-125,4,2,1,65,0,0
38509,314.13612565445,4,2,1,65,1,0
38509,-142.857142857143,4,2,1,65,0,0
38823,301.507537688442,4,2,1,65,1,0
38823,-142.857142857143,4,2,1,65,0,0
39124,319.148936170213,4,2,1,65,1,0
39124,-142.857142857143,4,2,1,65,0,0
39443,-142.857142857143,4,2,1,65,0,0
39522,-142.857142857143,4,2,1,65,0,0
39762,318.302387267905,4,2,1,65,1,0
39762,-125,4,2,1,65,0,0
40398,-125,4,2,1,68,0,0
40716,-125,4,2,1,70,0,0
40876,-125,4,2,1,60,0,0
41035,324.324324324324,4,2,1,55,1,0
41035,-250.000000000001,4,2,1,55,0,0
41521,279.06976744186,4,2,1,55,1,0
41521,-333.333333333334,4,2,1,55,0,0
41800,461.538461538462,4,2,1,55,1,0
41800,-142.857142857143,4,2,1,55,0,0
42030,312.5,4,2,1,55,1,0
42030,-142.857142857143,4,2,1,55,0,0
42342,279.06976744186,4,2,1,55,1,0
42342,-254.452926208651,4,2,1,55,0,0
42621,329.67032967033,4,2,1,55,1,0
42621,-100,4,2,1,55,0,0
42950,279.06976744186,4,2,1,55,1,0
42950,-337.837837837838,4,2,1,55,0,0
43089,394.736842105263,4,2,1,55,1,0
43089,-142.857142857143,4,2,1,55,0,0
43286,324.324324324324,4,2,1,55,1,0
43286,-142.857142857143,4,2,1,55,0,0
43610,272.727272727273,4,2,1,55,1,0
43610,-333.333333333334,4,2,1,55,0,0
43882,315.789473684211,4,2,1,55,1,0
43882,-142.857142857143,4,2,1,55,0,0
44671,361.44578313253,4,2,1,55,1,0
44671,-142.857142857143,4,2,1,55,0,0
44851,310.077519379845,4,2,1,57,1,0
44851,-333.333333333334,4,2,1,57,0,0
45161,-142.857142857143,4,2,1,53,0,0
45471,-142.857142857143,4,2,1,60,0,0
45543,-142.857142857143,4,2,1,60,0,0
46091,315.789473684211,4,2,1,65,1,0
46091,-125,4,2,1,65,0,0
46485,-125,4,2,1,65,0,0
46722,-125,4,2,1,65,0,0
47354,322.58064516129,4,2,1,65,1,0
47354,-125,4,2,1,65,0,0
47676,312.5,4,2,1,65,1,0
47676,-125,4,2,1,65,0,0
47988,317.460317460317,4,2,1,65,1,0
47988,-125,4,2,1,65,0,0
48622,313.31592689295,4,2,1,65,1,0
48622,-125,4,2,1,65,0,0
49248,307.692307692308,4,2,1,65,1,0
49248,-125,4,2,1,65,0,0
49709,-125,4,2,1,67,0,0
49863,324.324324324324,4,2,1,70,1,0
49863,-111.111111111111,4,2,1,70,0,0
50187,-111.111111111111,4,2,1,65,0,0
50511,-125,4,2,1,67,0,0
50835,308.483290488432,4,2,1,70,1,0
50835,-125,4,2,1,70,0,0
50912,-125,4,2,1,70,0,0
51143,315.789473684211,4,2,1,73,1,0
51143,-125,4,2,1,73,0,0
51300,303.030303030303,4,2,1,73,1,0
51300,-125,4,2,1,73,0,0
51603,315.789473684211,4,2,1,73,1,0
51603,-125,4,2,1,73,0,0
51760,326.086956521739,4,2,1,73,1,0
51760,-125,4,2,1,73,0,0
52086,321.71581769437,4,2,1,73,1,0
52086,-125,4,2,1,73,0,0
52407,-125,4,2,1,66,0,0
52729,304.568527918782,4,2,1,66,1,0
52729,-125,4,2,1,66,0,0
53033,340.909090909091,4,2,1,66,1,0
53033,-125,4,2,1,66,0,0
53203,326.086956521739,4,2,1,66,1,0
53203,-125,4,2,1,66,0,0
53366,300,4,2,1,70,1,0
53366,-125,4,2,1,70,0,0
53441,-125,4,2,1,60,0,0
53516,-125,4,2,1,50,0,0
53591,-125,4,2,1,40,0,0
53666,315.789473684211,4,2,1,75,1,1
53666,-125,4,2,1,75,0,1
58718,-125,4,2,1,75,0,1
59508,279.06976744186,4,2,1,75,1,1
59508,-125,4,2,1,75,0,1
59787,333.333333333333,4,2,1,75,1,1
59787,-125,4,2,1,75,0,1
60060,-125,4,2,1,75,0,1
60120,319.148936170213,4,2,1,75,1,1
60120,-125,4,2,1,75,0,1
60139,-125,4,2,1,75,0,1
61237,315.789473684211,4,2,1,75,1,1
61237,-125,4,2,1,75,0,1
61710,-100,4,2,1,75,0,1
62342,327.868852459016,4,2,1,75,1,1
62342,-125,4,2,1,75,0,1
62587,-125,4,2,1,75,0,1
62669,317.460317460317,4,2,1,75,1,1
62669,-125,4,2,1,75,0,1
62827,315.789473684211,4,2,1,75,1,1
62827,-125,4,2,1,75,0,1
63458,-125,4,2,1,75,0,0
63774,315.789473684211,4,2,1,80,1,1
63774,-125,4,2,1,80,0,1
67089,-100,4,2,1,75,0,1
67560,-125,4,2,1,75,0,1
67563,-125,4,2,1,80,0,1
67797,-125,4,2,1,80,0,1
67876,-125,4,2,1,80,0,1
68034,-125,4,2,1,80,0,1
68271,-125,4,2,1,80,0,1
68350,-125,4,2,1,80,0,1
68508,-125,4,2,1,80,0,1
68744,-125,4,2,1,80,0,1
68826,-142.857142857143,4,2,1,70,0,0
71352,319.148936170213,4,2,1,70,1,0
71352,-142.857142857143,4,2,1,70,0,0
71990,311.688311688312,4,2,1,70,1,0
71990,-142.857142857143,4,2,1,70,0,0
72301,-100,4,2,1,70,0,0
72613,300,4,2,1,70,1,0
72613,-142.857142857143,4,2,1,70,0,0
72913,352.941176470588,4,2,1,70,1,0
72913,-142.857142857143,4,2,1,70,0,0
73089,285.714285714286,4,2,1,70,1,0
73089,-142.857142857143,4,2,1,70,0,0
73231,317.460317460317,4,2,1,70,1,0
73231,-142.857142857143,4,2,1,70,0,0
73865,320.855614973262,4,2,1,70,1,0
73865,-142.857142857143,4,2,1,70,0,0
74827,315.789473684211,4,2,1,70,1,0
74827,-142.857142857143,4,2,1,70,0,0
75142,315.789473684211,4,2,1,70,1,0
75142,-142.857142857143,4,2,1,70,0,0
76720,310.880829015544,4,2,1,70,1,0
76720,-142.857142857143,4,2,1,70,0,0
77341,306.122448979592,4,2,1,70,1,0
77341,-142.857142857143,4,2,1,70,0,0
77647,315.789473684211,4,2,1,70,1,0
77647,-142.857142857143,4,2,1,70,0,0
77962,333.333333333333,4,2,1,70,1,0
77962,-142.857142857143,4,2,1,70,0,0
78295,303.030303030303,4,2,1,70,1,0
78295,-142.857142857143,4,2,1,70,0,0
78598,315.789473684211,4,2,1,70,1,0
78598,-142.857142857143,4,2,1,70,0,0
78913,307.692307692308,4,2,1,65,1,0
78913,-142.857142857143,4,2,1,65,0,0
78989,-142.857142857143,4,2,1,45,0,0
79143,-142.857142857143,4,2,1,55,0,0
79220,-142.857142857143,4,2,1,65,0,0
79451,-142.857142857143,4,2,1,45,0,0
79682,333.333333333333,4,2,1,45,1,0
79682,-142.857142857143,4,2,1,45,0,0
79765,-142.857142857143,4,2,1,55,0,0
79848,319.148936170213,4,2,1,65,1,0
79848,-100,4,2,1,65,0,0
79927,-100,4,2,1,45,0,0
80007,-100,4,2,1,65,0,0
80167,324.324324324324,4,2,1,65,1,0
80167,-142.857142857143,4,2,1,65,0,0
80653,-142.857142857143,4,2,1,66,0,0
81139,315.789473684211,4,2,1,67,1,0
81139,-142.857142857143,4,2,1,67,0,0
81612,307.692307692308,4,2,1,68,1,0
81612,-142.857142857143,4,2,1,68,0,0
81919,315.789473684211,4,2,1,68,1,0
81919,-142.857142857143,4,2,1,68,0,0
82076,-142.857142857143,4,2,1,69,0,0
82234,324.324324324324,4,2,1,69,1,0
82234,-142.857142857143,4,2,1,69,0,0
82396,-142.857142857143,4,2,1,70,0,0
82720,315.789473684211,4,2,1,70,1,0
82720,-142.857142857143,4,2,1,70,0,0
83193,-142.857142857143,4,2,1,71,0,0
83509,309.278350515464,4,2,1,71,1,0
83509,-142.857142857143,4,2,1,71,0,0
83663,310.880829015544,4,2,1,72,1,0
83663,-142.857142857143,4,2,1,72,0,0
84129,-142.857142857143,4,2,1,73,0,0
84284,329.67032967033,4,2,1,73,1,0
84284,-142.857142857143,4,2,1,73,0,0
84613,304.568527918782,4,2,1,74,1,0
84613,-142.857142857143,4,2,1,74,0,0
85222,322.58064516129,4,2,1,70,1,0
85222,-200,4,2,1,70,0,0
85302,-200,4,2,2,5,0,0
85867,-142.857142857143,4,2,1,60,0,0
86351,-142.857142857143,4,2,1,62,0,0
86512,316.622691292876,4,2,1,65,1,0
86512,-142.857142857143,4,2,1,65,0,0
86670,-142.857142857143,4,2,1,66,0,0
86828,-142.857142857143,4,2,1,67,0,0
86986,-142.857142857143,4,2,1,68,0,0
87145,-142.857142857143,4,2,1,69,0,0
87303,-142.857142857143,4,2,1,72,0,0
87778,315.789473684211,4,2,5,50,1,0
87778,-166.666666666667,4,2,5,50,0,0
89041,-500.000000000003,4,2,5,55,0,0
89120,-500.000000000003,4,2,2,5,0,0

[Colours]
Combo1 : 57,203,215
Combo2 : 98,174,174
Combo3 : 138,138,138
Combo4 : 52,118,139

[HitObjects]
104,51,611,5,0,0:0:0:0:
212,68,768,1,0,0:0:0:0:
226,72,1084,6,0,B|273:80|273:80|314:66|314:66|362:74,1,139.999995727539,2|0,0:0|0:0,0:0:0:0:
463,122,1558,2,0,P|476:89|475:55,1,69.9999978637696,2|2,0:0|0:0,0:0:0:0:
374,191,1874,5,0,0:0:0:0:
432,287,2032,1,0,0:0:0:0:
423,298,2347,6,0,B|389:315|354:313|354:313|324:302|297:275,1,139.999995727539,2|0,0:0|0:0,0:0:0:0:
262,169,2821,2,0,L|273:100,1,69.9999978637696,2|2,0:0|0:0,0:0:0:0:
199,16,3137,5,0,0:0:0:0:
96,61,3295,1,0,0:0:0:0:
93,75,3611,6,0,B|86:114|86:114|70:142|70:142|76:170|76:170|69:208,1,139.999995727539,2|0,0:0|0:0,0:0:0:0:
83,320,4084,2,0,P|49:320|17:307,1,69.9999978637696,2|2,0:0|0:0,0:0:0:0:
189,270,4400,5,0,0:0:0:0:
266,351,4558,1,0,0:0:0:0:
278,345,4874,6,0,B|318:317|318:317|408:333,1,139.999995727539,2|0,0:0|0:0,0:0:0:0:
493,261,5352,2,0,L|482:192,1,69.9999978637696,2|2,0:0|0:0,0:0:0:0:
460,66,5671,5,0,1:2:0:0:
367,139,5828,2,0,B|320:147|320:147|279:133|279:133|231:141,1,139.999995727539,0|2,0:0|0:0,0:0:0:0:
126,184,6302,2,0,B|121:171|121:171|117:144|117:144|120:145|120:145|116:119,1,69.9999978637696,8|0,1:3|0:0,0:0:0:0:
211,258,6618,2,0,B|206:283|206:283|208:290|208:290|200:307|200:307|201:332,1,69.9999978637696,2|2,1:2|0:0,0:0:0:0:
230,141,6934,5,0,1:2:0:0:
324,214,7092,2,0,B|358:230|390:230|390:230|424:220|450:192,1,139.999995727539,0|2,0:0|0:0,0:0:0:0:
482,93,7565,2,0,B|463:90|463:90|450:82|450:82|429:83|429:83|414:80,1,69.9999978637696,8|0,1:3|0:0,0:0:0:0:
267,14,7881,2,0,B|291:6|291:6|299:9|299:9|309:5|309:5|334:1,1,69.9999978637696,2|2,1:2|0:0,0:0:0:0:
193,107,8197,5,0,1:2:0:0:
102,42,8355,2,0,B|74:82|74:82|90:172,1,139.999995727539,0|2,0:0|0:0,0:0:0:0:
142,271,8828,2,0,B|117:276|117:276|117:272|117:272|102:280|102:280|78:282,1,69.9999978637696,8|0,1:3|0:0,0:0:0:0:
232,211,9144,2,0,B|244:215|244:215|271:219|271:219|270:216|270:216|296:220,1,69.9999978637696,2|2,1:2|0:0,0:0:0:0:
372,304,9460,5,0,1:2:0:0:
465,242,9618,2,0,P|501:184|485:117,1,139.999995727539,0|2,0:0|0:0,0:0:0:0:
432,18,10092,2,0,B|444:14|444:14|471:10|471:10|470:13|470:13|496:9,1,69.9999978637696,8|0,1:3|0:0,0:0:0:0:
372,105,10407,2,0,B|353:101|353:101|338:104|338:104|318:96|318:96|303:93,1,69.9999978637696,2|2,1:2|0:0,0:0:0:0:
213,5,10723,6,0,B|206:44|206:44|190:72|190:72|196:100|196:100|189:138,1,139.999995727539,6|0,1:3|1:2,0:0:0:0:
106,215,11197,1,0,0:0:0:0:
167,309,11355,2,0,P|199:321|233:318,1,69.9999978637696,10|0,1:3|0:0,0:0:0:0:
377,251,11671,2,0,P|344:238|310:241,1,69.9999978637696,0|0,1:2|0:0,0:0:0:0:
477,338,11986,6,0,P|492:269|497:200,1,139.999995727539,2|0,1:2|1:2,0:0:0:0:
480,89,12460,1,0,0:0:0:0:
389,154,12618,2,0,P|354:157|322:144,1,69.9999978637696,10|0,1:3|0:0,0:0:0:0:
248,59,12934,1,2,1:2:0:0:
153,118,13092,1,2,0:0:0:0:
38,22,13249,6,0,B|46:70|46:70|32:111|32:111|40:158,1,139.999995727539,2|0,1:2|1:2,0:0:0:0:
60,269,13723,1,0,0:0:0:0:
163,314,13881,2,0,P|197:317|229:304,1,69.9999978637696,10|0,1:3|0:0,0:0:0:0:
216,192,14197,2,0,P|181:188|149:201,1,69.9999978637696,0|0,1:2|0:0,0:0:0:0:
323,230,14513,6,0,B|351:190|351:190|335:100,1,139.999995727539,2|0,1:2|1:2,0:0:0:0:
407,24,14986,1,2,0:0:0:0:
500,75,15144,2,0,L|513:150,1,69.9999978637696,10|0,1:3|0:0,0:0:0:0:
441,222,15460,2,0,L|428:290,1,69.9999978637696,2|0,1:2|0:0,0:0:0:0:
330,345,15776,6,0,P|297:332|263:335,1,69.9999978637696,0|2,1:2|0:0,0:0:0:0:
159,378,16092,1,0,1:2:0:0:
77,303,16249,1,2,0:0:0:0:
184,243,16407,2,0,L|197:175,1,69.9999978637696,10|0,1:3|0:0,0:0:0:0:
117,95,16723,1,2,1:2:0:0:
223,58,16881,1,2,0:0:0:0:
307,132,17039,6,0,P|340:145|374:142,1,69.9999978637696,2|0,1:2|0:0,0:0:0:0:
474,107,17355,1,2,1:2:0:0:
456,211,17513,1,2,0:0:0:0:
436,314,17671,2,0,L|423:382,1,69.9999978637696,10|0,1:3|0:0,0:0:0:0:
303,358,17986,2,0,L|316:290,1,69.9999978637696,2|0,1:2|0:0,0:0:0:0:
183,336,18302,6,0,B|152:357|152:357|85:345|85:345|64:315,1,139.999995727539,2|0,1:2|1:2,0:0:0:0:
15,216,18776,1,0,0:0:0:0:
97,140,18934,2,0,P|132:143|165:153,1,69.9999978637696,10|0,1:3|0:0,0:0:0:0:
236,239,19249,2,0,P|269:249|304:252,1,69.9999978637696,0|0,1:2|0:0,0:0:0:0:
415,198,19565,6,0,B|443:172|453:138|453:138|453:106|437:72,1,139.999995727539,2|0,1:2|1:2,0:0:0:0:
351,0,20039,1,0,0:0:0:0:
248,45,20197,2,0,P|214:36|180:32,1,69.9999978637696,10|0,1:3|0:0,0:0:0:0:
154,149,20513,2,0,P|186:158|222:162,1,69.9999978637696,0|0,1:2|0:0,0:0:0:0:
70,76,20828,6,0,P|34:134|50:201,1,139.999995727539,2|0,1:2|1:2,0:0:0:0:
131,268,21302,1,0,0:0:0:0:
68,352,21460,2,0,P|34:361|0:365,1,69.9999978637696,10|0,1:3|0:0,0:0:0:0:
131,268,21776,2,0,P|165:271|199:281,1,69.9999978637696,0|0,1:2|0:0,0:0:0:0:
270,378,22092,6,0,B|309:349|309:349|325:259,1,139.999995727539,2|0,1:2|1:2,0:0:0:0:
343,148,22565,1,0,0:0:0:0:
448,109,22723,1,10,1:3:0:0:
362,38,22881,1,2,0:0:0:0:
257,77,23039,2,0,L|164:60,1,69.9999978637696,0|0,1:2|0:0,0:0:0:0:
38,135,23355,6,0,B|84:143|84:143|118:170|118:170|166:179,1,139.999995727539,2|0,1:2|1:2,0:0:0:0:
278,198,23828,1,0,0:0:0:0:
206,285,23986,2,0,P|193:318|196:352,1,69.9999978637696,10|0,1:3|0:0,0:0:0:0:
313,376,24302,2,0,P|326:343|323:309,1,69.9999978637696,0|0,1:2|0:0,0:0:0:0:
278,198,24618,6,0,P|262:131|298:73,1,139.999995727539,2|0,1:2|1:2,0:0:0:0:
405,37,25092,1,0,0:0:0:0:
483,116,25249,2,0,L|470:184,1,69.9999978637696,10|0,1:3|0:0,0:0:0:0:
381,253,25565,2,0,L|393:321,1,69.9999978637696,2|0,1:2|0:0,0:0:0:0:
278,198,25881,6,0,P|243:195|211:208,1,69.9999978637696,0|0,1:2|0:0,0:0:0:0:
127,283,26197,1,2,1:2:0:0:
28,230,26355,1,2,0:0:0:0:
111,145,26513,2,0,L|98:76,1,69.9999978637696,10|0,1:3|0:0,0:0:0:0:
184,4,26828,2,0,L|252:16,1,69.9999978637696,2|2,1:2|0:0,0:0:0:0:
335,94,27144,5,2,1:2:0:0:
436,45,27302,1,2,0:0:0:0:
511,128,27460,2,0,P|513:162|500:194,1,69.9999978637696,2|0,1:2|0:0,0:0:0:0:
444,292,27776,2,0,L|512:304,1,69.9999978637696,10|0,1:3|0:0,0:0:0:0:
392,196,28092,2,0,L|323:208,1,69.9999978637696,2|0,1:2|0:0,0:0:0:0:
226,283,28407,6,0,B|198:262|198:262|187:195|187:195|208:164,1,139.999995727539,2|0,1:2|1:2,0:0:0:0:
279,77,28881,1,0,0:0:0:0:
189,10,29039,2,0,B|151:17|151:17|120:12|120:12|95:26|95:26|53:35,1,139.999995727539,10|0,1:3|1:2,0:0:0:0:
0,125,29513,1,0,0:0:0:0:
74,200,29671,6,0,P|106:187|140:189,1,69.9999978637696,2|0,1:2|0:0,0:0:0:0:
154,300,29986,2,0,P|121:312|87:310,1,69.9999978637696,2|0,1:2|0:0,0:0:0:0:
243,231,30304,2,0,B|288:222|288:222|330:236|330:236|378:228,1,139.999995727539,10|0,1:3|1:2,0:0:0:0:
475,91,30940,6,0,L|389:75,1,80,2|0,0:0|0:0,0:0:0:0:
334,5,31434,2,0,L|265:17,1,59.9999981689454,2|0,0:0|0:0,0:0:0:0:
203,75,31862,1,2,0:0:0:0:
120,39,32043,1,0,0:0:0:0:
55,105,32225,2,0,P|58:145|69:186,1,69.9999978637696,2|2,0:0|0:0,0:0:0:0:
138,235,32706,2,0,P|186:207|241:217,1,114.25387083647,2|0,0:0|0:0,0:0:0:0:
426,304,33459,6,0,L|441:217,1,80,2|0,0:0|0:0,0:0:0:0:
372,161,33953,2,0,L|357:77,1,74.0000018066407,2|2,0:0|0:0,0:0:0:0:
200,16,34569,1,2,0:0:0:0:
121,71,34727,2,0,P|111:106|108:139,1,69.9999978637696,2|2,0:0|0:0,0:0:0:0:
157,243,35201,2,0,P|113:234|73:252,1,89.9999972534181,2|2,0:0|1:2,0:0:0:0:
286,326,35674,6,0,B|334:317|334:317|351:325|351:325|402:316,1,120,12|0,0:0|0:0,0:0:0:0:
430,311,35988,5,0,1:2:0:0:
430,311,36145,1,0,1:2:0:0:
484,143,36303,2,0,L|498:222,1,80,10|0,0:2|0:0,0:0:0:0:
382,83,36619,1,2,1:2:0:0:
302,161,36777,1,0,1:2:0:0:
134,113,36935,2,0,P|169:95|208:99,1,80,10|2,0:2|0:2,0:0:0:0:
59,194,37246,5,0,1:2:0:0:
59,194,37403,1,2,1:2:0:0:
229,239,37561,2,0,P|193:256|154:252,1,80,8|0,0:2|0:2,0:0:0:0:
302,161,37877,1,2,1:2:0:0:
327,303,38035,1,2,1:2:0:0:
413,187,38193,2,0,L|491:200,1,80,8|0,0:2|0:0,0:0:0:0:
381,79,38509,5,0,1:2:0:0:
381,79,38666,1,0,1:2:0:0:
214,28,38823,2,0,L|291:15,1,69.9999978637696,10|0,0:2|0:0,0:0:0:0:
147,111,39124,1,2,1:2:0:0:
52,53,39283,1,0,1:2:0:0:
20,175,39443,2,0,P|22:209|31:243,1,69.9999978637696,10|0,0:2|0:0,0:0:0:0:
171,323,39762,6,0,L|277:304,1,80,6|0,1:2|1:2,0:0:0:0:
421,231,40080,1,12,0:2:0:0:
331,382,40239,1,0,1:2:0:0:
293,210,40398,1,14,0:2:0:0:
425,337,40557,1,0,1:2:0:0:
371,120,40716,2,0,L|264:101,1,80,12|8,0:2|0:2,0:0:0:0:
228,45,40955,5,8,0:2:0:0:
228,45,41035,2,0,P|188:49|135:60,1,80,2|2,0:0|0:0,0:0:0:0:
53,98,41521,2,0,P|42:70|41:40,1,59.9999981689454,2|0,0:0|0:0,0:0:0:0:
136,157,42030,1,2,0:0:0:0:
91,244,42186,1,0,0:0:0:0:
169,314,42342,2,0,P|231:310|290:291,1,125,2|0,0:0|0:0,0:0:0:0:
377,240,42950,2,0,P|391:272|391:307,1,71.2499978256226,2|2,0:0|0:0,0:0:0:0:
281,168,43610,6,0,B|251:140|243:109|254:76|291:49|291:49|323:63|333:91,1,198.749993934632,2|2,0:0|0:0,0:0:0:0:
377,240,44851,2,0,L|365:304,2,59.9999981689454,2|0|2,0:0|0:0|0:0,0:0:0:0:
104,279,46091,5,4,1:2:0:0:
104,279,46248,1,0,1:2:0:0:
52,111,46406,2,0,P|34:146|38:185,1,80,10|0,0:2|0:0,0:0:0:0:
156,58,46722,1,2,1:2:0:0:
229,143,46880,1,0,1:2:0:0:
403,97,47038,2,0,L|324:83,1,80,10|2,0:2|0:2,0:0:0:0:
464,195,47354,5,0,1:2:0:0:
464,195,47515,1,2,1:2:0:0:
298,243,47676,2,0,L|377:257,1,80,8|2,0:2|0:0,0:0:0:0:
229,143,47988,1,2,1:2:0:0:
195,311,48146,1,2,1:2:0:0:
96,170,48305,2,0,P|56:165|21:182,1,80,8|0,0:2|0:0,0:0:0:0:
195,311,48622,5,2,1:2:0:0:
195,311,48778,1,0,1:2:0:0:
229,143,48935,2,0,L|243:64,1,80,10|0,0:2|0:0,0:0:0:0:
415,0,49248,2,0,L|400:79,1,80,2|8,1:2|0:0,0:0:0:0:
398,98,49478,1,8,0:0:0:0:
395,117,49555,1,2,1:2:0:0:
350,228,49709,1,8,0:0:0:0:
354,247,49786,1,8,0:0:0:0:
358,268,49863,6,0,B|326:283|289:275|289:275|278:295|257:304|257:304|223:292|191:312,1,179.999994506836,6|12,1:2|0:0,0:0:0:0:
62,332,50349,1,0,1:0:0:0:
183,234,50511,2,0,P|199:269|194:308,1,80,14|0,0:0|1:0,0:0:0:0:
50,186,50835,2,0,P|33:150|38:111,1,80,12|0,0:0|0:0,0:0:0:0:
177,40,51143,5,8,1:2:0:0:
281,180,51300,1,10,1:2:0:0:
285,164,51603,5,10,1:2:0:0:
317,0,51760,1,10,1:2:0:0:
328,13,52086,5,10,1:2:0:0:
432,153,52246,1,4,1:2:0:0:
370,269,52407,5,2,0:0:0:0:
370,269,52488,1,8,0:0:0:0:
370,269,52568,2,0,L|291:282,1,80,8|2,0:0|1:2,0:0:0:0:
198,383,52881,1,2,0:0:0:0:
198,383,52957,1,8,0:0:0:0:
198,383,53033,2,0,L|119:369,1,80,8|0,0:0|1:0,0:0:0:0:
42,238,53366,6,0,B|49:194|49:194|35:169|35:169|43:123,1,120,12|0,0:0|0:0,0:0:0:0:
113,57,53666,6,0,B|145:52|168:67|168:67|183:54|202:50|202:50|230:73|269:65,1,160,6|10,1:2|0:0,0:0:0:0:
405,44,54139,2,0,L|388:135,1,80,2|0,0:0|1:0,0:0:0:0:
302,284,54455,2,0,L|288:205,1,80,2|8,1:2|0:0,0:0:0:0:
193,364,54771,6,0,B|153:381|117:380|117:380|78:368|49:336,1,160,6|2,1:2|1:2,0:0:0:0:
0,219,55244,1,8,0:0:0:0:
146,154,55402,2,0,B|151:193|151:193|138:230,1,80,2|0,0:0|1:0,0:0:0:0:
27,83,55718,2,0,B|21:43|21:43|34:6,1,80,2|8,1:2|0:0,0:0:0:0:
235,71,56034,5,8,0:0:0:0:
235,71,56113,1,8,0:0:0:0:
235,71,56192,2,0,P|274:73|313:83,1,80,2|0,1:2|1:0,0:0:0:0:
448,211,56508,2,0,P|408:207|369:196,1,80,10|0,0:0|0:0,0:0:0:0:
235,71,56823,5,2,1:2:0:0:
189,224,56981,1,0,1:0:0:0:
105,88,57139,1,10,0:0:0:0:
272,166,57297,1,0,0:0:0:0:
76,206,57455,5,2,1:2:0:0:
76,206,57613,2,0,P|72:245|87:282,1,80,2|8,1:2|0:0,0:0:0:0:
267,311,57929,2,0,B|315:302|315:302|364:324|364:324|420:314,1,160,2|0,0:0|1:0,0:0:0:0:
492,153,58402,2,0,B|508:194|508:194|500:230,1,80,12|0,0:0|0:0,0:0:0:0:
411,49,58718,5,4,1:3:0:0:
380,206,58876,1,0,1:0:0:0:
363,202,59192,6,0,L|272:185,1,80,12|2,0:0|0:0,0:0:0:0:
150,101,59508,2,0,L|228:86,1,80,12|2,0:0|0:0,0:0:0:0:
52,184,59787,6,0,B|21:162|21:162|7:83|7:83|31:48,1,160,6|0,1:2|1:0,0:0:0:0:
175,223,60279,2,0,L|191:300,1,80,8|0,0:0|0:0,0:0:0:0:
150,101,60598,1,2,1:2:0:0:
150,101,60758,1,0,1:0:0:0:
308,223,60917,2,0,P|347:227|384:212,1,80,14|2,0:0|0:0,0:0:0:0:
496,123,61237,5,4,1:2:0:0:
389,34,61394,1,8,0:0:0:0:
354,15,61473,1,8,0:0:0:0:
313,12,61552,1,8,0:0:0:0:
277,26,61631,1,8,0:3:0:0:
248,55,61710,2,0,L|179:44,3,50,4|0|8|8,1:3|0:0|0:0|0:0,0:0:0:0:
124,104,62026,2,0,L|55:93,3,50,8|8|0|0,0:3|0:3|1:0|0:0,0:0:0:0:
10,194,62342,6,0,B|54:201|54:201|81:218|81:218|119:213|119:213|163:221,1,160,4|2,1:2|1:2,0:0:0:0:
314,244,62827,1,10,0:0:0:0:
194,332,62984,1,2,0:0:0:0:
194,332,63063,1,8,0:0:0:0:
194,332,63142,1,6,1:3:0:0:
393,352,63300,5,2,0:0:0:0:
429,336,63379,1,8,0:3:0:0:
457,307,63458,1,8,1:2:0:0:
471,270,63537,1,8,0:0:0:0:
469,231,63616,1,8,0:0:0:0:
452,194,63695,1,8,0:0:0:0:
424,168,63774,6,0,L|333:152,1,80,6|0,1:2|1:0,0:0:0:0:
201,60,64089,2,0,L|279:46,1,80,10|2,0:0|1:2,0:0:0:0:
137,158,64405,5,8,0:0:0:0:
104,1,64563,1,2,1:2:0:0:
17,135,64721,1,8,0:0:0:0:
201,60,64879,1,2,1:2:0:0:
201,60,64958,1,0,1:0:0:0:
201,60,65037,6,0,P|236:42|276:45,1,80,8|2,0:0|1:2,0:0:0:0:
303,220,65352,2,0,P|266:236|226:233,1,80,8|2,0:0|1:2,0:0:0:0:
372,132,65668,5,8,0:0:0:0:
400,289,65826,1,2,1:2:0:0:
490,157,65984,1,8,0:0:0:0:
303,220,66142,1,2,1:2:0:0:
303,220,66221,1,0,1:0:0:0:
303,220,66300,6,0,L|289:298,1,80,10|0,0:0|1:0,0:0:0:0:
152,384,66616,2,0,L|138:305,1,80,10|0,0:0|1:0,0:0:0:0:
19,198,66931,5,10,0:0:0:0:
102,85,67089,1,2,0:0:0:0:
118,66,67168,1,8,0:3:0:0:
139,53,67247,1,10,1:2:0:0:
163,45,67326,1,8,0:0:0:0:
188,43,67405,1,10,0:0:0:0:
212,48,67484,1,8,0:0:0:0:
235,60,67563,6,0,B|248:89|239:115|239:115|256:126|264:144|264:144|249:177|267:212,1,160,6|0,1:2|1:0,0:0:0:0:
409,259,68037,2,0,B|437:234|444:206|435:174|403:150|403:150|382:159|376:180,1,160,10|0,0:0|1:0,0:0:0:0:
360,359,68510,2,0,P|397:375|437:372,1,80,10|0,0:0|0:0,0:0:0:0:
258,296,68826,5,6,1:3:0:0:
185,361,68984,1,8,0:0:0:0:
96,319,69142,2,0,L|82:245,1,69.9999978637696,4|0,1:3|0:0,0:0:0:0:
2,135,69458,2,0,B|50:126|50:126|90:141|90:141|137:133,1,139.999995727539,12|4,0:0|0:3,0:0:0:0:
230,47,69931,5,8,0:0:0:0:
230,47,70010,1,8,0:0:0:0:
230,47,70089,1,6,1:3:0:0:
303,112,70247,1,8,0:0:0:0:
392,70,70405,2,0,L|405:-3,1,69.9999978637696,4|0,0:3|1:0,0:0:0:0:
477,154,70721,2,0,L|464:222,1,69.9999978637696,12|0,0:0|0:0,0:0:0:0:
465,255,70958,1,8,0:0:0:0:
465,255,71037,1,0,1:0:0:0:
360,346,71195,5,10,0:0:0:0:
360,346,71274,1,8,0:0:0:0:
360,346,71352,1,6,1:2:0:0:
287,281,71511,1,0,0:0:0:0:
198,322,71671,2,0,P|163:324|131:310,1,69.9999978637696,4|0,0:3|1:0,0:0:0:0:
22,213,71990,2,0,L|34:144,1,69.9999978637696,12|0,0:0|0:0,0:0:0:0:
40,114,72223,1,8,0:3:0:0:
40,114,72301,2,0,L|52:43,3,50,8|8|8|8,1:2|0:0|0:0|0:0,0:0:0:0:
137,27,72613,5,6,1:2:0:0:
173,12,72688,1,8,0:3:0:0:
214,12,72763,1,8,0:0:0:0:
249,28,72838,1,8,0:0:0:0:
275,60,72913,2,0,L|262:128,1,69.9999978637696,8|0,0:3|1:0,0:0:0:0:
279,253,73231,6,0,B|244:255|244:255|212:241,1,69.9999978637696,8|0,0:0|1:0,0:0:0:0:
375,177,73548,2,0,B|409:174|409:174|441:188,1,69.9999978637696,8|0,0:0|0:0,0:0:0:0:
473,205,73786,5,8,0:0:0:0:
473,205,73865,1,6,1:2:0:0:
512,295,74025,1,8,0:0:0:0:
440,361,74185,2,0,L|371:348,1,69.9999978637696,4|0,0:3|1:0,0:0:0:0:
235,383,74506,2,0,B|214:352|214:352|226:285|226:285|254:265,1,139.999995727539,12|0,0:0|0:0,0:0:0:0:
359,202,74984,1,4,1:2:0:0:
281,107,75142,5,6,1:2:0:0:
190,143,75299,1,8,0:0:0:0:
120,73,75457,2,0,P|88:59|53:61,1,69.9999978637696,0|0,0:0|1:0,0:0:0:0:
0,133,75694,1,0,1:0:0:0:
0,133,75773,2,0,L|13:201,1,69.9999978637696,8|0,0:0|1:0,0:0:0:0:
47,338,76089,1,12,0:0:0:0:
160,255,76247,5,2,1:2:0:0:
160,255,76326,1,0,0:0:0:0:
160,255,76405,2,0,P|191:241|226:243,1,69.9999978637696,6|0,1:3|0:0,0:0:0:0:
320,294,76720,1,0,1:0:0:0:
411,213,76875,2,0,B|403:166|403:166|418:126|418:126|409:78,1,139.999995727539,8|0,0:0|1:0,0:0:0:0:
264,16,77341,2,0,L|332:3,1,69.9999978637696,8|0,0:0|1:0,0:0:0:0:
194,100,77647,2,0,L|126:87,1,69.9999978637696,8|0,0:0|1:0,0:0:0:0:
31,155,77962,5,6,1:3:0:0:
95,255,78128,2,0,L|163:268,1,69.9999978637696,8|2,0:0|0:3,0:0:0:0:
263,202,78446,1,0,1:0:0:0:
332,306,78598,2,0,P|334:340|320:372,1,69.9999978637696,14|0,0:0|0:0,0:0:0:0:
153,334,78913,6,0,P|150:299|164:267,1,69.9999978637696,14|8,1:3|0:3,0:0:0:0:
263,202,79220,1,8,0:0:0:0:
263,202,79297,1,8,0:0:0:0:
263,202,79374,2,0,L|276:134,1,69.9999978637696,8|8,1:3|0:3,0:0:0:0:
193,55,79682,1,8,0:0:0:0:
193,55,79765,1,8,0:0:0:0:
193,55,79848,2,0,L|182:-5,3,50,8|8|8|8,1:3|0:3|0:0|0:0,0:0:0:0:
114,102,80167,6,0,L|101:170,1,69.9999978637696,6|2,1:2|0:0,0:0:0:0:
78,291,80491,1,2,1:2:0:0:
211,213,80653,2,0,B|249:220|249:220|277:214|277:214|305:230|305:230|344:237,1,139.999995727539,14|0,0:0|1:0,0:0:0:0:
470,224,81139,6,0,P|472:258|458:290,1,69.9999978637696,14|2,0:0|1:2,0:0:0:0:
344,237,81454,1,2,1:2:0:0:
445,106,81612,2,0,B|398:97|398:97|365:69|365:69|317:61,1,139.999995727539,14|0,0:0|1:0,0:0:0:0:
193,42,82076,6,0,B|194:76|194:76|180:108,1,69.9999978637696,14|0,0:0|1:0,0:0:0:0:
53,83,82396,2,0,B|51:48|51:48|65:16,1,69.9999978637696,14|0,0:0|1:0,0:0:0:0:
103,192,82720,5,14,0:0:0:0:
85,295,82877,1,2,1:2:0:0:
4,228,83035,1,2,1:2:0:0:
184,256,83193,2,0,B|232:263|232:263|264:291|264:291|311:300,1,139.999995727539,14|0,0:0|1:0,0:0:0:0:
412,230,83663,5,14,0:0:0:0:
430,127,83818,1,2,1:2:0:0:
511,194,83973,1,2,1:2:0:0:
327,160,84129,2,0,L|259:147,1,69.9999978637696,14|2,0:0|1:2,0:0:0:0:
183,65,84448,1,2,1:2:0:0:
52,222,84613,6,0,B|15:198|0:166|6:130|40:94|40:94|76:103|92:131,1,209.999993591309,12|0,0:0|0:0,0:0:0:0:
150,304,85222,6,0,B|177:309|202:295|202:295|221:307|247:311|247:311|273:301|286:285|286:285|313:290|335:278,1,200,6|2,1:2|0:0,0:0:0:0:
457,110,86351,5,0,1:0:0:0:
457,110,86431,1,0,1:0:0:0:
457,110,86512,1,10,1:3:0:0:
289,84,86670,1,8,0:3:0:0:
412,203,86828,1,8,0:3:0:0:
382,35,86986,1,8,0:3:0:0:
307,189,87145,1,10,1:3:0:0:
160,65,87303,5,12,1:2:0:0:
43,203,87778,5,0,0:0:0:0:
67,312,87935,1,0,0:0:0:0:
72,330,88251,5,2,0:0:0:0:
155,243,88409,2,0,B|168:238|168:238|192:235|192:235|194:237|194:237|216:233,1,59.9999981689454,8|0,0:3|0:0,0:0:0:0:
286,310,88725,2,0,B|304:309|304:309|321:317|321:317|328:315|328:315|350:320,1,59.9999981689454,2|2,0:0|0:0,0:0:0:0:
440,264,89041,6,0,B|449:254|456:238|456:238|456:221|450:204,1,60,4|0,1:3|0:0,0:0:0:0:
