osu file format v14

[General]
AudioFilename: audio.mp3
AudioLeadIn: 0
PreviewTime: 53591
Countdown: 0
SampleSet: Soft
StackLeniency: 0.4
Mode: 0
LetterboxInBreaks: 0
WidescreenStoryboard: 1

[Editor]
Bookmarks: 56005
DistanceSpacing: 1.8
BeatDivisor: 4
GridSize: 4
TimelineZoom: 1.5

[Metadata]
Title:Redo (TV Size)
TitleUnicode:Redo (TV Size)
Artist:Suzuki Konomi
ArtistUnicode:鈴木このみ
Creator:fieryrage
Version:Flask's Hard
Source:Re:ゼロから始める異世界生活
Tags:re:zero kara hajimeru isekai seikatsu rezero starting life in another world different from zero anime opening op japanese rock delis shirohamymommy flask wanpachi cycopton apo11o hooni glaceon
BeatmapID:2494265
BeatmapSetID:1193634

[Difficulty]
HPDrainRate:4.5
CircleSize:3.6
OverallDifficulty:6.5
ApproachRate:8
SliderMultiplier:1.4
SliderTickRate:1

[Events]
//Background and Video events
0,0,"rem.jpg",0,0
Video,-40,"when you die.mp4"
//Break Periods
//Storyboard Layer 0 (Background)
//Storyboard Layer 1 (Fail)
//Storyboard Layer 2 (Pass)
//Storyboard Layer 3 (Foreground)
//Storyboard Layer 4 (Overlay)
//Storyboard Sound Samples

[TimingPoints]
611,315.789473684211,4,2,0,50,1,0
611,-100,4,2,0,50,0,0
1084,-100,4,2,0,50,0,0
1400,-100,4,2,0,50,0,0
2347,-100,4,2,0,50,0,0
2663,-100,4,2,0,50,0,0
3611,-100,4,2,0,50,0,0
3926,-100,4,2,0,50,0,0
4874,319.148936170213,4,2,0,50,1,0
4874,-100,4,2,0,50,0,0
5193,-100,4,2,0,50,0,0
5671,315.789473684211,4,2,5,60,1,0
5671,-100,4,2,5,60,0,0
6618,-100,4,2,5,60,0,0
6775,-100,4,2,5,60,0,0
7407,-100,4,2,5,60,0,0
7565,-100,4,2,5,60,0,0
9144,-100,4,2,5,60,0,0
9302,-100,4,2,5,60,0,0
9934,-100,4,2,5,60,0,0
10091,-100,4,2,5,60,0,0
10723,-100,4,2,1,65,0,0
11828,-100,4,2,1,65,0,0
12460,-100,4,2,1,65,0,0
12618,-100,4,2,1,65,0,0
14196,-100,4,2,1,65,0,0
14354,-100,4,2,1,65,0,0
14986,-100,4,2,1,65,0,0
15144,-100,4,2,1,65,0,0
16881,-100,4,2,1,65,0,0
17512,-100,4,2,1,65,0,0
17670,-100,4,2,1,65,0,0
19249,-100,4,2,1,65,0,0
19407,-100,4,2,1,65,0,0
20039,-100,4,2,1,65,0,0
20196,-100,4,2,1,65,0,0
21775,-100,4,2,1,65,0,0
21933,-100,4,2,1,65,0,0
22565,-100,4,2,1,65,0,0
22723,-100,4,2,1,65,0,0
24460,-100,4,2,1,65,0,0
25091,-100,4,2,1,65,0,0
25249,-100,4,2,1,65,0,0
26828,-100,4,2,1,65,0,0
26986,-100,4,2,1,65,0,0
27618,-100,4,2,1,65,0,0
27775,-100,4,2,1,65,0,0
29354,-100,4,2,1,65,0,0
29512,-100,4,2,1,65,0,0
29986,318.302387267905,4,2,1,65,1,0
29986,-100,4,2,1,65,0,0
30127,-100,4,2,1,65,0,0
30145,-100,4,2,1,65,0,0
30304,-100,4,2,1,65,0,0
30622,-100,4,2,1,65,0,0
30940,329.67032967033,4,2,1,50,1,0
30940,-133.333333333333,4,2,1,50,0,0
31434,285.714285714286,4,2,1,50,1,0
31434,-133.333333333333,4,2,1,50,0,0
31862,363.636363636364,4,2,1,50,1,0
31862,-133.333333333333,4,2,1,50,0,0
32225,315.789473684211,4,2,1,50,1,0
32225,-133.333333333333,4,2,1,50,0,0
32540,333.333333333333,4,2,1,50,1,0
32540,-133.333333333333,4,2,1,50,0,0
32706,272.727272727273,4,2,1,50,1,0
32706,-133.333333333333,4,2,1,50,0,0
32978,372.670807453416,4,2,1,50,1,0
32978,-133.333333333333,4,2,1,50,0,0
33164,295.566502463054,4,2,1,50,1,0
33164,-133.333333333333,4,2,1,50,0,0
33459,329.67032967033,4,2,1,50,1,0
33459,-133.333333333333,4,2,1,50,0,0
33953,301.507537688442,4,2,1,50,1,0
33953,-133.333333333333,4,2,1,50,0,0
34254,315.789473684211,4,2,1,50,1,0
34254,-133.333333333333,4,2,1,50,0,0
35201,312.5,4,2,1,50,1,0
35201,-133.333333333333,4,2,1,50,0,0
35513,322.58064516129,4,2,1,65,1,0
35513,-133.333333333333,4,2,1,65,0,0
35674,314.13612565445,4,2,1,65,1,0
35674,-100,4,2,1,65,0,0
35752,-100,4,2,2,5,0,0
35988,315.789473684211,4,2,1,65,1,0
35988,-100,4,2,1,65,0,0
36935,311.688311688312,4,2,1,65,1,0
36935,-100,4,2,1,65,0,0
37246,315.789473684211,4,2,1,65,1,0
37246,-100,4,2,1,65,0,0
38509,314.13612565445,4,2,1,65,1,0
38509,-100,4,2,1,65,0,0
38823,301.507537688442,4,2,1,65,1,0
38823,-100,4,2,1,65,0,0
39124,319.148936170213,4,2,1,65,1,0
39124,-100,4,2,1,65,0,0
39443,-100,4,2,1,65,0,0
39522,-100,4,2,2,5,0,0
39762,318.302387267905,4,2,1,65,1,0
39762,-100,4,2,1,65,0,0
40398,-100,4,2,1,68,0,0
40716,-100,4,2,1,70,0,0
40876,-100,4,2,1,60,0,0
41035,324.324324324324,4,2,1,55,1,0
41035,-100,4,2,1,55,0,0
41521,279.06976744186,4,2,1,55,1,0
41521,-100,4,2,1,55,0,0
41800,461.538461538462,4,2,1,55,1,0
41800,-100,4,2,1,55,0,0
42030,312.5,4,2,1,55,1,0
42030,-133.333333333333,4,2,1,55,0,0
42342,279.06976744186,4,2,1,55,1,0
42342,-133.333333333333,4,2,1,55,0,0
42621,329.67032967033,4,2,1,55,1,0
42621,-100,4,2,1,55,0,0
42950,279.06976744186,4,2,1,55,1,0
42950,-100,4,2,1,55,0,0
43089,394.736842105263,4,2,1,55,1,0
43089,-100,4,2,1,55,0,0
43286,324.324324324324,4,2,1,55,1,0
43286,-100,4,2,1,55,0,0
43610,272.727272727273,4,2,1,55,1,0
43610,-133.333333333333,4,2,1,55,0,0
43882,315.789473684211,4,2,1,55,1,0
43882,-100,4,2,1,55,0,0
44671,361.44578313253,4,2,1,55,1,0
44671,-100,4,2,1,55,0,0
44851,310.077519379845,4,2,1,57,1,0
44851,-133.333333333333,4,2,1,57,0,0
45161,-100,4,2,1,53,0,0
45471,-100,4,2,1,60,0,0
45543,-100,4,2,1,60,0,0
46091,315.789473684211,4,2,1,65,1,0
46091,-100,4,2,1,65,0,0
46485,-100,4,2,2,5,0,0
46722,-100,4,2,1,65,0,0
47354,322.58064516129,4,2,1,65,1,0
47354,-100,4,2,1,65,0,0
47676,312.5,4,2,1,65,1,0
47676,-100,4,2,1,65,0,0
47988,317.460317460317,4,2,1,65,1,0
47988,-100,4,2,1,65,0,0
48622,313.31592689295,4,2,1,65,1,0
48622,-100,4,2,1,65,0,0
49248,307.692307692308,4,2,1,65,1,0
49248,-100,4,2,1,65,0,0
49709,-100,4,2,1,67,0,0
49863,324.324324324324,4,2,1,70,1,0
49863,-100,4,2,1,70,0,0
50187,-100,4,2,1,65,0,0
50511,-100,4,2,1,67,0,0
50835,308.483290488432,4,2,1,70,1,0
50835,-100,4,2,1,70,0,0
50912,-100,4,2,1,70,0,0
51143,315.789473684211,4,2,1,73,1,0
51143,-100,4,2,1,73,0,0
51300,303.030303030303,4,2,1,73,1,0
51300,-100,4,2,1,73,0,0
51603,315.789473684211,4,2,1,73,1,0
51603,-100,4,2,1,73,0,0
51760,326.086956521739,4,2,1,73,1,0
51760,-100,4,2,1,73,0,0
52086,321.71581769437,4,2,1,73,1,0
52086,-100,4,2,1,73,0,0
52407,-100,4,2,1,66,0,0
52729,304.568527918782,4,2,1,66,1,0
52729,-100,4,2,1,66,0,0
53033,340.909090909091,4,2,1,66,1,0
53033,-100,4,2,1,66,0,0
53203,326.086956521739,4,2,1,66,1,0
53203,-100,4,2,1,66,0,0
53366,300,4,2,1,70,1,0
53366,-100,4,2,1,70,0,0
53441,-100,4,2,1,60,0,0
53516,-100,4,2,1,50,0,0
53591,-100,4,2,1,40,0,0
53666,315.789473684211,4,2,1,75,1,1
53666,-100,4,2,1,75,0,1
58718,-100,4,2,1,75,0,1
59508,279.06976744186,4,2,1,75,1,1
59508,-100,4,2,1,75,0,1
59787,333.333333333333,4,2,1,75,1,1
59787,-100,4,2,1,75,0,1
60060,-100,4,2,1,75,0,1
60120,319.148936170213,4,2,1,75,1,1
60120,-100,4,2,1,75,0,1
60139,-100,4,2,1,75,0,1
61237,315.789473684211,4,2,1,75,1,1
61237,-100,4,2,1,75,0,1
62342,327.868852459016,4,2,1,75,1,1
62342,-100,4,2,1,75,0,1
62587,-100,4,2,1,75,0,1
62669,317.460317460317,4,2,1,75,1,1
62669,-100,4,2,1,75,0,1
62827,315.789473684211,4,2,1,75,1,1
62827,-100,4,2,1,75,0,1
63458,-100,4,2,1,75,0,0
63774,315.789473684211,4,2,1,80,1,1
63774,-100,4,2,1,80,0,1
67087,-100,4,2,1,80,0,1
67089,-100,4,2,1,75,0,1
67560,-100,4,2,1,75,0,1
67563,-100,4,2,1,80,0,1
67797,-100,4,2,1,80,0,1
67876,-100,4,2,1,80,0,1
68034,-100,4,2,1,80,0,1
68271,-100,4,2,1,80,0,1
68350,-100,4,2,1,80,0,1
68508,-100,4,2,1,80,0,1
68744,-100,4,2,1,80,0,1
68826,-100,4,2,1,70,0,0
71352,319.148936170213,4,2,1,70,1,0
71352,-100,4,2,1,70,0,0
71990,311.688311688312,4,2,1,70,1,0
71990,-100,4,2,1,70,0,0
72613,300,4,2,1,70,1,0
72613,-100,4,2,1,70,0,0
72913,352.941176470588,4,2,1,70,1,0
72913,-100,4,2,1,70,0,0
73089,285.714285714286,4,2,1,70,1,0
73089,-100,4,2,1,70,0,0
73231,317.460317460317,4,2,1,70,1,0
73231,-100,4,2,1,70,0,0
73865,320.855614973262,4,2,1,70,1,0
73865,-100,4,2,1,70,0,0
74667,-99.009900990099,4,2,1,70,0,0
74827,315.789473684211,4,2,1,70,1,0
74827,-100,4,2,1,70,0,0
75142,315.789473684211,4,2,1,70,1,0
75142,-100,4,2,1,70,0,0
76720,310.880829015544,4,2,1,70,1,0
76720,-100,4,2,1,70,0,0
77341,306.122448979592,4,2,1,70,1,0
77341,-100,4,2,1,70,0,0
77647,315.789473684211,4,2,1,70,1,0
77647,-100,4,2,1,70,0,0
77962,333.333333333333,4,2,1,70,1,0
77962,-100,4,2,1,70,0,0
78295,303.030303030303,4,2,1,70,1,0
78295,-100,4,2,1,70,0,0
78598,315.789473684211,4,2,1,70,1,0
78598,-100,4,2,1,70,0,0
78913,307.692307692308,4,2,1,65,1,0
78913,-100,4,2,1,65,0,0
78989,-100,4,2,1,45,0,0
79143,-100,4,2,1,55,0,0
79220,-100,4,2,1,65,0,0
79451,-100,4,2,1,45,0,0
79682,333.333333333333,4,2,1,45,1,0
79682,-100,4,2,1,45,0,0
79765,-100,4,2,1,55,0,0
79848,319.148936170213,4,2,1,65,1,0
79848,-100,4,2,1,65,0,0
79927,-100,4,2,1,45,0,0
80007,-100,4,2,1,65,0,0
80167,324.324324324324,4,2,1,65,1,0
80167,-100,4,2,1,65,0,0
80653,-100,4,2,1,66,0,0
81139,315.789473684211,4,2,1,67,1,0
81139,-100,4,2,1,67,0,0
81612,307.692307692308,4,2,1,68,1,0
81612,-100,4,2,1,68,0,0
81919,315.789473684211,4,2,1,68,1,0
81919,-100,4,2,1,68,0,0
82076,-100,4,2,1,69,0,0
82234,324.324324324324,4,2,1,69,1,0
82234,-100,4,2,1,69,0,0
82396,-100,4,2,1,70,0,0
82720,315.789473684211,4,2,1,70,1,0
82720,-100,4,2,1,70,0,0
83193,-100,4,2,1,71,0,0
83509,309.278350515464,4,2,1,71,1,0
83509,-100,4,2,1,71,0,0
83663,310.880829015544,4,2,1,72,1,0
83663,-100,4,2,1,72,0,0
84129,-100,4,2,1,73,0,0
84284,329.67032967033,4,2,1,73,1,0
84284,-100,4,2,1,73,0,0
84613,304.568527918782,4,2,1,74,1,0
84613,-100,4,2,1,74,0,0
85222,322.58064516129,4,2,1,70,1,0
85222,-100,4,2,1,70,0,0
85867,-100,4,2,1,60,0,0
86351,-100,4,2,1,62,0,0
86512,316.622691292876,4,2,1,65,1,0
86512,-100,4,2,1,65,0,0
86670,-100,4,2,1,66,0,0
86828,-100,4,2,1,67,0,0
86986,-100,4,2,1,68,0,0
87145,-100,4,2,1,69,0,0
87303,-100,4,2,1,72,0,0
87778,315.789473684211,4,2,5,50,1,0
87778,-100,4,2,5,50,0,0
89041,-100,4,2,5,55,0,0

[Colours]
Combo1 : 57,203,215
Combo2 : 98,174,174
Combo3 : 138,138,138
Combo4 : 52,118,139

[HitObjects]
77,46,611,6,0,L|64:123,1,70,0|0,0:0|0:0,0:0:0:0:
65,115,1084,2,0,P|107:130|144:221,1,140,2|0,0:0|0:0,0:0:0:0:
103,285,1558,1,2,0:0:0:0:
156,349,1716,1,2,0:0:0:0:
231,312,1874,6,0,L|311:305,1,70,0|0,0:0|0:0,0:0:0:0:
300,305,2347,2,0,L|292:153,1,140,2|0,0:0|0:0,0:0:0:0:
351,104,2821,1,2,0:0:0:0:
424,144,2979,1,2,0:0:0:0:
387,219,3137,6,0,L|301:206,1,70,0|0,0:0|0:0,0:0:0:0:
317,208,3611,2,0,B|264:219|264:219|246:234|246:234|178:246,1,140,2|0,0:0|0:0,0:0:0:0:
105,215,4084,1,2,0:0:0:0:
158,150,4242,1,2,0:0:0:0:
106,83,4400,6,0,L|98:7,1,70,0|0,0:0|0:0,0:0:0:0:
98,13,4874,2,0,P|161:11|217:70,1,140,2|0,0:0|0:0,0:0:0:0:
254,135,5352,1,2,0:0:0:0:
328,96,5512,1,2,0:0:0:0:
254,135,5671,6,0,L|240:214,2,70,0|0|0,1:2|0:0|1:2,0:0:0:0:
209,63,6144,1,2,0:0:0:0:
143,116,6302,2,0,B|97:143|97:143|80:185|107:225,1,140,8|2,1:3|1:2,0:0:0:0:
169,282,6776,1,2,0:0:0:0:
108,340,6934,6,0,L|35:344,2,70,0|0|0,1:2|0:0|1:2,0:0:0:0:
169,282,7407,1,2,0:0:0:0:
169,282,7486,1,0,0:0:0:0:
169,282,7565,2,0,P|181:248|179:209,1,70,8|0,1:3|0:0,0:0:0:0:
111,165,7881,2,0,P|99:199|101:238,1,70,2|2,1:2|0:0,0:0:0:0:
225,147,8197,5,0,1:2:0:0:
266,220,8355,2,0,L|344:202,1,70,0|0,0:0|1:2,0:0:0:0:
395,262,8671,1,2,0:0:0:0:
465,216,8828,2,0,P|482:169|475:74,1,140,8|2,1:3|1:2,0:0:0:0:
404,37,9302,1,2,0:0:0:0:
337,88,9460,6,0,L|353:169,2,70,0|0|0,1:2|0:0|1:2,0:0:0:0:
266,41,9934,1,2,0:0:0:0:
266,41,10013,1,0,0:0:0:0:
266,41,10092,2,0,P|228:42|193:58,1,70,8|0,1:3|0:0,0:0:0:0:
186,137,10407,2,0,P|224:136|259:120,1,70,2|2,1:2|0:0,0:0:0:0:
105,68,10723,6,0,B|86:115|86:115|94:230,1,140,6|0,1:3|1:2,0:0:0:0:
169,237,11197,1,0,0:0:0:0:
105,291,11355,2,0,P|60:285|13:198,1,140,10|0,1:3|1:2,0:0:0:0:
38,130,11828,1,0,0:0:0:0:
119,151,11986,5,2,1:2:0:0:
243,38,12302,1,0,1:2:0:0:
318,75,12460,2,0,L|325:117,2,35,0|0|10,0:0|0:0|1:3,0:0:0:0:
386,24,12776,1,0,0:0:0:0:
450,77,12934,2,0,L|433:155,1,70,2|2,1:2|0:0,0:0:0:0:
468,270,13249,6,0,P|435:293|337:295,1,140,2|0,1:2|1:2,0:0:0:0:
278,236,13723,1,0,0:0:0:0:
229,305,13881,2,0,L|212:167,1,140,10|0,1:3|1:2,0:0:0:0:
171,91,14355,1,0,0:0:0:0:
91,118,14513,5,2,1:2:0:0:
38,277,14828,1,0,1:2:0:0:
78,350,14986,1,2,0:0:0:0:
78,350,15065,1,0,0:0:0:0:
78,350,15144,2,0,L|151:336,1,70,10|0,1:3|0:0,0:0:0:0:
217,383,15460,2,0,P|227:326|180:258,1,140,2|0,1:2|1:2,0:0:0:0:
291,147,15934,6,0,L|304:73,2,70,2|0|2,0:0|1:2|0:0,0:0:0:0:
219,190,16407,2,0,P|265:227|352:203,1,140,10|2,1:3|1:2,0:0:0:0:
383,141,16881,1,2,0:0:0:0:
462,169,17039,2,0,L|480:254,1,70,2|0,1:2|0:0,0:0:0:0:
444,315,17355,2,0,L|359:333,1,70,2|2,1:2|0:0,0:0:0:0:
303,374,17671,2,0,B|292:313|292:313|301:287|301:287|292:231,1,140,10|2,1:3|1:2,0:0:0:0:
330,73,18302,6,0,P|262:65|200:100,1,140,2|0,1:2|1:2,0:0:0:0:
37,60,18934,2,0,P|64:122|125:159,1,140,10|0,1:3|1:2,0:0:0:0:
172,320,19565,2,0,P|212:265|213:193,1,140,2|0,1:2|1:2,0:0:0:0:
249,119,20039,1,0,0:0:0:0:
249,119,20118,1,0,0:0:0:0:
249,119,20197,2,0,L|238:44,1,70,10|0,1:3|0:0,0:0:0:0:
322,35,20513,2,0,L|333:110,1,70,0|0,1:2|0:0,0:0:0:0:
459,166,20828,6,0,P|480:233|459:301,1,140,2|0,1:2|1:2,0:0:0:0:
400,357,21302,1,0,0:0:0:0:
323,322,21460,2,0,L|172:337,1,140,10|0,1:3|1:2,0:0:0:0:
104,366,21934,1,0,0:0:0:0:
84,284,22092,1,2,1:3:0:0:
181,146,22407,5,0,1:2:0:0:
241,204,22565,2,0,L|284:194,1,35,0|0,0:0|0:0,0:0:0:0:
316,206,22723,2,0,L|326:120,1,70,10|2,1:3|0:0,0:0:0:0:
408,140,23039,2,0,L|398:54,1,70,0|0,1:2|0:0,0:0:0:0:
266,13,23355,6,0,P|209:-1|147:58,1,140,2|0,1:2|1:2,0:0:0:0:
134,129,23828,1,0,0:0:0:0:
61,171,23986,2,0,B|137:160|106:215|206:201,1,140,10|0,1:3|1:2,0:0:0:0:
235,275,24460,1,0,0:0:0:0:
283,206,24618,1,2,1:3:0:0:
388,75,24934,5,0,1:2:0:0:
456,124,25092,1,0,0:0:0:0:
456,124,25171,1,0,0:0:0:0:
456,124,25249,2,0,L|442:204,1,70,10|0,1:3|0:0,0:0:0:0:
490,263,25565,2,0,P|436:238|366:270,1,140,2|0,1:2|1:2,0:0:0:0:
248,362,26039,5,0,0:0:0:0:
166,339,26197,1,2,1:2:0:0:
189,257,26355,1,2,0:0:0:0:
271,280,26513,2,0,B|288:207|288:207|259:135,1,140,10|2,1:3|1:2,0:0:0:0:
202,90,26986,1,2,0:0:0:0:
202,90,27065,1,0,0:0:0:0:
202,90,27144,2,0,L|132:105,1,70,2|2,1:2|0:0,0:0:0:0:
49,100,27460,2,0,L|64:170,1,70,2|0,1:2|0:0,0:0:0:0:
10,234,27776,2,0,P|57:250|134:204,1,140,10|2,1:3|1:2,0:0:0:0:
228,345,28407,6,0,B|286:301|286:301|353:305,1,140,2|0,1:2|1:2,0:0:0:0:
508,238,29039,2,0,B|440:209|440:209|410:149,1,140,10|0,1:3|1:2,0:0:0:0:
275,49,29671,2,0,B|284:121|284:121|247:177,1,140,2|2,1:2|1:2,0:0:0:0:
204,249,30145,1,2,0:0:0:0:
204,249,30224,1,2,0:0:0:0:
204,249,30304,2,0,L|122:238,1,70,10|0,1:3|0:0,0:0:0:0:
76,178,30622,2,0,L|87:96,1,70,0|0,1:2|0:0,0:0:0:0:
101,29,30940,6,0,P|146:52|163:116,1,105.000004005432,2|0,0:0|0:0,0:0:0:0:
215,167,31434,1,2,0:0:0:0:
215,167,31862,2,0,L|275:159,1,52.5000020027161,2|0,0:0|0:0,0:0:0:0:
350,146,32225,1,2,0:0:0:0:
481,282,32540,1,2,0:0:0:0:
481,282,32706,1,2,0:0:0:0:
481,282,33459,6,0,B|441:319|441:319|385:310,1,105.000004005432,2|0,0:0|0:0,0:0:0:0:
312,296,33953,1,2,0:0:0:0:
312,296,34254,2,0,L|325:367,2,52.5000020027161,2|0|2,0:0|0:0|0:0,0:0:0:0:
245,249,34727,2,0,P|265:188|317:168,1,105.000004005432,2|2,0:0|0:0,0:0:0:0:
380,191,35201,2,0,L|452:178,1,52.5000020027161,2|0,0:0|0:0,0:0:0:0:
472,259,35513,5,2,1:2:0:0:
472,259,35674,2,0,P|426:299|381:299,1,105,12|0,0:0|0:0,0:0:0:0:
354,329,35988,6,0,L|362:247,1,70,0|0,1:2|1:2,0:0:0:0:
338,178,36303,2,0,P|285:165|220:220,1,140,10|2,0:2|1:2,0:0:0:0:
258,290,36777,1,0,1:2:0:0:
190,341,36935,1,10,0:2:0:0:
113,296,37090,2,0,L|38:308,1,70,2|0,0:2|1:2,0:0:0:0:
43,223,37403,2,0,L|118:211,1,70,2|8,1:2|0:2,0:0:0:0:
155,139,37719,1,2,0:2:0:0:
238,151,37877,1,2,1:2:0:0:
271,228,38035,2,0,L|259:310,2,70,0|8|0,1:2|0:2|0:0,0:0:0:0:
431,222,38509,5,0,1:2:0:0:
474,149,38666,1,0,1:2:0:0:
456,62,38823,2,0,P|421:71|394:99,1,70,10|0,0:2|0:0,0:0:0:0:
389,178,39124,2,0,L|413:253,1,70,2|0,1:2|1:2,0:0:0:0:
363,314,39443,2,0,L|233:300,1,105,10|0,0:2|0:0,0:0:0:0:
216,299,39762,5,6,1:2:0:0:
147,347,39921,1,0,1:2:0:0:
216,299,40080,2,0,L|204:228,1,70,12|0,0:2|1:2,0:0:0:0:
199,51,40398,2,0,L|128:63,1,70,14|0,0:2|1:2,0:0:0:0:
81,131,40716,1,12,0:2:0:0:
130,199,40876,1,8,0:2:0:0:
130,199,40955,1,8,0:2:0:0:
130,199,41035,6,0,L|111:278,2,70,2|0|2,0:0|0:0|0:0,0:0:0:0:
201,152,41521,1,2,0:0:0:0:
371,366,42030,2,0,L|429:356,1,52.5000020027161,2|0,0:0|0:0,0:0:0:0:
480,294,42342,2,0,P|482:236|452:193,1,105.000004005432,2|0,0:0|0:0,0:0:0:0:
293,207,42950,1,2,0:0:0:0:
229,71,43286,1,2,0:0:0:0:
71,76,43610,6,0,P|63:129|97:195,1,105.000004005432,2|0,0:0|0:0,0:0:0:0:
201,242,44197,1,0,0:0:0:0:
330,182,44513,1,2,0:0:0:0:
358,320,44851,2,0,L|254:314,1,105.000004005432,2|0,0:0|0:0,0:0:0:0:
96,297,45471,1,2,0:0:0:0:
96,297,46091,5,4,1:2:0:0:
96,297,46248,1,0,1:2:0:0:
159,242,46406,2,0,L|141:126,1,105,10|0,0:2|0:0,0:0:0:0:
132,97,46722,2,0,P|92:84|59:92,1,70,2|0,1:2|1:2,0:0:0:0:
15,157,47038,1,10,0:2:0:0:
33,239,47196,6,0,L|23:319,1,70,2|0,0:2|1:2,0:0:0:0:
106,326,47515,2,0,L|116:246,1,70,2|8,1:2|0:2,0:0:0:0:
183,208,47832,1,2,0:0:0:0:
220,281,47988,1,2,1:2:0:0:
300,260,48146,2,0,L|377:245,1,70,2|8,1:2|0:2,0:0:0:0:
432,301,48464,1,0,0:0:0:0:
489,176,48622,6,0,P|445:130|361:130,1,140,2|10,1:2|0:2,0:0:0:0:
312,184,49091,1,0,0:0:0:0:
241,135,49248,1,2,1:2:0:0:
180,192,49401,2,0,L|191:236,2,35,8|8|0,0:0|0:0|0:0,0:0:0:0:
109,154,49709,1,8,0:0:0:0:
109,154,49786,1,8,0:0:0:0:
109,154,49863,6,0,L|122:86,1,70,6|0,1:2|0:0,0:0:0:0:
38,89,50187,2,0,L|51:21,1,70,12|0,0:0|1:0,0:0:0:0:
192,23,50511,2,0,L|209:94,1,70,14|0,0:0|1:0,0:0:0:0:
282,52,50835,2,0,L|299:123,1,70,12|0,0:0|0:0,0:0:0:0:
380,137,51143,5,8,1:2:0:0:
419,270,51300,1,10,1:2:0:0:
419,270,51603,5,10,1:2:0:0:
304,348,51760,1,10,1:2:0:0:
304,348,52086,5,10,1:2:0:0:
194,262,52246,1,4,1:2:0:0:
194,262,52568,5,8,0:0:0:0:
241,130,52729,1,2,1:2:0:0:
241,130,53033,6,0,L|220:47,1,70,8|0,0:0|1:0,0:0:0:0:
132,60,53366,1,12,0:0:0:0:
111,59,53441,1,2,0:0:0:0:
90,54,53516,1,2,0:0:0:0:
72,41,53591,1,2,0:0:0:0:
56,29,53666,6,0,L|79:173,1,140,6|10,1:2|0:0,0:0:0:0:
54,247,54139,2,0,P|104:247|127:235,1,70,2|0,0:0|1:0,0:0:0:0:
163,165,54455,2,0,L|244:181,1,70,2|8,1:2|0:0,0:0:0:0:
345,260,54771,6,0,P|362:220|352:116,1,140,6|2,1:2|1:2,0:0:0:0:
306,57,55244,1,8,0:0:0:0:
376,10,55402,2,0,L|456:25,1,70,2|0,0:0|1:0,0:0:0:0:
481,98,55718,2,0,P|484:141|470:173,1,70,2|8,1:2|0:0,0:0:0:0:
413,224,56034,1,8,0:0:0:0:
413,224,56113,1,8,0:0:0:0:
413,224,56192,5,2,1:2:0:0:
473,281,56350,1,0,1:0:0:0:
393,307,56508,2,0,L|319:289,1,70,10|0,0:0|0:0,0:0:0:0:
271,225,56823,2,0,L|256:150,2,70,2|0|10,1:2|1:0|0:0,0:0:0:0:
244,305,57297,1,0,0:0:0:0:
91,348,57455,5,2,1:2:0:0:
173,363,57613,2,0,L|162:285,1,70,2|8,1:2|0:0,0:0:0:0:
92,141,57929,2,0,P|62:205|94:271,1,140,2|0,0:0|1:0,0:0:0:0:
143,202,58402,2,0,L|219:183,1,70,12|0,0:0|0:0,0:0:0:0:
350,148,58718,5,4,1:3:0:0:
350,148,58876,1,0,1:0:0:0:
420,193,59034,2,0,L|405:271,1,70,6|12,0:3|0:0,0:0:0:0:
385,343,59350,2,0,L|307:358,1,70,2|12,0:0|0:0,0:0:0:0:
232,364,59647,1,2,0:0:0:0:
158,265,59787,6,0,P|206:284|228:375,1,140,6|0,1:2|1:0,0:0:0:0:
148,349,60279,2,0,B|70:369|96:316|4:342,1,140,8|2,0:0|1:2,0:0:0:0:
20,255,60758,1,0,1:0:0:0:
69,186,60917,2,0,L|58:109,1,70,14|2,0:0|0:0,0:0:0:0:
27,38,61237,5,4,1:2:0:0:
145,108,61394,2,0,L|190:98,2,35,8|8|8,0:0|0:0|0:0,0:0:0:0:
63,206,61710,2,0,L|75:282,1,70,4|8,1:3|0:0,0:0:0:0:
73,275,61947,1,8,0:0:0:0:
73,275,62026,1,8,0:3:0:0:
140,327,62184,1,0,1:0:0:0:
19,340,62342,6,0,P|68:363|142:322,1,140,4|2,1:2|1:2,0:0:0:0:
225,233,62827,1,10,0:0:0:0:
332,299,62984,1,2,0:0:0:0:
345,315,63063,1,8,0:0:0:0:
359,330,63142,2,0,L|397:312,3,35,6|0|10|8,1:3|1:0|0:3|0:3,0:0:0:0:
421,280,63458,2,0,L|459:262,3,35,8|8|8|8,1:2|0:0|0:0|0:0,0:0:0:0:
480,228,63774,6,0,P|501:177|464:93,1,140,6|10,1:2|0:0,0:0:0:0:
421,167,64247,1,2,1:2:0:0:
350,121,64405,2,0,L|269:140,1,70,8|2,0:0|1:2,0:0:0:0:
279,221,64721,2,0,L|360:202,1,70,8|2,0:0|1:2,0:0:0:0:
424,286,65037,6,0,P|437:335|431:372,1,70,8|2,0:0|1:2,0:0:0:0:
351,365,65352,2,0,P|338:316|344:279,1,70,8|2,0:0|1:2,0:0:0:0:
327,172,65668,6,0,L|338:94,1,70,8|2,0:0|1:2,0:0:0:0:
254,87,65984,2,0,L|243:165,1,70,8|2,0:0|1:2,0:0:0:0:
166,260,66300,5,10,0:0:0:0:
85,283,66458,1,0,1:0:0:0:
144,342,66616,2,0,P|180:344|218:329,1,70,10|0,0:0|1:0,0:0:0:0:
273,274,66931,1,10,0:0:0:0:
233,199,67089,1,10,0:3:0:0:
233,199,67168,1,8,0:3:0:0:
233,199,67247,2,0,L|242:156,3,35,10|8|10|8,1:2|0:0|0:0|0:0,0:0:0:0:
252,123,67563,6,0,P|190:141|125:95,1,140,6|0,1:2|1:0,0:0:0:0:
17,229,68037,2,0,B|79:219|79:219|109:233|109:233|168:222,1,140,10|0,0:0|1:0,0:0:0:0:
74,372,68510,2,0,L|57:299,1,70,10|0,0:0|0:0,0:0:0:0:
125,146,68826,6,0,L|139:76,2,70,6|8|4,1:3|0:0|1:3,0:0:0:0:
125,146,69458,2,0,P|162:171|258:153,1,140,12|4,0:0|0:3,0:0:0:0:
306,93,69931,1,8,0:0:0:0:
306,93,70010,1,8,0:0:0:0:
306,93,70089,6,0,L|392:110,1,70,6|8,1:3|0:0,0:0:0:0:
457,122,70405,1,4,0:3:0:0:
457,122,70721,2,0,P|476:173|458:254,1,140,12|0,0:0|1:0,0:0:0:0:
418,329,71195,1,10,0:0:0:0:
418,329,71274,1,8,0:0:0:0:
418,329,71352,5,6,1:2:0:0:
341,293,71511,2,0,L|331:211,1,70,0|4,0:0|0:3,0:0:0:0:
332,223,71990,2,0,L|201:208,1,105,12|8,0:0|0:3,0:0:0:0:
215,170,72301,2,0,L|226:122,3,35,8|8|8|8,1:2|0:0|0:0|0:0,0:0:0:0:
201,97,72613,6,0,L|128:107,1,70,6|8,1:2|0:0,0:0:0:0:
132,106,72838,1,8,0:0:0:0:
132,106,72913,1,8,0:3:0:0:
77,180,73089,1,0,1:0:0:0:
134,246,73231,2,0,L|122:326,1,70,8|0,0:0|1:0,0:0:0:0:
41,331,73548,2,0,L|53:251,1,70,8|0,0:0|0:0,0:0:0:0:
51,261,73786,1,8,0:0:0:0:
51,261,73865,5,6,1:2:0:0:
134,246,74025,1,8,0:0:0:0:
216,230,74185,1,4,0:3:0:0:
216,230,74506,1,12,0:0:0:0:
260,301,74667,2,0,L|403:263,1,140,0|4,1:0|1:2,0:0:0:0:
474,240,75142,5,6,1:2:0:0:
428,168,75299,2,0,L|424:86,1,70,8|0,0:0|0:0,0:0:0:0:
340,91,75615,1,0,1:0:0:0:
340,91,75694,1,0,1:0:0:0:
340,91,75773,2,0,L|344:173,1,70,8|0,0:0|1:0,0:0:0:0:
282,220,76089,1,12,0:0:0:0:
203,188,76247,2,0,L|153:197,2,35,2|0|6,1:2|1:0|1:3,0:0:0:0:
224,106,76563,5,0,0:0:0:0:
163,46,76720,1,0,1:0:0:0:
143,127,76875,2,0,P|92:95|83:21,1,140,8|0,0:0|1:0,0:0:0:0:
163,46,77341,2,0,L|239:57,1,70,8|0,0:0|1:0,0:0:0:0:
312,69,77647,1,8,0:0:0:0:
312,69,77962,6,0,L|391:53,1,70,6|8,1:3|0:0,0:0:0:0:
439,121,78295,2,0,L|413:197,1,70,2|0,0:3|1:0,0:0:0:0:
330,204,78598,2,0,L|276:143,1,70,14|0,0:0|0:0,0:0:0:0:
227,86,78913,5,14,1:3:0:0:
163,140,79066,1,8,0:3:0:0:
92,94,79220,1,8,0:0:0:0:
92,94,79297,1,8,0:0:0:0:
92,94,79374,2,0,L|19:117,1,70,8|8,1:3|0:3,0:0:0:0:
25,236,79682,1,8,0:0:0:0:
38,251,79765,1,8,0:0:0:0:
52,267,79848,2,0,L|45:316,3,35,8|8|8|8,1:3|0:3|0:0|0:0,0:0:0:0:
61,340,80167,6,0,L|142:327,1,70,6|2,1:2|0:0,0:0:0:0:
205,365,80491,1,2,1:2:0:0:
267,309,80653,2,0,P|281:259|268:172,1,140,14|0,0:0|1:0,0:0:0:0:
206,112,81139,6,0,L|216:20,2,70,14|2|2,0:0|1:2|1:2,0:0:0:0:
139,166,81612,2,0,L|150:254,1,70,14|0,0:0|1:0,0:0:0:0:
218,275,81919,1,0,1:0:0:0:
279,331,82076,2,0,P|297:300|296:260,1,70,14|0,0:0|1:0,0:0:0:0:
376,236,82396,2,0,P|353:201|323:185,1,70,14|0,0:0|1:0,0:0:0:0:
338,27,82720,5,14,0:0:0:0:
273,79,82877,1,2,1:2:0:0:
208,25,83035,1,2,1:2:0:0:
147,83,83193,2,0,B|175:136|175:136|171:161|171:161|199:216,1,140,14|0,0:0|1:0,0:0:0:0:
278,226,83663,6,0,L|359:204,2,70,14|2|2,0:0|1:2|1:2,0:0:0:0:
223,294,84129,1,14,0:0:0:0:
140,269,84284,2,0,L|119:189,1,70,2|2,1:2|1:2,0:0:0:0:
37,197,84613,2,0,B|9:126|9:126|21:57,1,140,12|0,0:0|0:0,0:0:0:0:
173,41,85222,6,0,B|256:50|256:50|280:69|280:69|332:74|332:74|360:59|360:59|456:63,1,280,6|2,1:2|0:0,0:0:0:0:
458,354,86351,1,0,1:0:0:0:
458,354,86431,1,0,1:0:0:0:
458,354,86512,6,0,L|382:341,1,70,10|8,1:3|0:3,0:0:0:0:
333,229,86828,2,0,L|257:242,1,70,8|8,0:3|0:3,0:0:0:0:
179,335,87145,1,10,1:3:0:0:
89,246,87303,1,12,1:2:0:0:
89,246,87778,6,0,L|96:175,1,70,2|0,0:0|0:0,0:0:0:0:
95,176,88251,2,0,P|129:146|127:53,1,140,2|0,0:0|0:0,0:0:0:0:
57,101,88725,1,2,0:0:0:0:
57,101,88883,1,2,0:0:0:0:
