osu file format v14

[General]
AudioFilename: audio.mp3
AudioLeadIn: 0
PreviewTime: 52897
Countdown: 1
SampleSet: None
StackLeniency: 0.7
Mode: 0
LetterboxInBreaks: 0
WidescreenStoryboard: 1

[Editor]
Bookmarks: 30464,39306,50675,50833,51149,51306,51622,51780,52096,52254,53201,54306,55727,60149,68359,69306,69622,70570,70885,72096,72149,73359,77201,79727,82254,82885,86043,86675
DistanceSpacing: 3
BeatDivisor: 4
GridSize: 4
TimelineZoom: 2.699999

[Metadata]
Title:Redo (TV Size)
TitleUnicode:Redo (TV Size)
Artist:Suzuki Konomi
ArtistUnicode:鈴木このみ
Creator:GAVlN
Version:Insane
Source:Anime OP Opening Re:ゼロから始める異世界生活
Tags:Re: Zero kara Hajimeru Isekai Seikatsu
BeatmapID:1899323
BeatmapSetID:910163

[Difficulty]
HPDrainRate:3
CircleSize:3.4
OverallDifficulty:8
ApproachRate:9.2
SliderMultiplier:1.4
SliderTickRate:1

[Events]
//Background and Video events
0,0,"Background.jpg",0,0
//Break Periods
//Storyboard Layer 0 (Background)
//Storyboard Layer 1 (Fail)
//Storyboard Layer 2 (Pass)
//Storyboard Layer 3 (Foreground)
//Storyboard Sound Samples

[TimingPoints]
161,315.789473684211,4,3,0,100,1,0
1096,-133.333333333333,4,3,0,100,0,0
1885,-100,4,3,0,100,0,0
2359,-133.333333333333,4,3,0,100,0,0
3149,-100,4,3,0,100,0,0
3622,-133.333333333333,4,3,0,100,0,0
4412,-100,4,3,0,100,0,0
4885,-133.333333333333,4,3,0,100,0,0
5201,-100,4,3,0,100,0,0
6149,-66.6666666666667,4,3,0,100,0,0
6938,-100,4,3,0,100,0,0
17833,-133.333333333333,4,3,0,100,0,0
19252,-100,4,3,0,100,0,0
20991,-133.333333333333,4,3,0,100,0,0
27938,-166.666666666667,4,3,0,100,0,0
28570,-200,4,3,0,100,0,0
29517,-133.333333333333,4,3,0,100,0,0
30464,-200,4,3,0,100,0,0
35517,-100,4,3,0,100,0,0
40570,-200,4,3,0,100,0,0
44043,-133.333333333333,4,3,0,100,0,0
45938,-100,4,3,0,100,0,0
59359,-200,4,3,0,100,0,0
60780,-100,4,3,0,100,0,0
68359,-200,4,3,0,100,0,0
72096,-200,4,3,0,5,0,0
72149,-200,4,3,0,100,0,0
73359,-200,4,3,0,5,0,0
73412,-200,4,3,0,100,0,0
74622,-200,4,3,0,5,0,0
74675,-200,4,3,0,100,0,0
75727,-200,4,3,0,5,0,0
75780,-200,4,3,0,100,0,0
75885,-200,4,3,0,5,0,0
75938,-200,4,3,0,100,0,0
77201,-200,4,3,0,5,0,0
77517,-133.333333333333,4,3,0,100,0,0
77833,-100,4,3,0,100,0,0
78149,-80,4,3,0,100,0,0
78464,-66.6666666666667,4,3,0,100,0,0
81464,-133.333333333333,4,3,0,100,0,0
87306,-100,4,3,0,100,0,0

[HitObjects]
496,370,149,5,0,0:0:0:0:
496,370,306,1,0,0:0:0:0:
467,279,622,6,0,P|435:304|336:308,1,140,0|0,0:0|0:0,0:0:0:0:
392,236,1096,2,0,P|352:235|331:227,1,52.5000020027161
16,370,1412,5,0,0:0:0:0:
16,370,1569,1,0,0:0:0:0:
45,279,1885,6,0,P|77:304|176:308,1,140
120,236,2359,2,0,P|160:235|181:227,1,52.5000020027161
16,14,2675,5,0,0:0:0:0:
16,14,2832,1,0,0:0:0:0:
45,105,3149,6,0,P|77:80|176:76,1,140
120,148,3622,2,0,P|160:149|181:157,1,52.5000020027161
496,14,3938,5,0,0:0:0:0:
496,14,4095,1,0,0:0:0:0:
467,105,4412,6,0,P|435:80|336:76,1,140
392,148,4885,2,0,P|352:149|331:157,1,52.5000020027161
304,116,5201,6,0,B|284:128|284:128|316:147|316:147|292:157|292:157|319:158|319:158|303:167|303:167|332:175,1,140
306,251,5675,1,0,0:0:0:0:
179,309,5833,2,0,P|147:272|150:244,1,70,0|0,0:0|0:0,0:0:0:0:
156,378,6149,2,0,P|94:330|82:284,1,105.000004005432,0|0,0:0|0:0,0:0:0:0:
153,255,6464,5,0,0:0:0:0:
267,226,6622,1,0,0:0:0:0:
223,344,6780,1,0,0:0:0:0:
193,209,6938,1,0,0:0:0:0:
193,209,6991,1,0,0:0:0:0:
193,209,7043,1,0,0:0:0:0:
270,169,7254,6,0,P|332:175|351:194,1,70,0|0,0:0|0:0,0:0:0:0:
389,262,7570,1,0,0:0:0:0:
307,316,7727,2,0,P|265:299|244:261,1,70,0|0,0:0|0:0,0:0:0:0:
209,190,8043,1,0,0:0:0:0:
317,222,8201,5,0,0:0:0:0:
317,222,8254,1,0,0:0:0:0:
317,222,8306,1,0,0:0:0:0:
397,240,8517,1,0,0:0:0:0:
323,335,8675,1,0,0:0:0:0:
250,265,8833,1,0,0:0:0:0:
158,301,8991,2,0,P|184:346|200:356,1,70
264,304,9306,1,0,0:0:0:0:
249,195,9464,5,0,0:0:0:0:
249,195,9517,1,0,0:0:0:0:
249,195,9569,1,0,0:0:0:0:
136,193,9780,2,0,P|125:235|151:273,1,70
255,329,10096,1,0,0:0:0:0:
361,324,10254,6,0,P|420:316|475:244,1,140
368,196,10727,1,0,0:0:0:0:
289,171,10885,2,0,P|223:183|192:243,1,140
285,285,11359,1,0,0:0:0:0:
168,345,11517,2,0,P|139:327|123:277,1,70
69,193,11833,1,0,0:0:0:0:
165,138,11991,1,0,0:0:0:0:
453,312,12149,5,0,0:0:0:0:
389,221,12306,1,0,0:0:0:0:
275,337,12464,5,0,0:0:0:0:
380,293,12621,1,0,0:0:0:0:
340,171,12780,6,0,P|328:226|256:275,1,140
186,186,13254,1,0,0:0:0:0:
269,267,13412,2,0,P|305:271|388:206,1,140
303,185,13885,2,0,P|262:181|246:153,1,70
251,58,14201,1,0,0:0:0:0:
204,214,14359,5,0,0:0:0:0:
300,118,14517,1,0,0:0:0:0:
368,241,14675,2,0,P|355:275|257:287,1,140
183,224,15149,1,0,0:0:0:0:
464,339,15306,5,0,0:0:0:0:
425,239,15464,1,0,0:0:0:0:
129,303,15622,5,0,0:0:0:0:
274,251,15780,1,0,0:0:0:0:
464,339,15938,5,0,0:0:0:0:
441,192,16096,2,0,L|386:145,2,70
464,339,16570,1,0,0:0:0:0:
331,315,16727,1,0,0:0:0:0:
307,177,16885,6,0,P|273:171|245:149,2,70
399,287,17359,1,0,0:0:0:0:
288,249,17517,1,0,0:0:0:0:
315,144,17675,1,0,0:0:0:0:
415,203,17833,2,0,P|412:255|373:293,1,105.000004005432
336,148,18464,2,0,P|298:206|261:216,2,105.000004005432
360,45,19412,2,0,P|278:36|218:67,1,140
149,146,20043,1,0,0:0:0:0:
64,318,20359,6,0,P|98:334|198:314,1,140
126,248,20991,2,0,P|157:211|315:204,1,210.000008010865
425,316,21938,1,0,0:0:0:0:
211,323,22254,5,0,0:0:0:0:
106,323,22412,1,0,0:0:0:0:
211,218,22570,1,0,0:0:0:0:
106,218,22727,1,0,0:0:0:0:
42,146,22885,6,0,P|94:103|139:110,1,105.000004005432
113,193,23517,2,0,P|176:213|300:142,1,210.000008010865
315,47,24306,2,0,L|370:55,2,52.5000020027161
212,55,24780,5,0,0:0:0:0:
271,255,25096,1,0,0:0:0:0:
101,152,25412,6,0,P|113:184|139:203,1,52.5000020027161
278,258,25727,1,0,0:0:0:0:
214,215,25885,1,0,0:0:0:0:
204,305,26043,1,0,0:0:0:0:
374,153,26201,2,0,P|379:182|352:207,1,52.5000020027161
331,280,26517,1,0,0:0:0:0:
267,216,26675,6,0,P|245:201|240:168,1,52.5000020027161
292,102,26991,1,0,0:0:0:0:
224,32,27149,1,0,0:0:0:0:
184,119,27306,2,0,P|166:148|171:169,1,52.5000020027161
200,264,27622,1,0,0:0:0:0:
293,256,27780,1,0,0:0:0:0:
392,282,27938,6,0,P|400:302|369:360,1,83.9999974365235
315,309,28570,2,0,P|279:286|267:187,1,140
264,85,29517,2,0,L|224:119,1,52.5000020027161
331,36,29833,1,0,0:0:0:0:
384,134,29991,1,0,0:0:0:0:
295,114,30149,1,0,0:0:0:0:
438,88,30464,6,0,P|435:130|424:162,1,70
389,226,30938,2,0,P|374:246|330:267,1,70
240,262,31412,1,0,0:0:0:0:
191,357,31570,1,0,0:0:0:0:
123,282,31727,2,0,P|93:257|80:222,1,70
91,150,32201,2,0,P|107:120|175:96,1,105
104,340,32991,6,0,P|140:333|160:303,1,70
94,273,33464,2,0,P|88:239|103:198,1,70
235,252,34096,1,0,0:0:0:0:
333,166,34254,2,0,P|369:173|385:205,1,70
319,232,34727,2,0,P|315:269|334:302,1,70
420,338,35201,1,0,0:0:0:0:
391,255,35359,1,0,0:0:0:0:
316,333,35517,6,0,P|289:341|236:317,1,70
292,145,35833,1,0,0:0:0:0:
255,252,35991,1,0,0:0:0:0:
222,144,36149,1,0,0:0:0:0:
313,212,36306,1,0,0:0:0:0:
200,210,36464,2,0,P|165:232|126:240,1,70
46,242,36780,2,0,P|43:179|54:168,1,70
127,147,37096,1,0,0:0:0:0:
201,223,37254,5,0,0:0:0:0:
245,152,37412,1,0,0:0:0:0:
305,230,37570,2,0,P|347:227|384:199,1,70
455,173,37885,1,0,0:0:0:0:
503,239,38043,1,0,0:0:0:0:
374,220,38201,1,0,0:0:0:0:
446,250,38359,2,0,P|420:281|377:301,1,70
374,220,38675,2,0,P|351:246|310:254,1,70
240,122,38991,2,0,P|220:180|208:200,1,70
454,340,39306,5,0,0:0:0:0:
395,248,39464,1,0,0:0:0:0:
328,352,39622,5,0,0:0:0:0:
418,286,39780,1,0,0:0:0:0:
88,345,39938,5,0,0:0:0:0:
166,246,40096,1,0,0:0:0:0:
237,374,40254,5,0,0:0:0:0:
137,269,40412,1,0,0:0:0:0:
178,227,40570,6,0,P|201:248|239:247,1,70
327,208,41043,2,0,P|366:228|431:240,1,105
496,339,41675,1,0,0:0:0:0:
400,351,41833,2,0,P|365:346|314:254,1,140
316,163,42780,1,0,0:0:0:0:
328,65,43096,2,0,P|279:67|227:138,1,140
132,80,44043,2,0,P|110:101|107:130,1,52.5000020027161
186,135,44359,2,0,P|198:181|105:303,2,210.000008010865
80,46,45780,5,0,0:0:0:0:
113,139,45938,2,0,P|112:195|124:228,1,70
169,277,46254,1,0,0:0:0:0:
241,320,46412,2,0,P|288:328|318:318,1,70
364,242,46727,1,0,0:0:0:0:
397,179,46885,2,0,P|401:126|395:105,1,70
302,195,47201,5,0,0:0:0:0:
258,97,47359,2,0,L|226:173,2,70
359,242,47833,5,0,0:0:0:0:
294,134,47991,1,0,0:0:0:0:
227,286,48149,5,0,0:0:0:0:
308,182,48306,1,0,0:0:0:0:
411,305,48464,5,0,0:0:0:0:
305,224,48622,1,0,0:0:0:0:
265,326,48780,5,0,0:0:0:0:
369,208,48938,1,0,0:0:0:0:
392,334,49096,5,0,0:0:0:0:
243,179,49254,1,0,0:0:0:0:
347,175,49412,6,0,P|352:213|287:283,1,140
273,200,50043,2,0,P|229:223|203:312,1,140
314,350,50517,1,0,0:0:0:0:
476,227,50675,5,0,0:0:0:0:
274,166,50833,1,0,0:0:0:0:
56,269,51149,5,0,0:0:0:0:
257,213,51306,1,0,0:0:0:0:
461,312,51622,5,0,0:0:0:0:
269,226,51780,1,0,0:0:0:0:
298,280,52096,5,0,0:0:0:0:
49,290,52254,2,0,L|88:291,3,35
101,212,52570,2,0,L|140:213,3,35
166,291,52885,2,0,L|205:292,3,35
399,266,53201,5,0,0:0:0:0:
328,160,53359,1,0,0:0:0:0:
271,330,53517,5,0,0:0:0:0:
211,214,53675,1,0,0:0:0:0:
110,319,53833,5,0,0:0:0:0:
231,190,53991,1,0,0:0:0:0:
271,330,54149,5,0,0:0:0:0:
132,48,54306,2,0,P|95:83|93:110,1,70
110,319,54622,5,0,0:0:0:0:
252,167,54780,1,0,0:0:0:0:
236,338,54938,6,0,P|245:291|273:259,1,70
336,216,55254,1,0,0:0:0:0:
239,47,55412,2,0,P|192:81|176:105,1,70
304,129,55727,5,0,0:0:0:0:
255,272,55885,1,0,0:0:0:0:
211,127,56043,1,0,0:0:0:0:
332,218,56201,1,0,0:0:0:0:
181,216,56359,1,0,0:0:0:0:
353,122,56517,5,0,0:0:0:0:
220,306,56675,1,0,0:0:0:0:
220,79,56833,1,0,0:0:0:0:
353,263,56991,1,0,0:0:0:0:
137,192,57149,1,0,0:0:0:0:
86,130,57306,2,0,L|75:96,6,23.3333333333333
166,192,57780,2,0,P|198:215|227:200,1,70
306,139,58096,1,0,0:0:0:0:
326,60,58254,2,0,P|369:61|406:83,1,70
442,132,58570,6,0,P|438:187|365:252,1,140
287,273,59201,1,0,0:0:0:0:
204,104,59359,2,0,P|169:121|112:243,1,175
194,355,60464,1,0,0:0:0:0:
324,280,60622,1,0,0:0:0:0:
339,163,60780,6,0,P|305:150|260:152,1,70
272,150,60991,1,0,0:0:0:0:
272,150,61043,1,0,0:0:0:0:
272,150,61096,1,0,0:0:0:0:
335,267,61254,6,0,P|301:280|256:278,1,70
268,280,61465,1,0,0:0:0:0:
268,280,61517,1,0,0:0:0:0:
268,280,61570,1,0,0:0:0:0:
323,190,61727,5,0,0:0:0:0:
231,230,61885,1,0,0:0:0:0:
327,307,62043,1,0,0:0:0:0:
398,309,62201,2,0,P|437:283|464:251,1,70
490,168,62517,2,0,P|459:127|427:119,1,70
334,104,62833,1,0,0:0:0:0:
271,202,62991,1,0,0:0:0:0:
214,106,63149,1,0,0:0:0:0:
438,315,63306,5,0,0:0:0:0:
320,271,63464,1,0,0:0:0:0:
304,350,63622,5,0,0:0:0:0:
243,200,63780,1,0,0:0:0:0:
125,318,63938,5,0,0:0:0:0:
238,217,64096,1,0,0:0:0:0:
78,151,64254,5,0,0:0:0:0:
209,244,64412,1,0,0:0:0:0:
173,178,64570,6,0,P|145:206|127:246,1,70
92,354,64885,5,0,0:0:0:0:
190,296,65043,1,0,0:0:0:0:
348,360,65201,5,0,0:0:0:0:
276,285,65359,1,0,0:0:0:0:
50,347,65517,5,0,0:0:0:0:
143,265,65675,1,0,0:0:0:0:
172,353,65833,5,0,0:0:0:0:
255,252,65991,1,0,0:0:0:0:
342,346,66149,5,0,0:0:0:0:
220,207,66306,1,0,0:0:0:0:
118,357,66464,5,0,0:0:0:0:
196,242,66622,1,0,0:0:0:0:
31,287,66780,5,0,0:0:0:0:
151,188,66938,1,0,0:0:0:0:
181,109,67096,5,0,0:0:0:0:
345,263,67254,2,0,P|300:277|273:267,1,70
311,196,67570,2,0,P|269:177|256:142,1,70
203,83,67885,1,0,0:0:0:0:
393,54,68043,1,0,0:0:0:0:
336,177,68201,1,0,0:0:0:0:
295,72,68359,6,0,B|247:235|179:66|137:157,1,210
122,339,69622,2,0,B|70:251|256:259|173:170,1,210
102,83,70727,1,0,0:0:0:0:
55,165,70885,2,0,B|190:154|59:345|231:305,1,268.333333333333
229,306,72149,2,0,B|293:274|110:172|363:211|166:103|334:99,1,268.333333333333
330,100,73412,2,0,B|457:122|223:196|469:213|288:307,1,268.333333333333
288,308,74675,2,0,B|285:144|150:317|154:173,1,233.333333333333
154,126,75780,2,0,L|161:95,1,23.3333333333333
183,60,75938,2,0,B|247:115|321:-56|362:176|433:35,1,280
211,72,77517,6,0,B|192:79|192:79|190:121,1,52.5000020027161
271,113,77833,2,0,B|301:131|301:131|301:182,1,70
209,158,78149,2,0,B|174:179|174:179|174:240,1,87.5
121,76,78464,6,0,L|61:78,4,52.5000020027161
103,153,78859,6,0,L|43:155,4,52.5000020027161
143,235,79175,6,0,L|83:237,4,52.5000020027161
216,284,79570,2,0,L|277:294,1,52.5000020027161
351,264,79727,5,0,0:0:0:0:
246,151,79885,1,0,0:0:0:0:
214,219,80043,1,0,0:0:0:0:
304,224,80201,1,0,0:0:0:0:
351,264,80517,5,0,0:0:0:0:
234,164,80675,1,0,0:0:0:0:
232,269,80833,1,0,0:0:0:0:
354,205,80991,1,0,0:0:0:0:
169,213,81149,1,0,0:0:0:0:
148,94,81464,6,0,P|188:97|202:117,1,52.5000020027161
236,242,81938,1,0,0:0:0:0:
365,104,82254,5,0,0:0:0:0:
286,156,82412,1,0,0:0:0:0:
377,199,82570,1,0,0:0:0:0:
239,62,82727,2,0,P|191:72|176:83,1,52.5000020027161
270,157,83043,5,0,0:0:0:0:
283,271,83201,1,0,0:0:0:0:
177,188,83359,1,0,0:0:0:0:
191,315,83517,1,0,0:0:0:0:
363,324,83675,2,0,P|401:318|424:302,1,52.5000020027161
363,246,83991,1,0,0:0:0:0:
278,344,84149,2,0,P|244:322|214:264,1,105.000004005432
233,107,84780,6,0,P|267:104|339:147,1,105.000004005432
377,207,85412,2,0,P|374:252|331:300,1,105.000004005432
213,320,85885,1,0,0:0:0:0:
35,332,86043,5,0,0:0:0:0:
186,179,86201,1,0,0:0:0:0:
27,200,86359,5,0,0:0:0:0:
201,261,86517,1,0,0:0:0:0:
38,73,86675,6,0,P|41:117|59:129,2,52.5000020027161
160,59,87149,1,0,0:0:0:0:
77,249,87306,6,0,P|99:274|144:279,1,70
260,200,87622,1,0,0:0:0:0:
284,356,87780,1,0,0:0:0:0:
412,209,87938,2,0,B|395:240|395:240|375:217|375:217|370:241|370:241|354:222|354:222|356:244|356:244|342:231,1,140
256,280,88412,1,0,0:0:0:0:
