osu file format v14

[General]
AudioFilename: audio.mp3
AudioLeadIn: 0
PreviewTime: 52897
Countdown: 1
SampleSet: None
StackLeniency: 0.7
Mode: 0
LetterboxInBreaks: 0
WidescreenStoryboard: 0

[Editor]
Bookmarks: 30464,39306,50675,50833,51149,51306,51622,51780,52096,52254,53201,54306,55727,60149,62833,63306,68359,69306,69622,70570,70885,72096,72149,73359,77201,79727,82254,82885,86043,86675
DistanceSpacing: 4
BeatDivisor: 4
GridSize: 4
TimelineZoom: 2.2

[Metadata]
Title:Redo (TV Size)
TitleUnicode:Redo (TV Size)
Artist:Suzuki Konomi
ArtistUnicode:鈴木このみ
Creator:GAVlN
Version:Breaking Dawn
Source:Anime OP Opening Re:ゼロから始める異世界生活
Tags:Re: Zero kara Hajimeru Isekai Seikatsu
BeatmapID:1899321
BeatmapSetID:910163

[Difficulty]
HPDrainRate:4.5
CircleSize:3.9
OverallDifficulty:9
ApproachRate:9.6
SliderMultiplier:1.4
SliderTickRate:1

[Events]
//Background and Video events
0,0,"Background.jpg",0,0
//Break Periods
//Storyboard Layer 0 (Background)
//Storyboard Layer 1 (Fail)
//Storyboard Layer 2 (Pass)
//Storyboard Layer 3 (Foreground)
//Storyboard Sound Samples

[TimingPoints]
161,315.789473684211,4,3,1,100,1,0
1096,-133.333333333333,4,3,1,100,0,0
1885,-100,4,3,1,100,0,0
2359,-133.333333333333,4,3,1,100,0,0
3149,-100,4,3,1,100,0,0
3622,-133.333333333333,4,3,1,100,0,0
4412,-100,4,3,1,100,0,0
4885,-133.333333333333,4,3,1,100,0,0
5201,-100,4,3,1,100,0,0
6149,-66.6666666666667,4,3,1,100,0,0
6938,-100,4,3,1,100,0,0
10254,-133.333333333333,4,3,1,100,0,0
16096,-100,4,3,1,100,0,0
17833,-133.333333333333,4,3,1,100,0,0
19252,-100,4,3,1,100,0,0
20991,-133.333333333333,4,3,1,100,0,0
27938,-166.666666666667,4,3,1,100,0,0
28570,-200,4,3,1,100,0,0
29517,-133.333333333333,4,3,1,100,0,0
30464,-200,4,3,1,100,0,0
35517,-100,4,3,1,100,0,0
40570,-200,4,3,1,100,0,0
44043,-133.333333333333,4,3,1,100,0,0
45938,-100,4,3,1,100,0,0
53213,-100,4,3,1,100,0,1
58582,-100,4,3,1,100,0,0
59359,-200,4,3,1,100,0,0
60780,-100,4,3,1,100,0,0
63476,-100,4,3,1,100,0,1
68359,-133.333333333333,4,3,1,100,0,0
68359,-200,4,3,1,100,0,0
69622,-200,4,3,1,100,0,0
72096,-200,4,3,1,5,0,0
72149,-200,4,3,1,100,0,0
73359,-200,4,3,1,5,0,0
73412,-200,4,3,1,100,0,0
74622,-200,4,3,1,5,0,0
74675,-200,4,3,1,100,0,0
75727,-200,4,3,1,5,0,0
75780,-200,4,3,1,100,0,0
75885,-200,4,3,1,5,0,0
75938,-200,4,3,1,100,0,0
77201,-200,4,3,1,5,0,0
77517,-133.333333333333,4,3,1,100,0,0
77833,-100,4,3,1,100,0,0
78149,-80,4,3,1,100,0,0
78464,-66.6666666666667,4,3,1,100,0,0
78938,-133.333333333333,4,3,1,100,0,0
87306,-100,4,3,1,100,0,0
88570,-66.6666666666667,4,3,1,100,0,0

[HitObjects]
60,13,161,5,0,0:0:0:0:
216,73,318,1,0,0:0:0:0:
89,104,634,2,0,P|121:79|220:75,1,140,0|0,0:0|0:0,0:0:0:0:
164,147,1108,2,0,P|204:148|225:156,1,52.5000020027161,0|0,0:0|0:0,0:0:0:0:
452,13,1424,5,0,0:0:0:0:
296,73,1581,1,0,0:0:0:0:
422,103,1897,2,0,P|363:68|294:73,1,140
347,146,2371,2,0,P|321:145|296:151,1,52.5000020027161,0|0,0:0|0:0,0:0:0:0:
452,371,2687,5,0,0:0:0:0:
296,311,2844,1,0,0:0:0:0:
422,280,3160,2,0,P|363:315|294:310,1,140
347,237,3634,2,0,P|321:238|296:232,1,52.5000020027161,0|0,0:0|0:0,0:0:0:0:
60,371,3950,5,0,0:0:0:0:
216,311,4107,1,0,0:0:0:0:
89,280,4423,2,0,P|148:315|217:310,1,140
164,237,4897,2,0,P|190:238|215:232,1,52.5000020027161,0|0,0:0|0:0,0:0:0:0:
248,338,5213,2,0,B|197:296|197:296|192:261|192:261|211:246|211:246|238:246,1,140,0|0,0:0|0:0,0:0:0:0:
206,133,5687,1,0,0:0:0:0:
333,75,5845,2,0,P|365:112|362:140,1,70,0|0,0:0|0:0,0:0:0:0:
356,6,6161,2,0,P|418:54|430:100,1,105.000004005432,0|0,0:0|0:0,0:0:0:0:
411,193,6476,5,0,0:0:0:0:
245,158,6634,1,0,0:0:0:0:
289,40,6792,1,0,0:0:0:0:
425,179,6950,1,0,0:0:0:0:
425,179,7029,1,0,0:0:0:0:
425,179,7108,1,0,0:0:0:0:
242,215,7266,6,0,P|180:209|161:190,1,70,0|0,0:0|0:0,0:0:0:0:
55,96,7582,1,0,0:0:0:0:
205,68,7739,2,0,P|247:85|268:123,1,70,0|0,0:0|0:0,0:0:0:0:
314,257,8055,1,0,0:0:0:0:
195,162,8213,5,0,0:0:0:0:
195,162,8292,1,0,0:0:0:0:
195,162,8371,1,0,0:0:0:0:
84,251,8529,1,0,0:0:0:0:
189,49,8687,1,0,0:0:0:0:
305,212,8845,1,0,0:0:0:0:
395,150,9003,2,0,P|369:105|353:95,1,70,0|0,0:0|0:0,0:0:0:0:
266,60,9318,1,0,0:0:0:0:
252,237,9476,5,0,0:0:0:0:
252,237,9555,1,0,0:0:0:0:
252,237,9634,1,0,0:0:0:0:
376,191,9792,2,0,P|387:149|361:111,1,70,0|0,0:0|0:0,0:0:0:0:
257,55,10108,1,0,0:0:0:0:
151,60,10266,6,0,P|92:68|47:108,1,105.000004005432,0|0,0:0|0:0,0:0:0:0:
107,261,10739,1,0,0:0:0:0:
292,250,10897,2,0,P|358:238|383:195,1,105.000004005432,0|0,0:0|0:0,0:0:0:0:
159,158,11371,1,0,0:0:0:0:
299,42,11529,2,0,P|328:60|344:91,1,52.5000020027161,0|0,0:0|0:0,0:0:0:0:
443,191,11845,1,0,0:0:0:0:
273,281,12003,1,0,0:0:0:0:
54,210,12161,5,0,0:0:0:0:
142,343,12318,1,0,0:0:0:0:
179,247,12476,5,0,0:0:0:0:
44,348,12634,1,0,0:0:0:0:
147,165,12792,6,0,P|159:110|200:68,1,105.000004005432
326,198,13266,1,0,0:0:0:0:
323,114,13424,2,0,P|287:110|216:155,1,105.000004005432
206,216,13897,2,0,P|247:220|256:232,1,52.5000020027161
261,352,14213,1,0,0:0:0:0:
308,170,14371,5,0,0:0:0:0:
212,266,14529,1,0,0:0:0:0:
144,143,14687,2,0,P|157:109|230:88,1,105.000004005432,0|0,0:0|0:0,0:0:0:0:
329,160,15161,1,0,0:0:0:0:
48,45,15318,5,0,0:0:0:0:
116,192,15476,1,0,0:0:0:0:
204,69,15634,5,0,0:0:0:0:
28,129,15792,1,0,0:0:0:0:
115,115,15950,5,0,0:0:0:0:
120,221,16108,2,0,L|175:268,2,70,0|0|0,0:0|0:0|0:0,0:0:0:0:
48,45,16582,1,0,0:0:0:0:
181,69,16739,1,0,0:0:0:0:
205,207,16897,6,0,P|239:213|267:235,2,70,0|0|0,0:0|0:0|0:0,0:0:0:0:
113,97,17371,1,0,0:0:0:0:
251,129,17529,1,0,0:0:0:0:
197,240,17687,1,0,0:0:0:0:
97,181,17845,2,0,P|100:129|139:91,1,105.000004005432,0|0,0:0|0:0,0:0:0:0:
176,236,18476,2,0,P|214:178|251:168,2,105.000004005432,0|0|0,0:0|0:0|0:0,0:0:0:0:
152,339,19424,2,0,P|234:348|294:317,1,140,0|0,0:0|0:0,0:0:0:0:
363,238,20055,1,0,0:0:0:0:
448,66,20371,6,0,P|414:50|314:70,1,140,0|0,0:0|0:0,0:0:0:0:
386,136,21003,2,0,P|355:173|197:180,1,210.000008010865,0|0,0:0|0:0,0:0:0:0:
87,68,21950,1,0,0:0:0:0:
301,61,22266,5,0,0:0:0:0:
406,61,22424,1,0,0:0:0:0:
373,165,22582,2,0,P|409:154|428:160,1,52.5000020027161,0|0,0:0|0:0,0:0:0:0:
470,238,22897,6,0,P|418:281|373:274,1,105.000004005432,0|0,0:0|0:0,0:0:0:0:
399,191,23529,2,0,P|336:171|212:242,1,210.000008010865,0|0,0:0|0:0,0:0:0:0:
197,337,24318,2,0,L|142:329,2,52.5000020027161,0|0|0,0:0|0:0|0:0,0:0:0:0:
300,329,24792,5,0,0:0:0:0:
241,129,25108,1,0,0:0:0:0:
411,232,25424,6,0,P|399:200|373:181,1,52.5000020027161,0|0,0:0|0:0,0:0:0:0:
222,128,25739,1,0,0:0:0:0:
295,192,25897,1,0,0:0:0:0:
308,79,26055,1,0,0:0:0:0:
138,231,26213,2,0,P|133:202|160:177,1,52.5000020027161,0|0,0:0|0:0,0:0:0:0:
181,104,26529,1,0,0:0:0:0:
225,179,26687,6,0,P|247:194|252:227,1,52.5000020027161,0|0,0:0|0:0,0:0:0:0:
157,288,27003,1,0,0:0:0:0:
288,352,27161,1,0,0:0:0:0:
404,344,27318,2,0,P|422:315|417:294,1,52.5000020027161
324,203,27634,1,0,0:0:0:0:
219,128,27792,1,0,0:0:0:0:
120,102,27950,6,0,P|112:82|143:24,1,83.9999974365235,0|0,0:0|0:0,0:0:0:0:
197,75,28582,2,0,P|233:98|245:197,1,140,0|0,0:0|0:0,0:0:0:0:
248,299,29529,2,0,L|288:265,1,52.5000020027161,0|0,0:0|0:0,0:0:0:0:
227,208,29845,2,0,P|202:189|165:183,2,52.5000020027161,0|0|0,0:0|0:0|0:0,0:0:0:0:
74,296,30476,6,0,P|77:254|88:222,1,70,0|0,0:0|0:0,0:0:0:0:
123,158,30950,2,0,P|138:138|182:117,1,70,0|0,0:0|0:0,0:0:0:0:
272,122,31424,1,0,0:0:0:0:
321,27,31582,1,0,0:0:0:0:
389,102,31739,2,0,P|419:127|432:162,1,70,0|0,0:0|0:0,0:0:0:0:
421,234,32213,2,0,P|405:264|337:288,1,105,0|0,0:0|0:0,0:0:0:0:
404,41,33003,6,0,P|368:48|348:78,1,70,0|0,0:0|0:0,0:0:0:0:
418,111,33476,2,0,P|424:145|409:186,1,70,0|0,0:0|0:0,0:0:0:0:
336,159,34108,1,0,0:0:0:0:
242,180,34266,2,0,P|256:154|256:109,1,70,0|0,0:0|0:0,0:0:0:0:
170,143,34739,2,0,P|174:106|155:73,1,70,0|0,0:0|0:0,0:0:0:0:
39,37,35213,1,0,0:0:0:0:
121,129,35371,1,0,0:0:0:0:
89,196,35529,6,0,P|96:240|113:261,1,70,0|0,0:0|0:0,0:0:0:0:
193,275,35845,1,0,0:0:0:0:
257,87,36003,1,0,0:0:0:0:
315,277,36161,1,0,0:0:0:0:
157,158,36318,1,0,0:0:0:0:
355,161,36476,2,0,P|390:139|429:131,1,70,0|0,0:0|0:0,0:0:0:0:
491,141,36792,2,0,P|494:204|483:215,1,70,0|0,0:0|0:0,0:0:0:0:
425,299,37108,1,0,0:0:0:0:
362,97,37266,5,0,0:0:0:0:
267,232,37424,1,0,0:0:0:0:
207,154,37582,2,0,P|165:157|128:185,1,70,0|0,0:0|0:0,0:0:0:0:
57,211,37897,1,0,0:0:0:0:
57,64,38055,1,0,0:0:0:0:
164,148,38213,1,0,0:0:0:0:
66,134,38371,2,0,P|92:103|135:83,1,70,0|0,0:0|0:0,0:0:0:0:
138,164,38687,2,0,P|161:138|202:130,1,70,0|0,0:0|0:0,0:0:0:0:
272,262,39003,2,0,P|292:204|304:184,1,70,0|0,0:0|0:0,0:0:0:0:
58,44,39318,5,0,0:0:0:0:
132,162,39476,1,0,0:0:0:0:
184,32,39634,5,0,0:0:0:0:
71,115,39792,1,0,0:0:0:0:
298,121,39950,5,0,0:0:0:0:
187,299,40108,1,0,0:0:0:0:
149,92,40266,5,0,0:0:0:0:
333,154,40424,1,0,0:0:0:0:
333,154,40503,1,0,0:0:0:0:
333,154,40582,6,0,P|310:133|272:134,1,70,0|0,0:0|0:0,0:0:0:0:
185,176,41055,2,0,P|146:156|81:144,1,105,0|0,0:0|0:0,0:0:0:0:
16,45,41687,1,0,0:0:0:0:
112,33,41845,2,0,P|147:38|198:130,1,140,0|0,0:0|0:0,0:0:0:0:
196,221,42792,1,0,0:0:0:0:
184,319,43108,2,0,P|233:317|285:246,1,140,0|0,0:0|0:0,0:0:0:0:
380,304,44055,2,0,P|402:283|405:254,1,52.5000020027161,0|0,0:0|0:0,0:0:0:0:
326,249,44371,2,0,P|314:203|407:81,2,210.000008010865,0|0|0,0:0|0:0|0:0,0:0:0:0:
432,338,45792,5,0,0:0:0:0:
399,245,45950,2,0,P|400:189|388:156,1,70,0|0,0:0|0:0,0:0:0:0:
343,107,46266,1,0,0:0:0:0:
271,64,46424,2,0,P|224:56|194:66,1,70,0|0,0:0|0:0,0:0:0:0:
148,142,46739,1,0,0:0:0:0:
115,205,46897,2,0,P|111:258|117:279,1,70,0|0,0:0|0:0,0:0:0:0:
38,221,47213,5,0,0:0:0:0:
87,338,47371,2,0,L|119:262,2,70,0|0|0,0:0|0:0|0:0,0:0:0:0:
153,142,47845,5,0,0:0:0:0:
227,300,48003,1,0,0:0:0:0:
285,98,48161,5,0,0:0:0:0:
143,251,48318,1,0,0:0:0:0:
101,79,48476,5,0,0:0:0:0:
303,217,48634,1,0,0:0:0:0:
247,58,48792,5,0,0:0:0:0:
286,320,48950,1,0,0:0:0:0:
252,311,49029,1,0,0:0:0:0:
222,293,49108,1,0,0:0:0:0:
197,268,49187,1,0,0:0:0:0:
180,238,49266,1,0,0:0:0:0:
171,204,49345,1,0,0:0:0:0:
166,161,49424,6,0,P|161:123|226:53,1,140,0|0,0:0|0:0,0:0:0:0:
239,184,50055,2,0,P|283:161|309:72,1,140,0|0,0:0|0:0,0:0:0:0:
198,34,50529,1,0,0:0:0:0:
36,157,50687,5,0,0:0:0:0:
443,261,50845,1,0,0:0:0:0:
456,115,51161,5,0,0:0:0:0:
59,244,51318,1,0,0:0:0:0:
51,72,51634,5,0,0:0:0:0:
445,216,51792,1,0,0:0:0:0:
428,83,52108,2,0,L|363:87,1,35
251,92,52266,1,0,0:0:0:0:
435,230,52424,2,0,L|370:234,1,35
258,239,52582,1,0,0:0:0:0:
360,384,52739,1,0,0:0:0:0:
146,12,52897,5,0,0:0:0:0:
112,6,52976,1,0,0:0:0:0:
78,15,53055,1,0,0:0:0:0:
51,37,53134,1,0,0:0:0:0:
30,64,53213,5,0,0:0:0:0:
244,290,53371,1,8,0:0:0:0:
241,54,53529,5,0,0:0:0:0:
380,336,53687,1,8,0:0:0:0:
402,65,53845,5,0,0:0:0:0:
182,291,54003,1,8,0:0:0:0:
241,54,54161,5,0,0:0:0:0:
380,336,54318,2,0,P|417:301|419:274,1,70,8|0,0:0|0:0,0:0:0:0:
402,65,54634,5,0,0:0:0:0:
182,291,54792,1,8,0:0:0:0:
276,46,54950,6,0,P|267:93|239:125,1,70,0|0,0:0|0:0,0:0:0:0:
176,168,55266,1,0,0:0:0:0:
273,337,55424,2,0,P|320:303|336:279,1,70,0|0,0:0|0:0,0:0:0:0:
208,255,55739,5,8,0:0:0:0:
257,112,55897,1,0,0:0:0:0:
301,257,56055,1,8,0:0:0:0:
180,166,56213,1,0,0:0:0:0:
331,168,56371,1,8,0:0:0:0:
159,262,56529,5,0,0:0:0:0:
292,78,56687,1,8,0:0:0:0:
292,305,56845,1,0,0:0:0:0:
159,121,57003,1,8,0:0:0:0:
375,192,57161,1,0,0:0:0:0:
404,331,57318,2,0,P|442:300|453:272,1,70,8|0,0:0|0:0,0:0:0:0:
436,186,57634,1,0,0:0:0:0:
360,130,57792,2,0,P|328:107|299:122,1,70,0|0,0:0|0:0,0:0:0:0:
215,205,58108,1,8,0:0:0:0:
186,324,58266,2,0,P|143:323|106:301,1,70,0|0,0:0|0:0,0:0:0:0:
44,251,58582,6,0,P|48:196|121:131,1,140,0|0,0:0|0:0,0:0:0:0:
163,45,59055,1,0,0:0:0:0:
225,111,59213,1,0,0:0:0:0:
308,280,59371,2,0,P|343:263|377:203,1,105,0|0,0:0|0:0,0:0:0:0:
393,121,60161,1,8,0:0:0:0:
253,122,60318,1,0,0:0:0:0:
318,29,60476,1,8,0:0:0:0:
102,144,60634,1,0,0:0:0:0:
176,266,60792,6,0,P|210:279|255:277,1,70,0|0,0:0|0:0,0:0:0:0:
244,280,61003,1,0,0:0:0:0:
244,280,61055,1,0,0:0:0:0:
244,280,61108,1,0,0:0:0:0:
177,117,61266,6,0,P|211:104|256:106,1,70,0|0,0:0|0:0,0:0:0:0:
244,104,61476,1,0,0:0:0:0:
244,104,61529,1,0,0:0:0:0:
244,104,61582,1,0,0:0:0:0:
152,261,61739,5,8,0:0:0:0:
365,278,61897,1,0,0:0:0:0:
211,43,62055,1,8,0:0:0:0:
114,75,62213,2,0,P|75:101|48:133,1,70,0|0,0:0|0:0,0:0:0:0:
22,216,62529,2,0,P|53:257|85:265,1,70,0|0,0:0|0:0,0:0:0:0:
153,280,62845,5,0,0:0:0:0:
187,285,62924,1,0,0:0:0:0:
222,280,63003,1,0,0:0:0:0:
254,266,63082,1,0,0:0:0:0:
281,244,63161,1,0,0:0:0:0:
300,215,63239,1,0,0:0:0:0:
311,182,63318,1,0,0:0:0:0:
402,24,63476,1,0,0:0:0:0:
208,34,63634,5,0,0:0:0:0:
331,323,63792,1,8,0:0:0:0:
387,66,63950,5,0,0:0:0:0:
164,236,64108,1,8,0:0:0:0:
434,233,64266,5,0,0:0:0:0:
172,57,64424,1,8,0:0:0:0:
266,292,64582,6,0,P|294:264|312:224,1,70,0|8,0:0|0:0,0:0:0:0:
420,30,64897,5,0,0:0:0:0:
175,228,65055,1,8,0:0:0:0:
164,24,65213,5,0,0:0:0:0:
449,226,65371,1,8,0:0:0:0:
462,37,65529,5,0,0:0:0:0:
175,169,65687,1,8,0:0:0:0:
421,175,65845,2,0,P|469:218|476:240,1,70,0|8,0:0|0:0,0:0:0:0:
170,38,66161,5,0,0:0:0:0:
430,318,66318,1,8,0:0:0:0:
394,27,66476,5,0,0:0:0:0:
179,304,66634,1,8,0:0:0:0:
481,97,66792,5,0,0:0:0:0:
123,241,66950,1,8,0:0:0:0:
463,265,67108,5,0,0:0:0:0:
120,55,67266,1,8,0:0:0:0:
338,351,67424,5,0,0:0:0:0:
217,29,67582,1,8,0:0:0:0:
109,136,67739,5,0,0:0:0:0:
418,35,67897,1,8,0:0:0:0:
119,330,68055,5,0,0:0:0:0:
183,130,68213,1,8,0:0:0:0:
217,312,68371,6,0,B|193:143|380:367|370:110,1,315.000012016297
390,45,69634,2,0,B|442:133|256:125|339:214,1,210,0|0,0:0|0:0,0:0:0:0:
410,301,70739,1,0,0:0:0:0:
457,219,70897,2,0,B|322:230|453:39|281:79,1,268.333333333333,0|0,0:0|0:0,0:0:0:0:
283,78,72161,2,0,B|219:110|402:212|149:173|346:281|178:285,1,268.333333333333,0|0,0:0|0:0,0:0:0:0:
182,284,73424,2,0,B|55:262|289:188|43:171|224:77,1,268.333333333333,0|0,0:0|0:0,0:0:0:0:
224,76,74687,2,0,B|227:240|362:67|358:211,1,233.333333333333,0|0,0:0|0:0,0:0:0:0:
358,258,75792,2,0,L|351:289,1,23.3333333333333,0|0,0:0|0:0,0:0:0:0:
329,324,75950,2,0,B|265:269|191:440|150:208|79:349,1,280,0|0,0:0|0:0,0:0:0:0:
301,312,77529,6,0,B|320:305|320:305|322:263,1,52.5000020027161,0|0,0:0|0:0,0:0:0:0:
241,271,77845,2,0,B|211:253|211:253|211:202,1,70,0|0,0:0|0:0,0:0:0:0:
303,226,78161,2,0,B|338:205|338:205|338:144,1,87.5,0|0,0:0|0:0,0:0:0:0:
377,331,78476,1,0,0:0:0:0:
413,293,78555,1,0,0:0:0:0:
436,246,78634,1,0,0:0:0:0:
443,194,78713,1,0,0:0:0:0:
432,143,78792,5,0,0:0:0:0:
406,98,78871,1,0,0:0:0:0:
362,68,78950,2,0,L|329:49,6,26.2500010013581
285,44,79503,5,0,0:0:0:0:
232,49,79582,1,0,0:0:0:0:
186,75,79661,1,0,0:0:0:0:
161,120,79739,5,0,0:0:0:0:
280,292,79897,1,0,0:0:0:0:
406,92,80055,1,0,0:0:0:0:
158,179,80213,1,0,0:0:0:0:
161,120,80529,5,0,0:0:0:0:
280,292,80687,1,0,0:0:0:0:
406,92,80845,1,0,0:0:0:0:
158,179,81003,1,0,0:0:0:0:
445,208,81161,1,0,0:0:0:0:
364,290,81476,6,0,P|324:287|310:267,1,52.5000020027161,0|0,0:0|0:0,0:0:0:0:
215,64,81950,1,0,0:0:0:0:
113,290,82266,5,0,0:0:0:0:
336,213,82424,1,0,0:0:0:0:
103,91,82582,1,0,0:0:0:0:
273,322,82739,2,0,P|321:312|336:301,1,52.5000020027161,0|0,0:0|0:0,0:0:0:0:
416,44,83055,5,0,0:0:0:0:
34,176,83213,1,0,0:0:0:0:
180,305,83371,1,0,0:0:0:0:
321,69,83529,1,0,0:0:0:0:
149,60,83687,2,0,P|111:66|88:82,1,52.5000020027161,0|0,0:0|0:0,0:0:0:0:
77,242,84003,1,0,0:0:0:0:
234,40,84161,2,0,P|268:62|298:120,1,105.000004005432,0|0,0:0|0:0,0:0:0:0:
279,277,84792,6,0,P|245:280|173:237,1,105.000004005432,0|0,0:0|0:0,0:0:0:0:
135,177,85424,2,0,P|138:132|181:84,1,105.000004005432,0|0,0:0|0:0,0:0:0:0:
299,64,85897,1,0,0:0:0:0:
477,52,86055,5,0,0:0:0:0:
210,302,86213,1,8,0:0:0:0:
485,184,86371,5,0,0:0:0:0:
182,141,86529,1,8,0:0:0:0:
474,311,86687,6,0,P|471:267|453:255,2,52.5000020027161,0|0|0,0:0|0:0|0:0,0:0:0:0:
352,325,87161,1,0,0:0:0:0:
435,135,87318,6,0,P|413:110|368:105,1,70,0|0,0:0|0:0,0:0:0:0:
252,184,87634,1,0,0:0:0:0:
228,28,87792,1,0,0:0:0:0:
132,136,87950,2,0,B|81:94|81:94|76:59|76:59|95:44|95:44|122:44,1,140,0|0,0:0|0:0,0:0:0:0:
372,299,88582,2,2,B|430:297|430:297|474:354,1,105.000004005432
