osu file format v14

[General]
AudioFilename: audio.mp3
AudioLeadIn: 0
PreviewTime: 54598
Countdown: 0
SampleSet: None
StackLeniency: 0.7
Mode: 0
LetterboxInBreaks: 0
WidescreenStoryboard: 0

[Editor]
Bookmarks: 83146,88515,105476
DistanceSpacing: 0.5
BeatDivisor: 4
GridSize: 4
TimelineZoom: 2.2

[Metadata]
Title:Redo
TitleUnicode:Redo
Artist:Suzuki Konomi
ArtistUnicode:鈴木このみ
Creator:Syph
Version:Re:Birth
Source:Re:ゼロから始める異世界生活
Tags:AtHeoN Asonate MrPotato Akitoshi
BeatmapID:1641197
BeatmapSetID:781421

[Difficulty]
HPDrainRate:6.2
CircleSize:4
OverallDifficulty:9.2
ApproachRate:9.6
SliderMultiplier:1.8
SliderTickRate:1

[Events]
//Background and Video events
0,0,"rezero.png",0,0
//Break Periods
2,32412,36185
2,114518,117817
2,124622,128869
2,188212,192027
//Storyboard Layer 0 (Background)
//Storyboard Layer 1 (Fail)
//Storyboard Layer 2 (Pass)
//Storyboard Layer 3 (Foreground)
//Storyboard Sound Samples

[TimingPoints]
634,315.789473684211,4,2,1,60,1,0
1897,-133.333333333333,4,2,1,60,0,0
36791,-100,4,2,1,70,0,0
42318,-117.647058823529,4,2,1,55,0,0
46107,-100,4,2,1,60,0,0
47370,-100,4,2,1,70,0,0
54633,-100,4,2,0,70,0,0
54949,-83.3333333333333,4,2,1,85,0,1
68844,-83.3333333333333,4,2,1,75,0,0
78949,-83.3333333333333,4,2,1,85,0,1
85897,-83.3333333333333,4,2,1,85,0,0
89054,-100,4,2,1,85,0,0
113370,-100,4,2,0,85,0,0
113686,-100,4,2,1,85,0,0
131967,315.789473684211,4,2,1,85,1,0
132467,315.789473684211,4,2,1,85,1,0
132634,315.789473684211,4,2,1,85,1,0
139581,-100,4,2,1,20,0,0
139897,-100,4,2,1,30,0,0
140212,-100,4,2,1,40,0,0
140528,-100,4,2,1,50,0,0
140844,-100,4,2,1,60,0,0
141160,-100,4,2,1,70,0,0
141475,-100,4,2,1,80,0,0
141791,-100,4,2,1,90,0,0
141949,-100,4,2,1,5,0,0
142107,-80,4,2,1,85,0,1
156002,-80,4,2,1,85,0,0
167370,-80,4,2,1,85,0,1
174949,-80,4,2,1,85,0,0
177476,-80,4,2,1,85,0,1
187423,-80,4,2,1,85,0,0
200195,315.789473684211,4,2,1,85,1,0
201765,315.789473684211,4,2,1,85,1,0
202737,315.789473684211,4,2,1,75,1,0
202737,-90.9090909090909,4,2,1,75,0,0
212825,315.789473684211,4,2,1,75,1,0
215351,-90.9090909090909,4,2,1,20,0,0
215667,-90.9090909090909,4,2,1,30,0,0
215982,-90.9090909090909,4,2,1,40,0,0
216298,-90.9090909090909,4,2,1,50,0,0
216614,-90.9090909090909,4,2,1,60,0,0
216930,-90.9090909090909,4,2,1,70,0,0
217246,-90.9090909090909,4,2,1,80,0,0
217561,-90.9090909090909,4,2,1,90,0,0
217719,-90.9090909090909,4,2,1,5,0,0
217897,315.789473684211,4,2,1,90,1,1
217897,-75.187969924812,4,2,1,90,0,1
224036,315.789473684211,4,2,1,90,1,1
224036,-75.187969924812,4,2,1,90,0,1
224844,315.789473684211,4,2,1,90,1,1
224844,-75.187969924812,4,2,1,90,0,1
231791,-75.187969924812,4,2,1,90,0,0
244422,-75.187969924812,4,2,1,90,0,1
249475,-86.9565217391304,4,2,1,90,0,1
251686,-90.9090909090909,4,2,1,70,0,0

[Colours]
Combo1 : 255,226,174
Combo2 : 221,11,100
Combo3 : 252,201,225
Combo4 : 19,213,247

[HitObjects]
158,128,1897,5,2,0:0:0:0:
272,281,2054,1,0,0:0:0:0:
272,281,2370,6,0,P|345:303|405:281,1,135.000005149842
472,204,2844,1,0,0:0:0:0:
458,341,3002,1,0,0:0:0:0:
374,105,3160,5,2,0:0:0:0:
260,258,3317,1,0,0:0:0:0:
260,258,3633,6,0,B|274:154|274:154|249:171,1,135.000005149842
163,235,4107,1,0,0:0:0:0:
210,92,4265,1,0,0:0:0:0:
236,323,4423,5,2,0:0:0:0:
122,170,4580,1,0,0:0:0:0:
122,170,4897,6,0,B|97:129|97:129|99:35,1,135.000005149842
203,69,5370,1,0,0:0:0:0:
23,61,5528,1,0,0:0:0:0:
239,72,5686,5,2,0:0:0:0:
125,225,5843,1,0,0:0:0:0:
125,225,6160,2,0,P|165:246|135:327,1,135.000005149842
39,319,6633,1,0,0:0:0:0:
108,153,6791,1,0,0:0:0:0:
239,336,6949,5,2,0:0:0:0:
125,183,7107,2,0,P|85:180|44:185,1,67.5000025749208,2|0,0:0|0:0,0:0:0:0:
244,242,7423,1,0,0:0:0:0:
244,242,7502,1,0,0:0:0:0:
244,242,7581,2,0,P|284:245|325:240,1,67.5000025749208,2|0,0:0|0:0,0:0:0:0:
427,162,7897,2,0,L|468:158,3,22.5000008583069
298,83,8212,5,2,0:0:0:0:
381,294,8370,2,0,P|421:297|462:292,1,67.5000025749208
238,229,8686,1,0,0:0:0:0:
238,229,8765,1,0,0:0:0:0:
238,229,8844,2,0,P|198:226|157:231,1,67.5000025749208,2|0,0:0|0:0,0:0:0:0:
39,274,9160,1,2,0:0:0:0:
194,331,9318,1,0,0:0:0:0:
121,130,9475,5,2,0:0:0:0:
212,357,9633,2,0,L|216:276,1,67.5000025749208
291,147,9949,1,0,0:0:0:0:
291,147,10028,1,0,0:0:0:0:
291,147,10107,2,0,L|287:228,1,67.5000025749208,2|0,0:0|0:0,0:0:0:0:
129,178,10423,2,0,L|88:174,3,22.5000008583069,2|0|0|0,0:0|0:0|0:0|0:0,0:0:0:0:
212,262,10739,5,2,0:0:0:0:
199,30,10897,2,0,P|194:64|199:97,1,67.5000025749208
402,92,11212,1,0,0:0:0:0:
402,92,11291,1,0,0:0:0:0:
402,92,11370,2,0,P|406:125|402:158,1,67.5000025749208,2|0,0:0|0:0,0:0:0:0:
361,284,11686,1,2,0:0:0:0:
361,284,11844,1,0,0:0:0:0:
262,141,12002,6,0,L|124:136,1,135.000005149842,2|0,0:0|0:0,0:0:0:0:
319,98,12476,1,0,0:0:0:0:
319,98,12554,1,0,0:0:0:0:
319,98,12633,2,0,P|335:147|258:214,1,135.000005149842,2|0,0:0|0:0,0:0:0:0:
431,159,13107,1,0,0:0:0:0:
262,141,13265,6,0,P|265:52|363:42,1,202.500007724762,2|0,0:0|0:0,0:0:0:0:
348,207,13897,1,2,0:0:0:0:
449,171,14054,1,0,0:0:0:0:
436,278,14212,1,8,0:0:0:0:
348,207,14370,1,0,0:0:0:0:
449,171,14528,6,0,B|352:137|349:253|233:194,1,202.500007724762,2|0,0:0|0:0,0:0:0:0:
230,134,15160,2,0,P|284:133|298:273,1,202.500007724762,2|0,0:0|0:0,0:0:0:0:
235,283,15791,6,0,L|95:279,1,135.000005149842,2|0,0:0|0:0,0:0:0:0:
235,283,16265,1,0,0:0:0:0:
163,165,16423,1,2,0:0:0:0:
187,372,16739,5,0,0:0:0:0:
187,372,17054,5,2,0:0:0:0:
299,279,17212,1,0,0:0:0:0:
299,279,17370,2,0,L|298:188,1,67.5000025749208,8|0,0:0|0:0,0:0:0:0:
285,103,17686,2,0,L|370:98,1,67.5000025749208
219,168,18002,1,0,0:0:0:0:
377,99,18160,1,0,0:0:0:0:
274,235,18318,6,0,P|264:268|268:308,1,67.5000025749208
350,173,18634,1,0,0:0:0:0:
219,168,18791,1,0,0:0:0:0:
345,213,18949,2,0,P|383:197|350:173,1,101.250003862381,2|0,0:0|0:0,0:0:0:0:
274,234,19265,2,0,P|292:267|353:290,1,101.250003862381,2|0,0:0|0:0,0:0:0:0:
346,214,19581,6,0,L|343:354,1,135.000005149842,10|0,0:0|0:0,0:0:0:0:
249,288,20054,1,0,0:0:0:0:
345,376,20212,2,0,P|384:381|421:375,1,67.5000025749208,2|0,0:0|0:0,0:0:0:0:
278,280,20528,1,2,0:0:0:0:
469,252,20686,1,0,0:0:0:0:
381,129,20844,6,0,P|354:108|373:8,1,135.000005149842,2|0,0:0|0:0,0:0:0:0:
260,124,21318,1,0,0:0:0:0:
410,66,21475,2,0,P|436:86|441:168,1,101.250003862381,2|0,0:0|0:0,0:0:0:0:
443,181,21791,1,0,0:0:0:0:
341,264,21949,1,0,0:0:0:0:
380,130,22107,6,0,P|302:179|341:264,1,202.500007724762,2|0,0:0|0:0,0:0:0:0:
371,200,22739,2,0,P|337:192|310:327,1,202.500007724762,2|0,0:0|0:0,0:0:0:0:
341,264,23370,6,0,P|307:244|225:345,1,202.500007724762,2|0,0:0|0:0,0:0:0:0:
323,383,24002,5,2,0:0:0:0:
290,314,24160,1,0,0:0:0:0:
224,344,24318,2,0,P|191:349|149:341,1,67.5000025749208,2|0,0:0|0:0,0:0:0:0:
61,320,24633,6,0,B|54:295|54:295|59:245|59:245|30:202|60:132,1,168.750006437302,2|0,0:0|0:0,0:0:0:0:
60,124,25107,1,0,0:0:0:0:
123,86,25265,2,0,P|132:141|66:199,1,135.000005149842,2|0,0:0|0:0,0:0:0:0:
212,206,25739,1,0,0:0:0:0:
60,124,25897,6,0,B|117:178|176:135|176:135|190:111|219:95|219:95|239:116,1,202.500007724762,2|0,0:0|0:0,0:0:0:0:
257,185,26528,6,0,P|293:163|309:74,2,135.000005149842,2|8|10,0:0|0:0|0:0,0:0:0:0:
165,156,27318,1,0,0:0:0:0:
61,126,27475,1,8,0:0:0:0:
89,231,27633,1,0,0:0:0:0:
165,156,27791,2,0,L|162:279,1,101.250003862381,2|0,0:0|0:0,0:0:0:0:
162,292,28107,1,8,0:0:0:0:
162,292,28265,1,0,0:0:0:0:
268,192,28423,5,2,0:0:0:0:
268,192,28581,1,0,0:0:0:0:
319,334,28739,1,8,0:0:0:0:
319,334,28897,1,0,0:0:0:0:
421,231,29054,2,0,L|423:114,1,101.250003862381,2|0,0:0|0:0,0:0:0:0:
386,59,29370,2,0,P|341:78|279:51,1,101.250003862381,8|0,0:0|0:0,0:0:0:0:
336,5,29686,6,0,B|325:175|325:175|302:138,1,202.500007724762,10|0,0:0|0:0,0:0:0:0:
216,89,30318,2,0,P|177:81|129:214,1,202.500007724762,2|0,0:0|0:0,0:0:0:0:
181,158,30949,6,0,P|140:127|77:138,1,101.250003862381,2|0,0:0|0:0,0:0:0:0:
42,202,31265,1,10,0:0:0:0:
44,67,31581,2,0,L|41:224,1,135.000005149842,2|0,0:0|0:0,0:0:0:0:
41,332,32212,5,2,0:0:0:0:
221,102,36791,5,0,0:0:0:0:
188,289,36949,2,0,P|172:227|184:196,1,90,12|0,0:0|0:0,0:0:0:0:
299,122,37265,5,2,0:0:0:0:
108,151,37423,1,2,0:0:0:0:
250,240,37581,2,0,P|267:289|255:331,1,90,8|0,0:0|0:0,0:0:0:0:
49,200,37897,2,0,P|32:151|44:109,1,90,2|0,0:0|0:0,0:0:0:0:
180,33,38212,1,8,0:0:0:0:
129,259,38370,1,0,0:0:0:0:
265,118,38528,5,6,0:0:0:0:
156,352,38686,1,2,0:0:0:0:
317,250,38844,2,0,L|211:248,1,90,8|0,0:0|0:0,0:0:0:0:
405,326,39160,1,2,0:0:0:0:
247,363,39318,1,0,0:0:0:0:
431,320,39475,2,0,P|454:261|434:183,1,135,8|0,0:0|0:0,0:0:0:0:
418,165,39791,5,6,0:0:0:0:
212,111,39949,1,2,0:0:0:0:
443,43,40107,2,0,L|348:45,1,90,8|0,0:0|0:0,0:0:0:0:
122,112,40423,2,0,L|217:110,1,90,2|0,0:0|0:0,0:0:0:0:
460,51,40739,2,0,L|365:53,1,90,8|0,0:0|0:0,0:0:0:0:
293,255,41054,6,0,L|287:163,1,90,6|0,0:0|0:0,0:0:0:0:
159,38,41370,1,8,0:0:0:0:
356,127,41528,1,2,0:0:0:0:
187,253,41686,2,0,L|79:246,1,90,12|0,0:0|0:0,0:0:0:0:
284,350,42002,1,8,0:0:0:0:
79,322,42160,1,0,0:0:0:0:
79,322,42239,1,0,0:0:0:0:
79,322,42318,6,0,P|32:288|37:197,1,153.000002918243,2|0,0:0|0:0,0:0:0:0:
235,133,42791,2,0,L|130:131,1,76.5000014591217
285,219,43107,2,0,L|181:218,1,76.5000014591217
80,221,43423,1,0,0:0:0:0:
80,221,43581,6,0,L|75:46,1,153.000002918243
75,68,44212,1,0,0:0:0:0:
344,96,44528,1,0,0:0:0:0:
344,96,44844,6,0,B|327:145|346:176|346:176|332:211|340:253,1,153.000002918243
216,201,45475,1,0,0:0:0:0:
216,201,45633,1,0,0:0:0:0:
123,125,45791,2,0,L|220:123,1,76.5000014591217
299,73,46107,6,0,B|330:124|302:169|302:169|270:210|306:257|306:257|300:200|347:185,1,270
406,147,46739,2,0,B|438:196|404:248|404:248|443:202|501:247,1,180
468,228,47370,5,6,0:0:0:0:
210,302,47528,1,2,0:0:0:0:
379,190,47686,2,0,L|374:286,1,90,8|0,0:0|0:0,0:0:0:0:
322,124,48002,2,0,P|364:104|415:111,1,90,2|0,0:0|0:0,0:0:0:0:
234,169,48318,1,8,0:0:0:0:
440,113,48475,1,0,0:0:0:0:
320,284,48633,5,6,0:0:0:0:
272,60,48791,1,2,0:0:0:0:
359,142,48949,1,8,0:0:0:0:
212,266,49107,1,0,0:0:0:0:
124,90,49265,2,0,P|93:84|33:94,1,90,2|0,0:0|0:0,0:0:0:0:
216,162,49581,1,8,0:0:0:0:
95,270,49739,1,0,0:0:0:0:
285,90,49897,5,14,0:0:0:0:
221,365,50054,1,2,0:0:0:0:
95,164,50212,1,8,0:0:0:0:
350,236,50370,1,0,0:0:0:0:
128,348,50528,1,8,0:0:0:0:
347,209,50686,5,0,0:0:0:0:
345,186,50765,1,0,0:0:0:0:
343,163,50844,1,8,0:0:0:0:
123,128,51002,1,0,0:0:0:0:
124,150,51081,1,8,0:0:0:0:
125,172,51160,6,0,L|231:170,1,90,14|0,0:0|0:0,0:0:0:0:
60,96,51476,1,8,0:0:0:0:
248,169,51634,1,2,0:0:0:0:
180,12,51791,1,8,0:0:0:0:
176,280,51949,1,2,0:0:0:0:
461,56,52107,2,0,L|353:58,1,90,8|0,0:0|0:0,0:0:0:0:
148,78,52423,5,12,0:0:0:0:
303,302,52581,1,0,0:0:0:0:
325,306,52897,5,0,0:0:0:0:
52,234,53054,1,12,0:0:0:0:
189,84,53370,5,8,0:0:0:0:
303,302,53528,1,0,0:0:0:0:
164,193,53686,5,10,0:0:0:0:
164,193,53765,1,0,0:0:0:0:
164,193,53844,1,0,0:0:0:0:
417,130,54002,1,8,0:0:0:0:
195,76,54160,1,0,0:0:0:0:
195,76,54239,1,0,0:0:0:0:
195,76,54318,2,0,L|295:72,1,90,10|0,0:0|0:0,0:0:0:0:
245,262,54633,1,2,0:0:0:0:
229,230,54711,1,2,0:0:0:0:
202,206,54790,1,2,0:0:0:0:
168,196,54869,1,2,0:0:0:0:
133,201,54949,6,0,L|122:315,1,107.999996704102,6|0,0:0|0:0,0:0:0:0:
39,131,55265,1,8,0:0:0:0:
228,87,55423,1,0,0:0:0:0:
9,141,55581,1,2,0:0:0:0:
227,237,55739,1,0,0:0:0:0:
126,31,55897,1,8,0:0:0:0:
240,270,56054,6,0,B|302:289|302:289|379:273|461:281,1,215.999993408203,6|0,0:0|0:0,0:0:0:0:
305,147,56528,1,8,0:0:0:0:
448,183,56686,1,0,0:0:0:0:
231,177,56844,2,0,P|230:119|261:80,1,107.999996704102,2|0,0:0|0:0,0:0:0:0:
284,257,57160,2,0,P|228:274|181:260,1,107.999996704102,8|0,0:0|0:0,0:0:0:0:
34,133,57476,6,0,L|111:125,1,53.9999983520508,2|0,0:0|0:0,0:0:0:0:
196,112,57633,1,0,0:0:0:0:
89,237,57791,1,8,0:0:0:0:
146,51,57949,1,0,0:0:0:0:
164,280,58107,1,2,0:0:0:0:
80,104,58265,1,0,0:0:0:0:
320,160,58423,1,8,0:0:0:0:
64,248,58581,1,0,0:0:0:0:
240,52,58739,5,2,0:0:0:0:
284,320,58897,1,0,0:0:0:0:
176,189,59054,1,8,0:0:0:0:
392,235,59212,1,0,0:0:0:0:
143,177,59370,2,0,P|154:117|286:137,1,215.999993408203,2|8,0:0|0:0,0:0:0:0:
347,183,59765,5,8,0:0:0:0:
385,165,59843,1,8,0:0:0:0:
427,174,59922,1,8,0:0:0:0:
455,206,60002,6,0,P|460:255|419:299,1,107.999996704102,6|0,0:0|0:0,0:0:0:0:
232,216,60318,1,2,0:0:0:0:
368,367,60475,1,8,0:0:0:0:
176,292,60633,1,2,0:0:0:0:
397,381,60791,1,8,0:0:0:0:
145,277,60949,1,2,0:0:0:0:
420,232,61107,6,0,B|436:175|436:175|427:123|427:123|439:52,1,161.999995056153,6|0,0:0|0:0,0:0:0:0:
447,40,61423,1,0,0:0:0:0:
273,149,61581,1,8,0:0:0:0:
354,64,61739,1,0,0:0:0:0:
253,241,61897,2,0,L|252:126,1,107.999996704102,2|0,0:0|0:0,0:0:0:0:
108,21,62212,1,8,0:0:0:0:
108,21,62370,1,0,0:0:0:0:
27,209,62528,6,0,P|12:158|38:104,1,107.999996704102,6|0,0:0|0:0,0:0:0:0:
92,163,62765,1,0,0:0:0:0:
92,163,62844,1,8,0:0:0:0:
207,370,63002,1,0,0:0:0:0:
270,166,63160,1,2,0:0:0:0:
250,204,63238,1,2,0:0:0:0:
250,246,63317,1,2,0:0:0:0:
270,284,63396,1,2,0:0:0:0:
304,309,63475,1,2,0:0:0:0:
347,315,63554,1,2,0:0:0:0:
387,301,63633,6,0,B|406:274|406:274|411:183,1,107.999996704102,4|0,0:0|0:0,0:0:0:0:
268,48,63949,1,0,0:0:0:0:
466,99,64107,1,8,0:0:0:0:
220,169,64265,1,0,0:0:0:0:
220,169,64344,1,0,0:0:0:0:
220,169,64423,1,2,0:0:0:0:
393,58,64581,1,2,0:0:0:0:
381,99,64659,1,2,0:0:0:0:
391,140,64738,1,2,0:0:0:0:
420,171,64817,1,10,0:0:0:0:
461,199,64897,1,10,0:0:0:0:
482,247,64975,1,10,0:0:0:0:
464,297,65054,6,0,P|407:312|349:289,1,107.999996704102,6|0,0:0|0:0,0:0:0:0:
188,206,65370,1,8,0:0:0:0:
391,140,65528,1,2,0:0:0:0:
193,314,65686,1,8,0:0:0:0:
284,142,65844,1,2,0:0:0:0:
70,292,66002,1,8,0:0:0:0:
261,256,66160,1,2,0:0:0:0:
2,190,66318,5,8,0:0:0:0:
161,299,66475,1,2,0:0:0:0:
61,68,66633,1,8,0:0:0:0:
50,316,66791,1,2,0:0:0:0:
212,27,66949,1,8,0:0:0:0:
93,245,67107,1,2,0:0:0:0:
355,222,67265,1,8,0:0:0:0:
93,99,67423,1,2,0:0:0:0:
261,281,67581,5,10,0:0:0:0:
201,155,67739,1,2,0:0:0:0:
275,312,67897,1,8,0:0:0:0:
305,66,68054,1,2,0:0:0:0:
107,253,68212,1,8,0:0:0:0:
418,217,68370,1,2,0:0:0:0:
403,176,68449,1,2,0:0:0:0:
370,147,68528,1,2,0:0:0:0:
327,139,68607,1,10,0:0:0:0:
285,147,68685,1,10,0:0:0:0:
249,172,68764,1,10,0:0:0:0:
229,211,68844,6,0,P|218:278|230:317,1,107.999996704102,14|0,0:0|0:0,0:0:0:0:
285,147,69160,1,8,0:0:0:0:
426,260,69318,2,0,P|490:231|425:125,1,215.999993408203,6|0,0:0|0:0,0:0:0:0:
180,138,69791,2,0,L|295:136,1,107.999996704102,8|0,0:0|0:0,0:0:0:0:
149,244,70107,5,8,0:0:0:0:
363,156,70265,1,2,0:0:0:0:
228,354,70423,1,8,0:0:0:0:
228,354,70739,6,0,P|286:305|201:103,1,323.999990112305,10|0,0:0|0:0,0:0:0:0:
49,101,71370,5,8,0:0:0:0:
183,241,71528,1,2,0:0:0:0:
109,16,71686,1,8,0:0:0:0:
109,16,72002,6,0,P|51:65|136:267,1,323.999990112305,10|0,0:0|0:0,0:0:0:0:
204,273,72554,1,0,0:0:0:0:
204,273,72633,1,8,0:0:0:0:
108,116,72791,1,2,0:0:0:0:
164,357,72949,1,8,0:0:0:0:
164,357,73265,6,0,P|282:261|412:340,1,323.999990112305,10|8,0:0|0:0,0:0:0:0:
240,368,73897,5,2,0:0:0:0:
385,261,74054,1,0,0:0:0:0:
177,156,74212,1,12,0:0:0:0:
268,288,74370,1,0,0:0:0:0:
325,61,74528,1,2,0:0:0:0:
325,61,74607,1,2,0:0:0:0:
325,61,74686,5,2,0:0:0:0:
286,80,74765,1,2,0:0:0:0:
243,85,74843,1,2,0:0:0:0:
202,73,74922,1,2,0:0:0:0:
164,52,75001,1,2,0:0:0:0:
123,39,75080,1,2,0:0:0:0:
80,41,75159,5,10,0:0:0:0:
9,184,75318,1,2,0:0:0:0:
164,52,75475,1,8,0:0:0:0:
164,52,75791,6,0,B|156:107|173:146|173:146|154:179|157:207|157:207|161:250|136:284|136:284|149:321|142:378,1,323.999990112305,10|0,0:0|0:0,0:0:0:0:
277,242,76423,5,8,0:0:0:0:
73,330,76581,1,2,0:0:0:0:
281,123,76739,1,8,0:0:0:0:
281,123,77054,6,0,P|344:129|236:211,1,323.999990112305,10|0,0:0|0:0,0:0:0:0:
140,94,77686,5,8,0:0:0:0:
306,191,77844,1,2,0:0:0:0:
42,169,78002,1,8,0:0:0:0:
384,109,78318,5,12,0:0:0:0:
226,150,78475,1,0,0:0:0:0:
347,261,78633,1,2,0:0:0:0:
242,58,78791,1,0,0:0:0:0:
260,321,78949,5,8,0:0:0:0:
260,321,79107,1,2,0:0:0:0:
125,174,79265,2,0,L|239:170,1,107.999996704102,8|0,0:0|0:0,0:0:0:0:
408,157,79581,2,0,P|389:205|406:265,1,107.999996704102,8|0,0:0|0:0,0:0:0:0:
232,170,79897,2,0,P|251:122|234:62,1,107.999996704102,8|0,0:0|0:0,0:0:0:0:
153,192,80212,5,2,0:0:0:0:
167,220,80290,1,2,0:0:0:0:
192,241,80369,1,2,0:0:0:0:
222,251,80448,1,2,0:0:0:0:
254,248,80527,1,8,0:0:0:0:
283,233,80606,1,2,0:0:0:0:
304,208,80685,5,8,0:0:0:0:
326,177,80765,1,2,0:0:0:0:
359,161,80843,1,2,0:0:0:0:
396,158,80922,1,2,0:0:0:0:
433,163,81001,1,2,0:0:0:0:
464,184,81081,1,2,0:0:0:0:
488,213,81160,6,0,P|492:250|486:277,1,53.9999983520508,8|8,0:0|0:0,0:0:0:0:
276,381,81318,2,0,P|272:344|278:317,1,53.9999983520508,8|8,0:0|0:0,0:0:0:0:
326,110,81475,5,14,0:0:0:0:
180,211,81633,1,2,0:0:0:0:
353,90,81791,1,8,0:0:0:0:
162,339,81949,1,8,0:0:0:0:
321,278,82107,1,10,0:0:0:0:
131,353,82265,1,2,0:0:0:0:
260,154,82423,1,8,0:0:0:0:
58,286,82581,1,2,0:0:0:0:
340,207,82739,5,8,0:0:0:0:
96,77,82897,1,8,0:0:0:0:
173,218,83054,1,10,0:0:0:0:
26,148,83212,1,2,0:0:0:0:
253,50,83370,2,0,L|142:45,1,107.999996704102,10|10,0:0|0:0,0:0:0:0:
366,113,83686,1,8,0:0:0:0:
223,189,83844,1,2,0:0:0:0:
380,30,84002,5,14,0:0:0:0:
336,312,84160,1,2,0:0:0:0:
215,88,84318,1,8,0:0:0:0:
511,208,84475,1,8,0:0:0:0:
313,228,84633,1,2,0:0:0:0:
449,139,84791,1,2,0:0:0:0:
302,363,84949,1,12,0:0:0:0:
381,72,85107,1,2,0:0:0:0:
197,279,85265,5,8,0:0:0:0:
437,244,85423,1,8,0:0:0:0:
176,117,85581,1,8,0:0:0:0:
260,368,85739,1,2,0:0:0:0:
164,85,85897,1,12,0:0:0:0:
164,85,86528,6,0,P|224:80|145:209,1,323.999990112305,6|0,0:0|0:0,0:0:0:0:
76,29,87160,2,0,B|90:93|63:140|63:140|81:235|81:235|37:282|68:357,1,323.999990112305
151,300,87712,1,0,0:0:0:0:
151,300,87791,5,8,0:0:0:0:
304,249,87949,1,8,0:0:0:0:
457,198,88107,1,8,0:0:0:0:
306,143,88265,1,2,0:0:0:0:
409,358,88423,1,2,0:0:0:0:
424,44,88581,1,8,0:0:0:0:
321,40,89054,5,2,0:0:0:0:
361,196,89212,1,0,0:0:0:0:
224,116,89370,1,8,0:0:0:0:
361,196,89528,2,0,P|413:205|462:190,1,90,2|0,0:0|0:0,0:0:0:0:
302,123,89844,1,2,0:0:0:0:
331,282,90002,1,2,0:0:0:0:
331,282,90081,1,0,0:0:0:0:
331,282,90160,1,2,0:0:0:0:
216,100,90318,5,2,0:0:0:0:
245,258,90475,1,2,0:0:0:0:
155,165,90633,1,2,0:0:0:0:
345,189,90791,1,0,0:0:0:0:
345,189,90870,1,0,0:0:0:0:
345,189,90949,2,0,L|237:187,1,90,2|0,0:0|0:0,0:0:0:0:
64,179,91265,2,0,L|117:181,1,45,2|0,0:0|0:0,0:0:0:0:
203,105,91423,6,0,L|256:107,2,45,2|2|10,0:0|0:0|0:0,0:0:0:0:
21,101,91739,1,2,0:0:0:0:
128,24,91897,1,2,0:0:0:0:
21,101,92055,2,0,L|81:88,1,45,2|0,0:0|0:0,0:0:0:0:
139,180,92212,2,0,L|199:193,1,45,2|0,0:0|0:0,0:0:0:0:
279,98,92370,2,0,L|339:85,1,45,2|0,0:0|0:0,0:0:0:0:
422,200,92528,2,8,L|434:243,5,30
414,176,92844,5,2,0:0:0:0:
298,348,93002,1,2,0:0:0:0:
232,252,93160,1,8,0:0:0:0:
422,200,93318,6,0,L|440:259,1,60,2|2,0:0|0:0,0:0:0:0:
344,277,93476,2,0,L|324:217,1,45,2|2,0:0|0:0,0:0:0:0:
247,219,93634,5,2,0:0:0:0:
270,181,93712,1,0,0:0:0:0:
310,160,93791,1,2,0:0:0:0:
354,161,93870,1,0,0:0:0:0:
359,116,93949,6,8,L|360:85,2,30
362,60,94107,6,0,B|275:21|274:108|171:58,1,180,2|0,0:0|0:0,0:0:0:0:
45,70,94581,1,0,0:0:0:0:
45,70,94739,2,0,P|-8:88|96:144,1,270,2|0,0:0|0:0,0:0:0:0:
170,250,95370,6,0,L|351:243,1,180,2|0,0:0|0:0,0:0:0:0:
171,250,95844,1,0,0:0:0:0:
305,159,96002,1,2,0:0:0:0:
351,314,96160,1,0,0:0:0:0:
154,273,96318,1,8,0:0:0:0:
353,228,96475,1,0,0:0:0:0:
130,297,96633,6,0,L|125:101,1,180,10|0,0:0|0:0,0:0:0:0:
342,48,97107,1,0,0:0:0:0:
342,48,97265,2,0,L|347:244,1,180,2|0,0:0|0:0,0:0:0:0:
194,168,97739,1,0,0:0:0:0:
194,168,97897,6,0,P|249:166|209:258,1,180,2|2,0:0|0:0,0:0:0:0:
44,340,98370,2,0,L|224:336,1,180,2|0,0:0|0:0,0:0:0:0:
368,336,98844,1,8,0:0:0:0:
368,336,99002,1,0,0:0:0:0:
387,131,99160,5,10,0:0:0:0:
216,252,99318,1,0,0:0:0:0:
408,117,99476,2,0,L|405:220,1,90,8|0,0:0|0:0,0:0:0:0:
263,126,99791,2,0,L|194:117,1,45,2|0,0:0|0:0,0:0:0:0:
332,236,99949,1,0,0:0:0:0:
124,148,100107,1,8,0:0:0:0:
312,68,100265,1,0,0:0:0:0:
212,312,100423,5,2,0:0:0:0:
338,140,100581,1,0,0:0:0:0:
152,220,100739,1,8,0:0:0:0:
367,133,100897,1,0,0:0:0:0:
136,187,101054,2,0,P|123:148|136:96,1,90,2|0,0:0|0:0,0:0:0:0:
338,140,101370,2,0,P|351:179|338:231,1,90,8|0,0:0|0:0,0:0:0:0:
297,75,101686,6,0,P|354:65|412:160,1,180,2|0,0:0|0:0,0:0:0:0:
472,52,102160,1,0,0:0:0:0:
338,140,102318,2,0,P|301:157|317:278,1,180,2|0,0:0|0:0,0:0:0:0:
428,328,102791,1,0,0:0:0:0:
350,214,102949,6,0,B|261:174|260:272|149:227,1,180,2|0,0:0|0:0,0:0:0:0:
57,199,103423,1,0,0:0:0:0:
159,114,103581,2,0,B|174:109|191:95|191:95|171:172|179:248,1,180,2|0,0:0|0:0,0:0:0:0:
191,363,104055,1,0,0:0:0:0:
274,193,104212,6,0,P|325:148|353:289,1,270,2|0,0:0|0:0,0:0:0:0:
341,217,104844,2,0,B|445:201|510:212|510:212|445:201|403:171,1,270,2|0,0:0|0:0,0:0:0:0:
263,112,105476,2,0,B|159:128|94:117|94:117|159:128|201:158,1,270,2|0,0:0|0:0,0:0:0:0:
283,212,106107,1,2,0:0:0:0:
123,240,106265,1,0,0:0:0:0:
238,354,106423,1,8,0:0:0:0:
283,212,106581,1,0,0:0:0:0:
123,240,106739,6,0,P|76:194|218:147,1,270,2|0,0:0|0:0,0:0:0:0:
148,170,107370,6,0,P|125:108|274:128,1,270,2|0,0:0|0:0,0:0:0:0:
199,116,108002,6,0,L|195:304,1,180,2|2,0:0|0:2,0:0:0:0:
199,116,108476,1,0,0:0:0:0:
294,227,108633,1,2,0:0:0:0:
105,114,108949,1,8,0:0:0:0:
319,45,109265,5,2,0:0:0:0:
394,213,109423,1,2,0:0:0:0:
245,147,109581,1,0,0:0:0:0:
447,114,109739,1,0,0:0:0:0:
212,158,109897,2,0,P|171:163|120:156,1,90,2|0,0:0|0:0,0:0:0:0:
260,71,110212,1,8,0:0:0:0:
88,148,110370,1,0,0:0:0:0:
233,284,110528,5,2,0:0:0:0:
52,137,110686,1,0,0:0:0:0:
261,306,110844,1,8,0:0:0:0:
98,252,111002,1,0,0:0:0:0:
98,252,111081,1,0,0:0:0:0:
98,252,111160,2,0,L|210:249,1,90,2|0,0:0|0:0,0:0:0:0:
404,149,111475,2,0,L|267:154,1,135,8|0,0:0|0:0,0:0:0:0:
168,82,111791,6,0,L|478:71,1,270,2|0,0:0|0:0,0:0:0:0:
404,149,112423,2,0,L|92:159,1,270,2|0,0:0|0:0,0:0:0:0:
49,162,113054,5,2,0:0:0:0:
256,54,113370,1,2,0:2:0:0:
149,274,113686,1,2,0:0:0:0:
149,274,114002,1,2,0:0:0:0:
380,128,114318,5,2,0:0:0:0:
172,224,118423,5,8,0:0:0:0:
312,144,118581,1,0,0:0:0:0:
312,144,118660,1,0,0:0:0:0:
312,144,118739,1,2,0:0:0:0:
243,329,118897,1,0,0:0:0:0:
374,195,119054,2,0,P|392:146|373:95,1,90,12|0,0:0|0:0,0:0:0:0:
216,29,119370,5,10,0:0:0:0:
280,177,119528,1,2,0:0:0:0:
110,76,119686,1,8,0:0:0:0:
110,76,119844,1,0,0:0:0:0:
28,215,120002,2,0,P|15:257|28:305,1,90,2|0,0:0|0:0,0:0:0:0:
182,257,120318,2,0,L|84:259,1,90,8|0,0:0|0:0,0:0:0:0:
250,300,120633,6,0,P|261:257|248:215,1,90,6|0,0:0|0:0,0:0:0:0:
107,132,120949,1,8,0:0:0:0:
294,104,121107,1,0,0:0:0:0:
294,104,121265,2,0,P|340:93|388:105,1,90,2|0,0:0|0:0,0:0:0:0:
342,260,121581,2,0,L|340:162,1,90,8|0,0:0|0:0,0:0:0:0:
388,325,121897,6,0,P|342:336|294:324,1,90,6|0,0:0|0:0,0:0:0:0:
153,259,122212,1,8,0:0:0:0:
342,260,122370,1,0,0:0:0:0:
179,260,122528,1,2,0:0:0:0:
311,125,122686,1,0,0:0:0:0:
124,261,122844,2,0,L|121:163,1,90,8|0,0:0|0:0,0:0:0:0:
266,59,123160,6,0,P|311:46|358:58,1,90,12|0,0:0|0:0,0:0:0:0:
170,324,123476,2,0,P|125:337|78:325,1,90,8|0,0:0|0:0,0:0:0:0:
268,230,123791,1,8,0:0:0:0:
81,161,123949,1,8,0:0:0:0:
116,163,124027,1,8,0:0:0:0:
152,156,124106,1,8,0:0:0:0:
185,143,124185,1,8,0:0:0:0:
219,133,124264,1,8,0:0:0:0:
255,133,124343,1,8,0:0:0:0:
290,141,124422,5,8,0:0:0:0:
207,283,129475,5,6,0:0:0:0:
86,161,129633,1,0,0:0:0:0:
166,355,129791,2,0,P|214:366|257:350,1,90,8|0,0:0|0:0,0:0:0:0:
398,231,130107,2,0,P|412:184|343:220,1,180,6|8,0:0|0:0,0:0:0:0:
419,92,130581,1,0,0:0:0:0:
424,305,130739,5,10,0:0:0:0:
473,141,130897,1,2,0:0:0:0:
470,368,131054,2,0,P|427:381|377:366,1,90,8|0,0:0|0:0,0:0:0:0:
230,243,131370,2,0,P|216:290|285:254,1,180,6|8,0:0|0:0,0:0:0:0:
135,321,131844,1,0,0:0:0:0:
206,73,131967,5,6,0:0:0:0:
420,178,132124,1,0,0:0:0:0:
142,205,132282,1,8,0:0:0:0:
341,39,132467,1,4,0:0:0:0:
231,314,132634,1,2,0:0:0:0:
386,108,132791,1,0,0:0:0:0:
386,108,132870,1,0,0:0:0:0:
386,108,132949,1,8,0:0:0:0:
175,225,133107,1,0,0:0:0:0:
175,225,133186,1,0,0:0:0:0:
175,225,133265,6,0,L|76:219,1,90,10|0,0:0|0:0,0:0:0:0:
386,108,133581,2,0,L|485:114,1,90,8|0,0:0|0:0,0:0:0:0:
233,84,133897,1,2,0:0:0:0:
357,255,134054,1,0,0:0:0:0:
312,19,134212,1,8,0:0:0:0:
212,184,134370,1,0,0:0:0:0:
415,0,134528,6,0,L|399:179,1,180,6|0,0:0|0:0,0:0:0:0:
135,286,135002,2,0,L|151:103,1,180,4|0,0:0|0:0,0:0:0:0:
463,227,135475,6,0,P|423:253|319:182,1,180,12|2,0:0|0:0,0:0:0:0:
72,92,135949,2,0,P|132:31|214:58,1,180,4|0,0:0|0:0,0:0:0:0:
247,227,136423,5,2,0:0:0:0:
495,351,136739,1,8,0:0:0:0:
168,251,137054,5,8,0:0:0:0:
362,101,137212,1,8,0:0:0:0:
382,87,137528,5,8,0:0:0:0:
130,164,137686,1,8,0:0:0:0:
106,171,138002,5,8,0:0:0:0:
200,368,138160,1,8,0:0:0:0:
311,172,138318,5,10,0:0:0:0:
311,172,138397,1,0,0:0:0:0:
311,172,138475,1,0,0:0:0:0:
167,264,138633,1,8,0:0:0:0:
271,85,138791,1,0,0:0:0:0:
271,85,138870,1,0,0:0:0:0:
271,85,138949,1,8,0:0:0:0:
335,321,139107,1,0,0:0:0:0:
422,30,139265,1,12,0:0:0:0:
256,192,139581,12,0,141949,0:0:0:0:
73,333,142107,6,0,P|57:275|75:218,1,112.5,6|0,0:0|0:0,0:0:0:0:
237,121,142423,1,8,0:0:0:0:
173,275,142581,1,0,0:0:0:0:
354,184,142739,1,2,0:0:0:0:
154,148,142897,2,0,L|218:142,1,56.25
338,73,143054,1,8,0:0:0:0:
431,273,143212,6,0,B|428:227|428:227|444:168|444:168|446:99,1,168.75,6|0,0:0|0:0,0:0:0:0:
491,42,143528,2,0,P|443:27|384:56,1,112.5,0|8,0:0|0:0,0:0:0:0:
320,241,143844,2,0,P|269:262|215:247,1,112.5,0|2,0:0|0:0,0:0:0:0:
61,162,144160,1,0,0:0:0:0:
263,189,144318,1,8,0:0:0:0:
124,236,144475,1,0,0:0:0:0:
259,85,144633,5,6,0:0:0:0:
174,319,144791,1,0,0:0:0:0:
270,56,144949,1,8,0:0:0:0:
59,155,145107,1,0,0:0:0:0:
370,120,145265,1,2,0:0:0:0:
177,182,145423,1,0,0:0:0:0:
414,318,145581,1,8,0:0:0:0:
214,282,145739,1,0,0:0:0:0:
470,165,145897,5,6,0:0:0:0:
301,373,146054,1,0,0:0:0:0:
494,143,146212,1,8,0:0:0:0:
262,210,146370,1,0,0:0:0:0:
262,210,146449,1,0,0:0:0:0:
262,210,146528,1,2,0:0:0:0:
454,272,146686,1,0,0:0:0:0:
281,99,146844,1,8,0:0:0:0:
332,295,147002,1,0,0:0:0:0:
332,295,147081,1,0,0:0:0:0:
332,295,147160,5,8,0:0:0:0:
494,143,147318,1,8,0:0:0:0:
327,187,147475,1,2,0:0:0:0:
508,338,147633,1,8,0:0:0:0:
427,260,147791,1,2,0:0:0:0:
249,358,147949,1,8,0:0:0:0:
453,246,148107,1,2,0:0:0:0:
218,368,148265,6,0,P|176:306|257:184,1,225,6|0,0:0|0:0,0:0:0:0:
418,84,148739,2,0,P|363:70|308:84,1,112.5,8|0,0:0|0:0,0:0:0:0:
178,242,149054,2,0,P|159:188|178:132,1,112.5,2|0,0:0|0:0,0:0:0:0:
290,305,149370,1,12,0:0:0:0:
442,171,149528,1,0,0:0:0:0:
260,319,149686,6,0,B|229:327|229:327|141:322,1,112.5,2|0,0:0|0:0,0:0:0:0:
68,316,149923,1,0,0:0:0:0:
68,316,150002,1,8,0:0:0:0:
250,215,150160,1,0,0:0:0:0:
116,37,150318,1,8,0:0:0:0:
80,64,150397,1,8,0:0:0:0:
59,103,150475,1,8,0:0:0:0:
55,147,150554,1,8,0:0:0:0:
73,188,150633,1,8,0:0:0:0:
216,217,150791,6,0,L|390:209,1,168.75,6|0,0:0|0:0,0:0:0:0:
420,209,151107,1,0,0:0:0:0:
280,62,151265,1,8,0:0:0:0:
340,335,151423,1,0,0:0:0:0:
160,349,151581,1,2,0:0:0:0:
160,349,151660,1,2,0:0:0:0:
160,349,151739,5,2,0:0:0:0:
121,372,151818,1,8,0:0:0:0:
77,371,151896,1,8,0:0:0:0:
46,340,151975,1,8,0:0:0:0:
47,296,152054,1,8,0:0:0:0:
79,266,152133,1,8,0:0:0:0:
123,268,152212,6,0,P|183:273|247:257,1,112.5,6|0,0:0|0:0,0:0:0:0:
421,178,152528,1,8,0:0:0:0:
233,101,152686,1,2,0:0:0:0:
359,325,152844,1,8,0:0:0:0:
501,181,153002,1,2,0:0:0:0:
227,243,153160,1,8,0:0:0:0:
377,107,153318,1,2,0:0:0:0:
377,107,153397,1,0,0:0:0:0:
377,107,153475,5,8,0:0:0:0:
120,201,153633,1,2,0:0:0:0:
238,36,153791,1,8,0:0:0:0:
195,272,153949,1,2,0:0:0:0:
93,33,154107,1,8,0:0:0:0:
299,218,154265,1,2,0:0:0:0:
28,122,154423,1,8,0:0:0:0:
229,101,154581,1,2,0:0:0:0:
84,314,154739,5,12,0:0:0:0:
147,121,154897,1,2,0:0:0:0:
185,366,155054,1,8,0:0:0:0:
51,213,155212,1,2,0:0:0:0:
283,318,155370,1,8,0:0:0:0:
80,302,155528,1,2,0:0:0:0:
290,192,155686,1,8,0:0:0:0:
247,164,155764,1,8,0:0:0:0:
196,161,155843,1,8,0:0:0:0:
151,186,155922,1,8,0:0:0:0:
131,233,156002,6,0,P|76:224|17:237,1,112.5,6|0,0:0|0:0,0:0:0:0:
215,297,156318,1,8,0:0:0:0:
313,121,156475,2,0,P|361:84|374:193,1,225,8|0,0:0|0:0,0:0:0:0:
180,152,156949,2,0,L|61:145,1,112.5,8|0,0:0|0:0,0:0:0:0:
258,73,157265,5,8,0:0:0:0:
181,260,157423,1,2,0:0:0:0:
276,40,157581,1,8,0:0:0:0:
276,40,157897,6,0,P|214:45|316:174,1,337.5,10|0,0:0|0:0,0:0:0:0:
471,87,158528,5,12,0:0:0:0:
397,275,158686,1,2,0:0:0:0:
481,62,158844,1,8,0:0:0:0:
481,62,159160,6,0,P|507:118|344:94,1,337.5,10|0,0:0|0:0,0:0:0:0:
319,38,159712,1,0,0:0:0:0:
319,38,159791,5,8,0:0:0:0:
136,126,159949,1,2,0:0:0:0:
347,29,160107,1,8,0:0:0:0:
347,29,160423,6,0,B|174:2|188:104|11:54,1,337.5,14|0,0:0|0:0,0:0:0:0:
20,137,160975,1,0,0:0:0:0:
20,137,161054,5,8,0:0:0:0:
189,134,161212,1,8,0:0:0:0:
27,256,161370,1,2,0:0:0:0:
115,107,161528,1,2,0:0:0:0:
116,309,161686,1,12,0:0:0:0:
233,212,161844,1,2,0:0:0:0:
33,176,162002,1,8,0:0:0:0:
225,112,162160,1,2,0:0:0:0:
211,314,162318,5,12,0:0:0:0:
342,161,162475,1,2,0:0:0:0:
190,339,162633,1,8,0:0:0:0:
188,339,162949,6,0,B|218:288|218:288|174:228|175:184|175:184|183:160|184:136|184:136|163:79|202:7,1,337.5,10|0,0:0|0:0,0:0:0:0:
350,100,163581,5,8,0:0:0:0:
326,123,163660,1,8,0:0:0:0:
313,154,163739,1,8,0:0:0:0:
309,187,163818,1,8,0:0:0:0:
318,219,163897,1,8,0:0:0:0:
318,219,164212,6,0,P|398:201|340:101,1,225,14|0,0:0|0:0,0:0:0:0:
237,108,164686,1,2,0:0:0:0:
143,287,164844,5,14,0:0:0:0:
109,87,165002,1,0,0:0:0:0:
150,319,165160,1,8,0:0:0:0:
240,197,165318,1,8,0:0:0:0:
62,291,165475,1,2,0:0:0:0:
154,164,165633,1,0,0:0:0:0:
228,364,165791,1,8,0:0:0:0:
338,193,165949,1,0,0:0:0:0:
338,193,166028,1,0,0:0:0:0:
338,193,166107,6,0,L|331:316,1,112.5,6|0,0:0|0:0,0:0:0:0:
155,201,166423,2,0,P|138:147|158:93,1,112.5,8|0,0:0|0:0,0:0:0:0:
393,255,166739,2,0,P|410:309|390:363,1,112.5,8|0,0:0|0:0,0:0:0:0:
135,220,167055,2,0,P|118:166|138:112,1,112.5,8|0,0:0|0:0,0:0:0:0:
471,272,167370,5,2,0:0:0:0:
457,300,167449,1,2,0:0:0:0:
432,321,167528,1,2,0:0:0:0:
402,331,167607,1,2,0:0:0:0:
370,328,167686,1,8,0:0:0:0:
341,313,167765,1,2,0:0:0:0:
317,289,167844,5,8,0:0:0:0:
291,261,167923,1,2,0:0:0:0:
256,246,168002,1,2,0:0:0:0:
219,237,168081,1,2,0:0:0:0:
182,235,168160,1,2,0:0:0:0:
144,240,168239,1,2,0:0:0:0:
107,251,168318,6,0,P|103:288|108:314,1,56.25,8|8,0:0|0:0,0:0:0:0:
239,87,168476,2,0,P|243:50|235:25,1,56.25,8|8,0:0|0:0,0:0:0:0:
26,193,168634,5,14,0:0:0:0:
223,160,168791,1,2,0:0:0:0:
71,316,168949,1,8,0:0:0:0:
173,58,169107,1,12,0:0:0:0:
144,258,169265,1,8,0:0:0:0:
176,28,169423,1,2,0:0:0:0:
342,266,169581,1,12,0:0:0:0:
162,172,169739,1,2,0:0:0:0:
368,285,169897,5,2,0:0:0:0:
276,59,170054,1,12,0:0:0:0:
219,253,170212,1,2,0:0:0:0:
395,153,170370,1,2,0:0:0:0:
196,272,170528,2,0,L|311:267,1,112.5,8|2,0:0|0:0,0:0:0:0:
75,224,170844,1,12,0:0:0:0:
234,98,171002,1,2,0:0:0:0:
141,344,171160,5,14,0:0:0:0:
76,99,171318,1,2,0:0:0:0:
321,268,171475,1,8,0:0:0:0:
52,80,171633,1,12,0:0:0:0:
184,230,171791,1,8,0:0:0:0:
312,73,171949,1,2,0:0:0:0:
76,218,172107,1,12,0:0:0:0:
362,183,172265,1,2,0:0:0:0:
31,145,172423,5,2,0:0:0:0:
394,270,172581,1,8,0:0:0:0:
178,169,172739,1,8,0:0:0:0:
287,368,172897,1,8,0:0:0:0:
249,76,173054,1,12,0:0:0:0:
477,163,173686,6,0,B|422:161|422:161|373:181|317:163|317:163|251:267|154:180,1,337.5,6|0,0:0|0:0,0:0:0:0:
234,146,174318,2,0,P|94:162|175:277,1,337.5,2|0,0:0|0:0,0:0:0:0:
264,272,174870,1,0,0:0:0:0:
264,272,174949,5,8,0:0:0:0:
376,222,175107,1,8,0:0:0:0:
489,171,175265,1,8,0:0:0:0:
358,325,175423,1,2,0:0:0:0:
380,72,175581,1,8,0:0:0:0:
129,228,175739,1,2,0:0:0:0:
168,226,175817,1,2,0:0:0:0:
203,208,175896,1,2,0:0:0:0:
228,178,175975,1,2,0:0:0:0:
239,141,176054,1,2,0:0:0:0:
234,102,176133,1,2,0:0:0:0:
211,70,176212,6,0,L|93:88,1,112.5,2|8,0:0|0:0,0:0:0:0:
24,105,176449,1,2,0:0:0:0:
24,105,176528,1,10,0:0:0:0:
117,295,176686,1,0,0:0:0:0:
117,295,176765,1,0,0:0:0:0:
117,295,176844,2,0,L|241:287,1,112.5,2|0,0:0|0:0,0:0:0:0:
395,89,177160,2,0,L|271:97,1,112.5,8|0,0:0|0:0,0:0:0:0:
97,177,177476,6,0,L|168:172,1,56.25,6|0,0:0|0:0,0:0:0:0:
278,167,177633,1,2,0:0:0:0:
121,284,177791,1,8,0:0:0:0:
314,264,177949,2,0,P|366:227|335:83,1,225,2|0,0:0|0:0,0:0:0:0:
165,37,178423,1,8,0:0:0:0:
278,167,178581,1,2,0:0:0:0:
79,122,178739,5,8,0:0:0:0:
341,86,178897,2,0,P|379:134|307:267,1,225,2|0,0:0|0:0,0:0:0:0:
121,241,179370,1,8,0:0:0:0:
278,167,179528,1,0,0:0:0:0:
278,167,179607,1,0,0:0:0:0:
278,167,179686,1,8,0:0:0:0:
200,329,179844,1,0,0:0:0:0:
370,153,180002,6,0,L|354:222,1,56.25,6|0,0:0|0:0,0:0:0:0:
326,329,180160,1,2,0:0:0:0:
454,203,180318,1,8,0:0:0:0:
237,221,180475,2,0,B|122:181|116:253|0:211,1,225,2|0,0:0|0:0,0:0:0:0:
155,100,180949,1,8,0:0:0:0:
98,300,181107,1,2,0:0:0:0:
164,68,181265,5,8,0:0:0:0:
256,245,181423,1,2,0:0:0:0:
288,222,181502,1,2,0:0:0:0:
313,191,181581,1,2,0:0:0:0:
275,202,181660,1,2,0:0:0:0:
236,207,181739,1,2,0:0:0:0:
197,199,181818,1,2,0:0:0:0:
162,181,181897,1,2,0:0:0:0:
245,336,182054,1,0,0:0:0:0:
245,336,182133,1,0,0:0:0:0:
245,336,182212,1,8,0:0:0:0:
429,227,182370,1,0,0:0:0:0:
218,158,182528,6,0,L|290:151,1,56.25,6|0,0:0|0:0,0:0:0:0:
385,48,182686,2,0,L|313:55,1,56.25,2|0,0:0|0:0,0:0:0:0:
194,65,182844,1,8,0:0:0:0:
139,286,183002,2,0,B|123:233|123:233|120:38,1,225,2|0,0:0|0:0,0:0:0:0:
257,196,183476,2,0,L|262:256,1,56.25,2|0,0:0|0:0,0:0:0:0:
274,379,183633,1,2,0:0:0:0:
409,244,183791,5,8,0:0:0:0:
158,296,183949,1,8,0:0:0:0:
158,296,184028,1,0,0:0:0:0:
158,296,184107,6,8,P|119:302|71:294,2,75
257,196,184423,2,2,P|296:190|344:198,2,75
134,160,184738,2,2,P|95:154|47:162,2,75
257,196,185054,5,6,0:0:0:0:
109,74,185212,1,2,0:0:0:0:
173,300,185370,1,8,0:0:0:0:
266,113,185528,2,0,P|311:135|275:277,1,225,2|0,0:0|0:0,0:0:0:0:
95,217,186002,1,14,0:0:0:0:
303,349,186160,1,2,0:0:0:0:
41,291,186318,5,8,0:0:0:0:
253,127,186475,2,0,B|265:182|265:182|234:364,1,225,6|0,0:0|0:0,0:0:0:0:
129,188,186949,2,0,L|192:176,1,56.25,6|0,0:0|0:0,0:0:0:0:
191,66,187107,2,0,L|254:54,1,56.25,2|0,0:0|0:0,0:0:0:0:
288,157,187265,2,0,L|402:136,1,112.5,12|0,0:0|0:0,0:0:0:0:
184,177,187581,5,0,0:0:0:0:
172,184,192633,5,6,0:0:0:0:
352,121,192791,1,0,0:0:0:0:
271,294,192949,1,8,0:0:0:0:
288,61,193107,1,0,0:0:0:0:
272,325,193265,2,0,P|219:338|154:323,1,112.5,2|0,0:0|0:0,0:0:0:0:
341,245,193581,1,8,0:0:0:0:
341,245,193739,1,0,0:0:0:0:
174,151,193897,6,0,L|318:147,1,112.5,2|0,0:0|0:0,0:0:0:0:
477,143,194212,1,8,0:0:0:0:
314,41,194370,2,0,P|299:98|318:157,1,112.5,0|2,0:0|0:0,0:0:0:0:
418,309,194686,1,0,0:0:0:0:
418,309,194844,1,8,0:0:0:0:
492,132,195002,1,0,0:0:0:0:
451,378,195160,6,0,P|391:380|348:342,1,112.5,2|2,0:0|0:0,0:0:0:0:
236,196,195476,2,0,L|119:199,1,112.5,8|0,0:0|0:0,0:0:0:0:
333,111,195791,2,0,L|450:108,1,112.5,2|8,0:0|0:0,0:0:0:0:
260,56,196107,1,8,0:0:0:0:
260,56,196265,1,0,0:0:0:0:
302,263,196423,5,2,0:0:0:0:
302,263,196581,1,2,0:0:0:0:
131,348,196739,1,8,0:0:0:0:
241,168,196897,1,0,0:0:0:0:
117,376,197054,1,2,0:0:0:0:
258,142,197212,2,0,B|146:93|139:168|34:127,1,225,2|0,0:0|0:0,0:0:0:0:
190,222,197686,6,0,P|243:247|304:237,1,112.5,6|0,0:0|0:0,0:0:0:0:
456,135,198002,1,2,0:0:0:0:
255,166,198160,1,12,0:0:0:0:
422,259,198318,1,2,0:0:0:0:
316,100,198475,1,2,0:0:0:0:
336,336,198633,1,12,0:0:0:0:
295,78,198791,6,0,L|293:196,1,112.5,2|8,0:0|0:0,0:0:0:0:
199,22,199107,1,2,0:0:0:0:
291,221,199265,1,2,0:0:0:0:
103,122,199423,2,0,L|218:118,1,112.5,8|2,0:0|0:0,0:0:0:0:
407,111,199739,1,2,0:0:0:0:
197,208,199897,1,12,0:0:0:0:
197,208,200186,5,12,0:0:0:0:
438,100,200352,1,8,0:0:0:0:
438,100,200668,5,8,0:0:0:0:
89,258,200984,5,8,0:0:0:0:
438,100,201300,5,12,0:0:0:0:
162,60,201616,5,2,0:0:0:0:
228,239,201765,1,8,0:0:0:0:
42,193,201922,1,0,0:0:0:0:
42,193,202001,1,0,0:0:0:0:
42,193,202080,1,2,0:0:0:0:
260,137,202238,1,0,0:0:0:0:
92,341,202396,1,12,0:0:0:0:
395,230,202737,6,0,L|287:223,1,99.0000030212403,2|2,0:0|0:0,0:0:0:0:
118,151,203052,2,0,L|226:158,1,99.0000030212403,2|2,0:0|0:0,0:0:0:0:
389,246,203368,6,0,L|282:226,1,99.0000030212403,2|2,0:0|0:0,0:0:0:0:
124,134,203684,2,0,L|233:154,1,99.0000030212403,2|2,0:0|0:0,0:0:0:0:
412,234,204000,6,0,L|290:226,1,99.0000030212403,2|2,0:0|0:0,0:0:0:0:
100,145,204316,2,0,L|222:153,1,99.0000030212403,2|2,0:0|0:0,0:0:0:0:
406,252,204631,6,0,L|285:230,1,99.0000030212403,2|2,0:0|0:0,0:0:0:0:
106,126,204947,2,0,L|230:149,1,99.0000030212403,2|2,0:0|0:0,0:0:0:0:
307,257,205263,6,0,P|252:265|195:253,1,99.0000030212403,2|2,0:0|0:0,0:0:0:0:
76,137,205579,2,0,P|131:129|188:141,1,99.0000030212403,2|2,0:0|0:0,0:0:0:0:
337,176,205895,1,2,0:0:0:0:
147,214,206052,1,2,0:0:0:0:
366,155,206210,2,0,L|263:155,1,99.0000030212403,2|2,0:0|0:0,0:0:0:0:
95,155,206526,5,2,0:0:0:0:
248,86,206684,1,2,0:0:0:0:
147,214,206842,1,10,0:0:0:0:
182,49,207000,1,2,0:0:0:0:
225,213,207158,1,2,0:0:0:0:
117,86,207316,1,2,0:0:0:0:
267,155,207473,1,10,0:0:0:0:
95,155,207631,1,2,0:0:0:0:
376,78,207789,5,14,0:0:0:0:
376,78,209052,5,14,0:0:0:0:
376,78,210158,5,0,0:0:0:0:
376,78,210237,1,0,0:0:0:0:
376,78,210316,6,0,L|276:71,1,99.0000030212403,6|0,0:0|0:0,0:0:0:0:
82,114,210631,5,8,0:0:0:0:
251,278,210789,1,2,0:0:0:0:
210,45,210947,1,8,0:0:0:0:
107,257,211105,1,2,0:0:0:0:
315,146,211263,1,8,0:0:0:0:
61,110,211421,5,2,0:0:0:0:
263,306,211579,1,8,0:0:0:0:
214,28,211737,1,2,0:0:0:0:
90,281,211895,1,8,0:0:0:0:
339,148,212053,1,2,0:0:0:0:
54,106,212210,5,8,0:0:0:0:
273,317,212368,1,2,0:0:0:0:
218,17,212526,1,8,0:0:0:0:
85,290,212684,1,2,0:0:0:0:
354,146,212825,5,10,0:0:0:0:
322,127,212903,1,2,0:0:0:0:
283,128,212982,1,2,0:0:0:0:
246,143,213061,1,2,0:0:0:0:
219,171,213140,1,2,0:0:0:0:
203,207,213219,1,2,0:0:0:0:
194,251,213299,5,14,0:0:0:0:
174,211,213377,1,2,0:0:0:0:
180,168,213456,1,2,0:0:0:0:
210,135,213535,1,2,0:0:0:0:
252,125,213614,1,2,0:0:0:0:
293,141,213693,1,2,0:0:0:0:
325,178,213772,5,10,0:0:0:0:
371,204,213850,1,2,0:0:0:0:
424,207,213929,1,2,0:0:0:0:
472,183,214008,1,2,0:0:0:0:
502,138,214087,5,14,0:0:0:0:
183,83,214404,1,0,0:0:0:0:
291,343,214720,1,0,0:0:0:0:
169,57,215035,1,0,0:0:0:0:
256,192,215351,12,0,217720,0:0:0:0:
137,162,217897,5,6,0:0:0:0:
340,94,218054,1,0,0:0:0:0:
246,288,218212,2,0,P|239:228|252:169,1,119.699995068512,8|0,0:0|0:0,0:0:0:0:
440,58,218528,1,2,0:0:0:0:
227,21,218686,2,0,P|165:17|103:21,1,119.699995068512,0|8,0:0|0:0,0:0:0:0:
259,288,219002,6,0,P|266:228|247:160,1,119.699995068512,6|0,0:0|0:0,0:0:0:0:
51,88,219318,1,0,0:0:0:0:
182,257,219476,2,0,L|57:253,1,119.699995068512,8|0,0:0|0:0,0:0:0:0:
253,355,219791,1,2,0:0:0:0:
37,253,219949,1,0,0:0:0:0:
252,167,220107,1,8,0:0:0:0:
96,348,220265,1,0,0:0:0:0:
96,348,220344,1,0,0:0:0:0:
96,348,220423,5,6,0:0:0:0:
260,268,220581,1,0,0:0:0:0:
114,210,220739,1,8,0:0:0:0:
231,361,220897,1,0,0:0:0:0:
176,112,221054,1,2,0:0:0:0:
98,313,221212,1,0,0:0:0:0:
288,91,221370,1,8,0:0:0:0:
91,179,221528,1,0,0:0:0:0:
254,19,221686,6,0,P|298:11|360:56,1,119.699995068512,6|0,0:0|0:0,0:0:0:0:
331,266,222002,1,8,0:0:0:0:
288,91,222160,2,0,L|281:217,1,119.699995068512,0|2,0:0|0:0,0:0:0:0:
178,20,222475,1,0,0:0:0:0:
365,125,222633,1,12,0:0:0:0:
365,125,222949,5,10,0:0:0:0:
153,165,223107,1,2,0:0:0:0:
363,212,223265,2,0,P|384:270|363:334,1,119.699995068512,8|2,0:0|0:0,0:0:0:0:
172,274,223581,2,0,L|291:272,1,119.699995068512,8|2,0:0|0:0,0:0:0:0:
498,206,223897,1,8,0:0:0:0:
302,44,224036,6,0,B|240:132|363:178|281:288,1,239.399990137024,6|8,0:0|0:0,0:0:0:0:
376,99,224509,2,0,L|249:98,1,119.699995068512,8|0,0:0|0:0,0:0:0:0:
78,222,224844,2,0,B|69:184|69:184|72:87,1,119.699995068512,2|0,0:0|0:0,0:0:0:0:
271,19,225160,1,8,0:0:0:0:
178,213,225318,1,0,0:0:0:0:
375,131,225474,5,8,0:0:0:0:
375,131,225553,1,8,0:0:0:0:
375,131,225633,5,8,0:0:0:0:
340,121,225712,1,8,0:0:0:0:
304,122,225791,1,8,0:0:0:0:
269,130,225870,1,8,0:0:0:0:
237,147,225949,1,8,0:0:0:0:
396,294,226107,1,2,0:0:0:0:
396,294,226186,1,0,0:0:0:0:
396,294,226265,2,0,L|325:280,1,59.8499975342561,8|2,0:0|0:0,0:0:0:0:
160,247,226423,2,0,L|231:233,1,59.8499975342561,8|2,0:0|0:0,0:0:0:0:
346,207,226581,6,0,L|122:201,1,179.549992602768,14|0,0:0|0:0,0:0:0:0:
130,200,226897,1,2,0:0:0:0:
271,88,227054,1,8,0:0:0:0:
138,285,227212,1,0,0:0:0:0:
295,63,227370,1,2,0:0:0:0:
336,288,227528,1,8,0:0:0:0:
319,249,227606,1,8,0:0:0:0:
317,208,227685,1,8,0:0:0:0:
329,168,227764,1,8,0:0:0:0:
360,131,227843,5,8,0:0:0:0:
400,104,227922,1,8,0:0:0:0:
447,98,228001,1,14,0:0:0:0:
228,157,228160,1,2,0:0:0:0:
452,190,228318,1,8,0:0:0:0:
186,265,228475,1,2,0:0:0:0:
308,46,228633,1,8,0:0:0:0:
251,340,228791,1,2,0:0:0:0:
317,19,228949,1,8,0:0:0:0:
117,205,229107,1,6,0:0:0:0:
136,182,229186,1,0,0:0:0:0:
155,159,229265,5,8,0:0:0:0:
96,354,229423,1,2,0:0:0:0:
55,108,229581,1,8,0:0:0:0:
317,233,229739,1,2,0:0:0:0:
26,239,229897,1,8,0:0:0:0:
273,107,230054,1,2,0:0:0:0:
180,333,230212,1,12,0:0:0:0:
365,131,230370,1,2,0:0:0:0:
369,160,230449,1,0,0:0:0:0:
375,189,230528,5,10,0:0:0:0:
116,199,230686,1,2,0:0:0:0:
355,306,230844,1,12,0:0:0:0:
208,57,231002,1,2,0:0:0:0:
261,371,231160,1,12,0:0:0:0:
324,137,231318,1,2,0:0:0:0:
304,100,231396,1,2,0:0:0:0:
273,71,231475,1,8,0:0:0:0:
235,55,231554,1,2,0:0:0:0:
187,50,231633,1,2,0:0:0:0:
134,61,231712,1,2,0:0:0:0:
92,94,231791,5,14,0:0:0:0:
212,246,231949,1,0,0:0:0:0:
64,135,232107,1,8,0:0:0:0:
176,318,232265,2,0,P|235:323|260:180,1,239.399990137024,6|0,0:0|0:0,0:0:0:0:
59,227,232739,1,8,0:0:0:0:
339,61,233054,5,2,0:0:0:0:
130,114,233212,1,8,0:0:0:0:
411,180,233370,1,2,0:0:0:0:
411,180,233686,6,0,B|233:88|229:231|48:177,1,359.099985205536,14|0,0:0|0:0,0:0:0:0:
1,133,234239,1,0,0:0:0:0:
1,133,234318,1,8,0:0:0:0:
181,69,234475,1,2,0:0:0:0:
6,255,234633,1,8,0:0:0:0:
6,255,234949,6,0,P|83:271|136:137,1,239.399990137024,14|8,0:0|0:0,0:0:0:0:
50,36,235423,1,0,0:0:0:0:
50,36,235502,1,0,0:0:0:0:
50,36,235581,5,8,0:0:0:0:
190,199,235739,1,2,0:0:0:0:
321,0,235897,1,8,0:0:0:0:
321,0,236212,6,0,P|294:45|311:119,1,119.699995068512,2|0,0:0|0:0,0:0:0:0:
321,133,236449,1,8,0:0:0:0:
341,154,236528,1,8,0:0:0:0:
359,177,236607,1,8,0:0:0:0:
368,205,236686,1,8,0:0:0:0:
362,234,236765,1,8,0:0:0:0:
346,259,236844,5,8,0:0:0:0:
160,218,237002,1,0,0:0:0:0:
160,218,237081,1,0,0:0:0:0:
160,218,237160,1,8,0:0:0:0:
286,207,237318,1,0,0:0:0:0:
118,319,237475,1,6,0:0:0:0:
249,293,237633,1,0,0:0:0:0:
36,261,237791,1,8,0:0:0:0:
207,365,237949,1,0,0:0:0:0:
207,365,238028,1,0,0:0:0:0:
207,365,238107,5,8,0:0:0:0:
112,242,238265,1,2,0:0:0:0:
378,283,238423,1,8,0:0:0:0:
378,283,238739,6,0,P|416:230|290:273,1,359.099985205536,14|0,0:0|0:0,0:0:0:0:
363,378,239370,5,8,0:0:0:0:
340,216,239528,1,2,0:0:0:0:
108,300,239686,1,8,0:0:0:0:
108,300,240002,6,0,P|67:238|182:170,1,239.399990137024,14|4,0:0|0:0,0:0:0:0:
305,211,240475,1,0,0:0:0:0:
305,211,240554,1,0,0:0:0:0:
305,211,240633,5,8,0:0:0:0:
236,50,240791,1,2,0:0:0:0:
216,296,240949,1,8,0:0:0:0:
332,127,241107,1,8,0:0:0:0:
201,195,241265,1,2,0:0:0:0:
404,184,241423,1,2,0:0:0:0:
156,108,241581,1,8,0:0:0:0:
291,198,241739,1,2,0:0:0:0:
120,93,241897,6,0,L|241:87,1,119.699995068512,8|0,0:0|0:0,0:0:0:0:
470,133,242212,2,0,L|349:139,1,119.699995068512,2|8,0:0|0:0,0:0:0:0:
85,104,242528,2,0,L|206:98,1,119.699995068512,2|2,0:0|0:0,0:0:0:0:
505,149,242844,2,0,L|384:155,1,119.699995068512,12|0,0:0|0:0,0:0:0:0:
159,202,243160,6,2,L|225:216,1,59.8499975342561
348,302,243317,2,2,L|340:234,1,59.8499975342561
354,69,243475,1,2,0:0:0:0:
354,69,243554,1,2,0:0:0:0:
354,69,243633,2,0,P|325:58|295:56,1,59.8499975342561,10|0,0:0|0:0,0:0:0:0:
93,99,243791,2,0,L|151:111,1,59.8499975342561,2|2,0:0|0:0,0:0:0:0:
304,222,243949,2,0,L|245:209,1,59.8499975342561,2|2,0:0|0:0,0:0:0:0:
113,181,244107,1,10,0:0:0:0:
65,179,244186,1,10,0:0:0:0:
23,203,244265,1,10,0:0:0:0:
0,245,244344,1,10,0:0:0:0:
0,292,244423,5,14,0:0:0:0:
225,138,244581,1,2,0:0:0:0:
142,365,244739,1,8,0:0:0:0:
118,57,244897,1,12,0:0:0:0:
319,285,245054,1,2,0:0:0:0:
36,142,245212,1,2,0:0:0:0:
352,82,245370,1,12,0:0:0:0:
111,257,245528,1,2,0:0:0:0:
427,197,245686,5,2,0:0:0:0:
143,43,245844,1,12,0:0:0:0:
288,226,246002,1,2,0:0:0:0:
20,100,246160,1,8,0:0:0:0:
300,34,246317,2,0,L|279:152,1,119.699995068512,12|2,0:0|0:0,0:0:0:0:
357,342,246633,1,8,0:0:0:0:
203,205,246791,1,2,0:0:0:0:
433,173,246949,5,12,0:0:0:0:
171,308,247107,1,2,0:0:0:0:
411,88,247265,1,2,0:0:0:0:
96,95,247423,1,12,0:0:0:0:
293,357,247581,1,2,0:0:0:0:
73,69,247739,1,2,0:0:0:0:
331,245,247897,1,12,0:0:0:0:
46,46,248054,1,2,0:0:0:0:
334,92,248212,5,2,0:0:0:0:
79,306,248370,1,12,0:0:0:0:
228,38,248528,1,8,0:0:0:0:
45,217,248686,1,8,0:0:0:0:
438,190,248844,1,4,0:0:0:0:
438,190,249475,6,0,P|410:135|390:268,1,362.250006909371,14|0,0:0|0:0,0:0:0:0:
360,196,250107,2,0,B|217:157|199:296|49:189,1,310.500005922318,2|0,0:0|0:0,0:0:0:0:
6,137,250660,1,0,0:0:0:0:
6,137,250739,5,8,0:0:0:0:
280,51,250897,1,8,0:0:0:0:
49,299,251054,1,8,0:0:0:0:
323,156,251212,1,2,0:0:0:0:
97,26,251370,1,8,0:0:0:0:
234,366,251528,1,4,0:0:0:0:
164,76,252002,5,2,0:0:0:0:
329,148,252160,1,0,0:0:0:0:
329,148,252475,6,0,P|255:177|141:148,1,198.000006042481,2|0,0:0|0:0,0:0:0:0:
63,60,252949,1,10,0:0:0:0:
189,61,253107,1,0,0:0:0:0:
27,147,253265,5,2,0:0:0:0:
217,49,253423,1,0,0:0:0:0:
246,37,253739,6,0,P|279:91|206:218,1,198.000006042481,2|0,0:0|0:0,0:0:0:0:
96,272,254212,1,8,0:0:0:0:
145,164,254370,1,0,0:0:0:0:
174,335,254528,5,2,0:0:0:0:
