osu file format v14

[General]
AudioFilename: audio.mp3
AudioLeadIn: 0
PreviewTime: 52884
Countdown: 0
SampleSet: Soft
StackLeniency: 0.7
Mode: 2
LetterboxInBreaks: 0
WidescreenStoryboard: 1

[Editor]
Bookmarks: 5200,10253,20358,30463,35516,40569,45621,58253,63305,68358,73411,82726
DistanceSpacing: 1
BeatDivisor: 4
GridSize: 4
TimelineZoom: 2.699999

[Metadata]
Title:Redo
TitleUnicode:Redo
Artist:Suzuki Konomi
ArtistUnicode:鈴木このみ
Creator:Neoskylove
Version:tasuke's Rain
Source:Re:ゼロから始める異世界生活
Tags:Re: Zero kara Hajimeru Isekai Seikatsu op opening tv size Karia walaowey ProEzreal tasuke912
BeatmapID:1185455
BeatmapSetID:545351

[Difficulty]
HPDrainRate:6
CircleSize:4
OverallDifficulty:9
ApproachRate:9
SliderMultiplier:1.5
SliderTickRate:2

[Events]
//Background and Video events
0,0,"BG.jpg",0,0
Video,-752,"video.avi"
//Break Periods
//Storyboard Layer 0 (Background)
//Storyboard Layer 1 (Fail)
//Storyboard Layer 2 (Pass)
//Storyboard Layer 3 (Foreground)
//Storyboard Sound Samples

[TimingPoints]
148,315.789473684211,4,2,51,40,1,0
30463,-117.647058823529,4,2,0,40,0,0
35042,-100,4,2,51,40,0,0
35516,-83.3333333333333,4,2,51,55,0,0
40569,-117.647058823529,4,2,0,55,0,0
45621,-83.3333333333333,4,2,51,55,0,0
53200,-83.3333333333333,4,2,51,70,0,1
78463,-83.3333333333333,4,2,51,70,0,0
79726,-83.3333333333333,4,2,51,70,0,1
84779,-100,4,2,51,70,0,1
86042,-83.3333333333333,4,2,51,70,0,1
87305,-100,4,2,51,55,0,0

[Colours]
Combo1 : 255,159,236
Combo2 : 140,241,255
Combo3 : 145,175,255
Combo4 : 191,153,255

[HitObjects]
196,56,148,6,0,L|204:136,1,75
76,152,621,2,0,P|36:204|72:272,1,150
204,296,1095,2,0,L|146:344,1,75
316,56,1411,6,0,L|308:136,1,75
436,152,1884,2,0,P|476:204|440:272,1,150
308,296,2358,2,0,L|366:344,1,75
204,256,2674,6,0,L|123:215,1,75
272,140,3148,2,0,P|340:168|409:143,1,150
300,56,3621,2,0,L|219:25,1,75
400,264,3937,6,0,L|481:223,1,75
276,256,4411,2,0,P|208:228|139:253,1,150
244,312,4884,2,0,L|325:343,1,75
68,20,5200,6,0,P|22:74|58:134,1,150,0|0,1:0|1:0,0:0:0:0:
137,156,5674,1,0,0:0:0:0:
276,120,5832,2,0,L|297:220,1,75,0|0,1:0|0:0,0:0:0:0:
176,265,6148,2,0,L|155:365,1,75,0|0,1:0|0:0,0:0:0:0:
444,364,6463,6,0,P|490:310|454:250,1,150,0|0,1:0|1:0,0:0:0:0:
375,228,6937,1,0,0:0:0:0:
236,264,7095,2,0,L|215:164,1,75,0|0,1:0|0:0,0:0:0:0:
336,119,7411,2,0,L|357:19,1,75,0|0,1:0|0:0,0:0:0:0:
109,129,7726,6,0,L|11:143,2,75,0|0|0,1:0|0:0|1:0,0:0:0:0:
210,119,8200,1,0,0:0:0:0:
58,333,8358,2,0,L|48:259,1,75,0|0,1:0|0:0,0:0:0:0:
173,279,8674,2,0,L|182:203,1,75,0|0,1:0|0:0,0:0:0:0:
403,255,8990,6,0,L|501:241,2,75,0|0|0,1:0|0:0|1:0,0:0:0:0:
302,265,9463,1,0,0:0:0:0:
454,51,9621,2,0,L|464:125,1,75,0|0,1:0|0:0,0:0:0:0:
339,105,9937,2,0,L|330:181,1,75,0|0,1:0|0:0,0:0:0:0:
56,320,10253,6,0,P|17:265|54:199,1,150,0|0,1:0|1:0,0:0:0:0:
146,274,10726,1,0,0:0:0:0:
288,269,10884,2,0,P|327:214|290:148,1,150,0|0,1:0|1:0,0:0:0:0:
198,223,11358,1,0,0:0:0:0:
56,320,11516,6,0,L|69:246,1,75,0|0,1:0|0:0,0:0:0:0:
176,312,11832,2,0,L|280:300,1,75,0|0,1:0|0:0,0:0:0:0:
356,304,12148,2,0,L|343:230,1,75,0|0,1:0|0:0,0:0:0:0:
212,152,12463,2,0,L|108:140,1,75,0|0,1:0|0:0,0:0:0:0:
376,224,12779,6,0,P|415:169|378:103,1,150,0|0,1:0|1:0,0:0:0:0:
286,178,13253,1,0,0:0:0:0:
144,173,13411,2,0,P|105:118|142:52,1,150,0|0,1:0|1:0,0:0:0:0:
234,127,13884,1,0,0:0:0:0:
371,46,14042,6,0,L|298:89,1,75,0|0,1:0|0:0,0:0:0:0:
180,78,14358,2,0,L|261:128,1,75,0|0,1:0|0:0,0:0:0:0:
413,163,14674,2,0,L|507:136,2,75,0|0|0,1:0|0:0|1:0,0:0:0:0:
127,64,15305,5,0,1:0:0:0:
236,105,15463,2,0,L|239:201,1,75,0|0,0:0|1:0,0:0:0:0:
122,253,15779,1,0,0:0:0:0:
399,117,15937,1,0,1:0:0:0:
466,150,16095,1,0,0:0:0:0:
488,221,16253,1,0,1:0:0:0:
461,291,16411,1,0,0:0:0:0:
370,328,16569,6,0,L|267:321,1,75,0|0,1:0|0:0,0:0:0:0:
162,254,16884,2,0,L|248:259,1,75,0|0,1:0|0:0,0:0:0:0:
476,48,17200,2,0,L|497:135,1,75,0|0,1:0|0:0,0:0:0:0:
371,104,17516,2,0,L|352:189,1,75,0|0,1:0|0:0,0:0:0:0:
131,78,17832,6,0,P|92:144|142:190,1,150,0|0,1:0|1:0,0:0:0:0:
231,199,18305,1,0,0:0:0:0:
459,170,18463,2,0,P|491:203|452:297,1,150,0|0,1:0|1:0,0:0:0:0:
372,308,18937,1,0,0:0:0:0:
156,288,19095,6,0,L|242:265,1,75,0|0,1:0|0:0,0:0:0:0:
336,52,19411,2,0,L|248:79,1,75,0|0,1:0|0:0,0:0:0:0:
44,184,19726,2,0,P|117:197|181:161,1,150,0|0,1:0|1:0,1:0:0:0:
87,92,20200,1,0,0:0:0:0:
360,92,20358,6,0,P|400:149|361:208,1,150,0|0,1:0|1:0,0:0:0:0:
268,224,20832,1,0,0:0:0:0:
151,271,20990,2,0,P|223:259|287:294,1,150,0|0,1:0|1:0,0:0:0:0:
204,367,21463,1,0,0:0:0:0:
421,51,21621,6,0,L|431:153,1,75,0|0,1:0|0:0,0:0:0:0:
302,3,21937,2,0,L|370:43,1,75,0|0,1:0|0:0,0:0:0:0:
218,115,22253,2,0,L|154:159,1,75,0|0,1:0|0:0,0:0:0:0:
300,160,22569,2,0,L|368:204,1,75,0|0,1:0|0:0,0:0:0:0:
124,215,22884,6,0,P|84:273|126:329,1,150,0|0,1:0|1:0,0:0:0:0:
224,336,23358,1,0,0:0:0:0:
364,52,23516,2,0,P|314:34|233:83,1,150,0|0,1:0|1:0,1:0:0:0:
340,136,23990,1,0,0:0:0:0:
124,248,24148,6,0,L|134:171,1,75,0|0,1:0|0:0,0:0:0:0:
264,284,24463,2,0,L|256:188,1,75,0|0,1:0|0:0,0:0:0:0:
96,100,24779,2,0,L|12:109,2,75,0|0|0,1:0|0:0|1:0,0:0:0:0:
385,64,25411,5,0,1:0:0:0:
276,105,25569,2,0,L|273:201,1,75,0|0,0:0|1:0,0:0:0:0:
390,253,25884,1,0,0:0:0:0:
113,117,26042,1,0,1:0:0:0:
46,150,26200,1,0,0:0:0:0:
24,221,26358,1,0,1:0:0:0:
51,291,26516,1,0,0:0:0:0:
142,328,26674,6,0,L|245:321,1,75,0|0,1:0|0:0,0:0:0:0:
340,256,26990,2,0,L|254:261,1,75,0|0,1:0|0:0,0:0:0:0:
47,49,27305,2,0,L|26:136,1,75,0|0,1:0|0:0,0:0:0:0:
152,105,27621,2,0,L|171:190,1,75,0|0,1:0|0:0,0:0:0:0:
392,80,27937,6,0,P|447:119|431:213,1,150,0|0,1:0|1:0,0:0:0:0:
352,200,28411,1,0,0:0:0:0:
132,144,28569,2,0,P|100:177|139:271,1,150,0|0,1:0|1:0,0:0:0:0:
232,288,29042,1,0,0:0:0:0:
448,328,29200,6,0,L|435:255,1,75,0|0,1:0|0:0,0:0:0:0:
154,170,29516,2,0,L|5:183,2,150,0|0|0,1:0|1:0|1:0,1:0:0:0:
413,67,30463,6,0,L|500:84,2,63.7500012159348,2|0|0,0:0|0:0|0:0,0:0:0:0:
316,116,30937,2,0,P|255:135|194:118,1,127.50000243187,2|0,0:0|0:0,0:0:0:0:
99,69,31411,2,0,L|193:60,1,63.7500012159348,0|2,0:0|0:0,0:0:0:0:
258,209,31726,6,0,L|340:213,2,63.7500012159348
152,296,32200,2,0,P|209:287|297:307,1,127.50000243187,2|2,0:0|0:0,0:0:0:0:
379,337,32674,1,2,0:0:0:0:
203,62,32990,6,0,L|116:79,2,63.7500012159348,2|0|0,0:0|0:0|0:0,0:0:0:0:
300,158,33463,2,0,P|239:174|180:156,1,127.50000243187,2|0,0:0|0:0,0:0:0:0:
75,192,33937,2,0,L|138:198,1,63.7500012159348,0|2,0:0|0:0,0:0:0:0:
259,240,34253,6,0,L|177:244,2,63.7500012159348
358,70,34726,2,0,P|301:61|213:81,1,127.50000243187,2|0,0:0|1:0,0:0:0:0:
451,180,35200,1,8,1:2:0:0:
212,116,35516,6,0,L|197:227,1,89.9999972534181,6|0,1:2|0:0,0:0:0:0:
78,239,35832,2,0,L|90:343,1,89.9999972534181,8|0,0:0|0:0,0:0:0:0:
225,356,36148,2,0,L|317:364,2,89.9999972534181,2|2|8,0:0|0:0|0:0,0:0:0:0:
103,138,36621,6,0,P|178:122|268:182,1,179.999994506836,0|2,0:0|0:0,0:0:0:0:
161,241,37095,2,0,L|91:298,1,89.9999972534181,8|0,0:0|0:0,0:0:0:0:
337,51,37411,1,2,0:0:0:0:
407,91,37569,1,2,0:0:0:0:
425,169,37726,1,8,0:0:0:0:
403,247,37884,1,0,0:0:0:0:
333,289,38042,6,0,L|224:312,1,89.9999972534181,2|0,0:0|0:0,0:0:0:0:
120,235,38358,2,0,L|219:208,1,89.9999972534181,8|0,0:0|0:0,0:0:0:0:
434,51,38674,2,0,L|451:154,1,89.9999972534181,2|2,0:0|0:0,0:0:0:0:
339,137,38990,2,0,L|324:238,1,89.9999972534181,8|0,0:0|0:0,0:0:0:0:
106,136,39305,6,0,L|25:185,1,89.9999972534181,6|0,0:0|0:0,0:0:0:0:
265,57,39621,2,0,L|345:101,1,89.9999972534181,8|0,0:0|0:0,0:0:0:0:
201,88,39937,2,0,L|121:132,1,89.9999972534181,8|0,0:0|0:0,0:0:0:0:
398,88,40253,1,8,0:0:0:0:
438,107,40332,1,0,0:0:0:0:
451,150,40411,1,8,0:0:0:0:
440,193,40490,1,8,0:0:0:0:
404,220,40569,6,0,P|344:211|274:224,1,127.50000243187,2|0,0:0|0:0,0:0:0:0:
169,316,41042,2,0,P|229:325|299:312,1,127.50000243187,2|0,0:0|0:0,0:0:0:0:
403,334,41516,2,0,L|334:321,1,63.7500012159348,2|0,0:0|0:0,0:0:0:0:
120,152,41832,5,2,0:0:0:0:
71,194,41990,1,0,0:0:0:0:
69,257,42148,1,0,0:0:0:0:
104,308,42305,1,0,0:0:0:0:
226,321,42463,1,2,0:0:0:0:
275,279,42621,1,0,0:0:0:0:
277,216,42779,1,0,0:0:0:0:
242,165,42937,1,0,0:0:0:0:
24,52,43095,6,0,P|86:61|149:47,1,127.50000243187,2|0,0:0|0:0,0:0:0:0:
228,32,43569,1,2,0:0:0:0:
356,128,43726,2,0,L|274:139,1,63.7500012159348
153,220,44042,2,0,L|225:210,1,63.7500012159348,2|0,0:0|0:0,0:0:0:0:
476,300,44358,6,0,L|340:321,2,127.50000243187,2|2|2,0:0|0:0|0:0,0:0:0:0:
313,21,45621,6,0,L|324:130,1,89.9999972534181,2|2,1:2|0:0,0:0:0:0:
189,92,45937,2,0,L|178:185,1,89.9999972534181,8|0,0:0|0:0,0:0:0:0:
314,226,46253,2,0,L|420:249,2,89.9999972534181,2|2|8,0:0|0:0|0:0,0:0:0:0:
188,284,46726,6,0,P|261:333|348:319,1,179.999994506836,0|2,0:0|0:0,0:0:0:0:
476,336,47200,2,0,L|365:308,1,89.9999972534181,8|0,0:0|0:0,0:0:0:0:
164,44,47516,1,2,0:0:0:0:
232,86,47674,1,2,0:0:0:0:
252,164,47832,1,8,0:0:0:0:
219,238,47990,1,0,0:0:0:0:
92,272,48148,6,0,L|82:148,1,89.9999972534181,2|2,0:0|0:0,0:0:0:0:
249,341,48463,2,0,L|264:249,1,89.9999972534181,8|0,0:0|0:0,0:0:0:0:
142,357,48779,1,2,0:0:0:0:
427,85,48937,1,8,0:0:0:0:
443,126,49016,1,8,0:0:0:0:
435,170,49095,1,10,0:0:0:0:
412,209,49174,1,8,0:0:0:0:
378,239,49253,1,8,0:0:0:0:
333,246,49332,1,8,0:0:0:0:
150,197,49411,6,0,L|167:103,1,89.9999972534181,6|0,0:0|0:0,0:0:0:0:
325,336,49726,2,0,L|312:246,1,89.9999972534181,8|2,0:0|0:0,0:0:0:0:
77,204,50042,2,0,L|53:299,1,89.9999972534181,8|2,0:0|0:0,0:0:0:0:
199,239,50358,2,0,L|219:337,1,89.9999972534181,8|2,0:0|0:0,0:0:0:0:
443,93,50674,6,4,L|454:190,1,89.9999972534181,4|4,1:0|1:0,1:0:0:0:
160,216,51148,2,4,L|150:306,1,89.9999972534181,4|4,1:0|1:0,1:0:0:0:
425,71,51621,2,4,L|433:171,1,89.9999972534181,4|4,1:0|1:0,1:0:0:0:
171,80,51937,6,0,L|102:87,2,44.999998626709,0|8|8,0:0|0:0|0:0,0:0:0:0:
313,168,52253,1,2,0:0:0:0:
349,194,52332,1,0,0:0:0:0:
361,237,52411,1,2,0:0:0:0:
351,281,52490,1,8,0:0:0:0:
315,309,52569,2,0,L|234:363,1,89.9999972534181,8|2,0:0|0:0,0:0:0:0:
24,253,52884,2,0,L|106:300,1,89.9999972534181,8|0,0:0|0:0,0:0:0:0:
344,36,53200,6,0,L|236:56,2,89.9999972534181,6|0|8,1:2|0:0|0:0,0:0:0:0:
208,136,53674,2,0,L|192:228,1,89.9999972534181,0|0,0:0|1:0,0:0:0:0:
416,136,53990,2,0,L|430:234,1,89.9999972534181,0|8,1:0|0:0,0:0:0:0:
117,316,54305,6,0,P|76:239|128:166,1,179.999994506836,4|0,1:2|1:0,0:0:0:0:
218,118,54779,1,8,0:0:0:0:
332,184,54937,1,0,0:0:0:0:
333,206,55016,1,0,0:0:0:0:
334,228,55095,1,0,1:0:0:0:
184,232,55253,2,0,L|175:342,1,89.9999972534181,0|8,1:0|0:0,0:0:0:0:
432,220,55569,6,0,L|486:217,2,44.999998626709,8|8|0,0:0|0:0|1:0,0:0:0:0:
312,48,55884,1,0,1:0:0:0:
428,100,56042,2,0,L|338:131,1,89.9999972534181,8|0,0:0|0:0,0:0:0:0:
224,192,56358,2,0,L|309:232,1,89.9999972534181,0|0,1:0|1:0,0:0:0:0:
448,264,56674,2,0,L|363:304,1,89.9999972534181,8|0,0:0|0:0,0:0:0:0:
140,260,56990,6,0,L|53:240,2,89.9999972534181,0|0|8,1:0|1:0|0:0,0:0:0:0:
357,122,57463,2,0,P|307:81|202:121,1,179.999994506836,0|0,0:0|1:0,0:0:0:0:
58,190,57937,2,0,L|161:211,1,89.9999972534181,8|0,0:0|0:0,0:0:0:0:
404,176,58253,6,0,L|491:197,2,89.9999972534181,0|0|0,1:0|1:0|0:0,0:0:0:0:
176,296,58726,2,0,L|160:207,1,89.9999972534181,8|0,0:0|0:0,0:0:0:0:
384,356,59042,2,0,L|400:268,1,89.9999972534181,8|0,0:0|0:0,0:0:0:0:
108,48,59358,6,0,P|75:138|117:208,1,179.999994506836,6|0,1:2|1:0,0:0:0:0:
340,68,59832,1,8,0:0:0:0:
237,135,59990,2,0,L|156:142,2,44.999998626709,0|0|0,0:0|0:0|1:0,0:0:0:0:
340,190,60305,1,0,1:0:0:0:
466,240,60463,2,0,P|423:253|381:240,1,89.9999972534181,8|0,0:0|0:0,0:0:0:0:
144,52,60779,5,0,1:0:0:0:
103,72,60858,1,0,0:0:0:0:
80,110,60937,1,8,0:0:0:0:
71,154,61016,1,8,0:0:0:0:
83,197,61095,1,8,0:0:0:0:
115,228,61174,1,8,0:0:0:0:
156,248,61253,1,0,1:0:0:0:
210,268,61332,1,0,0:0:0:0:
389,122,61411,2,8,L|432:88,1,44.999998626709
348,184,61569,2,2,L|308:152,1,44.999998626709,2|2,1:2|0:0,0:0:0:0:
396,240,61726,2,2,L|440:208,1,44.999998626709
256,192,61884,6,0,P|186:143|114:189,1,179.999994506836,6|0,1:2|1:0,0:0:0:0:
360,76,62358,1,8,0:0:0:0:
240,48,62516,2,8,L|169:58,2,44.999998626709,8|8|0,0:0|0:0|1:0,0:0:0:0:
110,125,62832,1,8,0:0:0:0:
68,142,62911,1,8,0:0:0:0:
46,181,62990,1,8,0:0:0:0:
49,225,63069,1,8,0:0:0:0:
70,264,63148,1,8,0:0:0:0:
111,279,63226,1,8,0:0:0:0:
296,68,63305,6,0,P|335:48|379:53,1,89.9999972534181,6|0,1:2|1:0,0:0:0:0:
248,152,63621,2,0,L|170:208,1,89.9999972534181,8|0,0:0|0:0,0:0:0:0:
396,168,63937,1,8,0:0:0:0:
316,240,64095,1,0,1:0:0:0:
420,276,64253,1,8,0:0:0:0:
166,38,64411,6,0,L|107:45,2,44.999998626709,0|0|8,1:0|1:0|0:0,0:0:0:0:
292,70,64726,1,0,1:0:0:0:
418,122,64884,2,0,L|323:162,1,89.9999972534181,8|0,0:0|1:0,0:0:0:0:
83,178,65200,1,8,0:0:0:0:
164,248,65358,1,0,1:0:0:0:
60,284,65516,1,8,0:0:0:0:
346,38,65674,6,0,L|405:45,2,44.999998626709,0|0|8,1:0|1:0|0:0,0:0:0:0:
239,37,65990,1,0,1:0:0:0:
102,121,66148,2,0,L|197:161,1,89.9999972534181,8|0,0:0|1:0,0:0:0:0:
405,147,66463,1,8,0:0:0:0:
368,164,66542,1,8,0:0:0:0:
346,198,66621,1,8,0:0:0:0:
340,238,66700,1,8,0:0:0:0:
348,277,66779,1,2,0:0:0:0:
374,307,66858,1,2,0:0:0:0:
409,326,66937,2,2,L|364:327,1,44.999998626709
184,242,67095,6,0,L|102:280,2,89.9999972534181,6|0|0,1:2|0:0|1:0,0:0:0:0:
333,219,67569,2,0,L|187:96,1,179.999994506836,8|0,0:0|1:0,0:0:0:0:
418,70,68042,2,0,L|494:133,1,89.9999972534181,8|0,0:0|0:0,0:0:0:0:
154,118,68358,6,0,L|44:148,2,89.9999972534181,0|8|0,1:0|0:0|1:0,0:0:0:0:
267,175,68832,2,0,L|174:206,1,89.9999972534181,0|8,0:0|0:0,0:0:0:0:
51,319,69148,2,0,P|109:274|200:329,1,179.999994506836,0|8,1:0|0:0,0:0:0:0:
237,333,69542,1,8,0:0:0:0:
381,183,69621,6,0,L|362:96,1,89.9999972534181,0|8,1:0|0:0,0:0:0:0:
208,240,69937,2,0,L|226:152,1,89.9999972534181,0|0,0:0|1:0,0:0:0:0:
464,228,70253,2,0,P|416:268|325:257,1,134.999995880127,8|8,0:0|0:0,0:0:0:0:
182,18,70569,1,0,1:0:0:0:
136,40,70648,1,0,0:0:0:0:
122,87,70726,1,8,0:0:0:0:
139,133,70805,1,8,0:0:0:0:
180,150,70884,6,0,L|299:179,1,89.9999972534181,0|0,1:0|0:0,0:0:0:0:
404,220,71200,2,0,L|313:231,1,89.9999972534181,8|0,0:0|1:0,0:0:0:0:
85,114,71516,2,0,P|57:173|84:243,1,134.999995880127,8|8,0:0|0:0,0:0:0:0:
286,48,71832,1,8,0:0:0:0:
324,71,71911,1,8,0:0:0:0:
336,114,71990,1,8,0:0:0:0:
321,156,72069,1,8,0:0:0:0:
267,216,72148,6,0,L|253:259,1,44.999998626709,2|8,1:2|0:0,0:0:0:0:
313,280,72305,2,0,L|349:253,1,44.999998626709,8|8,0:0|0:0,0:0:0:0:
418,299,72463,2,0,L|411:209,1,89.9999972534181,8|2,0:0|1:2,0:0:0:0:
258,153,72779,2,0,L|265:63,1,89.9999972534181,8|2,0:0|1:2,0:0:0:0:
487,56,73095,2,0,L|497:191,1,134.999995880127,8|8,0:0|0:0,0:0:0:0:
285,246,73411,6,0,L|185:221,2,89.9999972534181,0|8|0,1:0|0:0|0:0,0:0:0:0:
147,163,73884,2,0,L|54:200,1,89.9999972534181,0|8,1:0|0:0,0:0:0:0:
289,32,74200,2,0,P|332:105|290:180,1,179.999994506836,0|0,1:0|1:0,0:0:0:0:
165,232,74674,5,0,1:0:0:0:
291,265,74832,2,0,L|391:282,1,89.9999972534181,8|0,0:0|0:0,0:0:0:0:
143,301,75148,2,0,L|99:310,2,44.999998626709,0|0|8,1:0|1:0|0:0,0:0:0:0:
289,343,75463,2,0,P|245:353|202:345,1,89.9999972534181,0|8,1:0|0:0,0:0:0:0:
469,153,75779,2,2,L|505:114,1,44.999998626709,2|2,1:2|1:2,1:2:0:0:
452,69,75937,6,0,P|374:108|299:170,1,179.999994506836,2|0,1:2|1:0,0:0:0:0:
183,280,76411,2,0,L|283:313,1,89.9999972534181,8|0,0:0|0:0,0:0:0:0:
407,227,76726,2,0,L|323:260,2,89.9999972534181,0|8|0,1:0|0:0|1:0,0:0:0:0:
146,73,77200,6,0,L|23:79,2,89.9999972534181,8|0|0,0:0|1:0|1:0,0:0:0:0:
295,115,77674,2,0,L|418:121,2,89.9999972534181,8|0|0,0:0|0:0|1:0,0:0:0:0:
58,181,78148,2,0,L|170:173,1,89.9999972534181,8|0,0:0|0:0,0:0:0:0:
384,119,78463,5,8,0:0:0:0:
423,140,78542,1,0,0:0:0:0:
446,178,78621,1,0,0:0:0:0:
449,223,78700,1,0,0:0:0:0:
435,266,78779,1,8,0:0:0:0:
401,295,78858,1,8,0:0:0:0:
232,284,78937,5,8,0:0:0:0:
199,254,79016,1,0,0:0:0:0:
185,211,79095,1,0,0:0:0:0:
188,166,79174,1,0,0:0:0:0:
211,128,79253,1,8,0:0:0:0:
250,107,79332,1,8,0:0:0:0:
399,26,79411,6,8,L|421:66,3,44.999998626709
132,324,79726,6,0,L|20:304,2,89.9999972534181,6|0|2,1:2|0:0|0:0,0:0:0:0:
258,314,80200,2,0,L|246:225,1,89.9999972534181,8|2,0:0|0:0,0:0:0:0:
115,196,80516,1,2,0:0:0:0:
380,60,80674,6,0,L|492:80,2,89.9999972534181,8|0|2,0:0|0:0|0:0,0:0:0:0:
252,69,81148,2,0,L|265:159,1,89.9999972534181,8|2,0:0|0:0,0:0:0:0:
406,173,81463,1,2,0:0:0:0:
144,72,81621,6,0,L|117:183,1,89.9999972534181,8|2,0:0|0:0,0:0:0:0:
368,72,81937,2,0,L|395:183,1,89.9999972534181,8|2,0:0|0:0,0:0:0:0:
128,72,82253,6,0,L|16:92,2,89.9999972534181,8|0|2,0:0|0:0|0:0,0:0:0:0:
256,132,82726,1,8,0:0:0:0:
176,145,82884,1,2,0:0:0:0:
96,159,83042,1,2,0:0:0:0:
384,72,83200,6,0,L|496:92,2,89.9999972534181,8|0|2,0:0|0:0|0:0,0:0:0:0:
256,132,83674,1,8,0:0:0:0:
336,145,83832,1,2,0:0:0:0:
416,159,83990,1,2,0:0:0:0:
124,72,84148,2,0,P|60:119|174:230,1,269.999991760254,10|0,0:0|0:0,0:0:0:0:
400,92,84779,6,0,B|494:130|498:254|357:316|285:206|285:206|254:159|215:121|127:158,1,525,6|2,1:2|0:0,0:0:0:0:
106,177,85963,1,2,0:0:0:0:
296,232,86042,6,2,L|372:166,1,89.9999972534181,2|2,1:2|1:2,1:2:0:0:
100,28,86358,1,2,1:2:0:0:
200,112,86516,1,2,1:2:0:0:
80,152,86674,1,2,1:2:0:0:
416,160,86832,2,0,P|441:231|408:336,1,179.999994506836,4|0,1:2|0:0,0:0:0:0:
172,240,87305,6,0,L|164:320,1,75
336,60,87779,2,0,L|344:212,1,150,0|0,0:0|0:0,0:0:0:0:
224,144,88253,2,0,L|208:244,1,75,0|0,0:0|0:0,0:0:0:0:
