osu file format v14

[General]
AudioFilename: audio.mp3
AudioLeadIn: 0
PreviewTime: 52884
Countdown: 0
SampleSet: Soft
StackLeniency: 0.7
Mode: 2
LetterboxInBreaks: 0
WidescreenStoryboard: 1

[Editor]
Bookmarks: 5200,5516,10253,20358,30463,32990,35516,40569,45621,58253,63305,68358,73411,82726
DistanceSpacing: 1.1
BeatDivisor: 4
GridSize: 4
TimelineZoom: 2.699999

[Metadata]
Title:Redo
TitleUnicode:Redo
Artist:Suzuki Konomi
ArtistUnicode:鈴木このみ
Creator:Neoskylove
Version:tasuke's Overdose
Source:Re:ゼロから始める異世界生活
Tags:Re: Zero kara Hajimeru Isekai Seikatsu op opening tv size Karia walaowey ProEzreal tasuke912
BeatmapID:1185454
BeatmapSetID:545351

[Difficulty]
HPDrainRate:6
CircleSize:4
OverallDifficulty:9.4
ApproachRate:9.4
SliderMultiplier:1.6
SliderTickRate:2

[Events]
//Background and Video events
0,0,"BG.jpg",0,0
Video,-752,"video.avi"
//Break Periods
//Storyboard Layer 0 (Background)
//Storyboard Layer 1 (Fail)
//Storyboard Layer 2 (Pass)
//Storyboard Layer 3 (Foreground)
//Storyboard Sound Samples

[TimingPoints]
148,315.789473684211,4,2,51,40,1,0
30463,-133.333333333333,4,2,0,40,0,0
35042,-100,4,2,51,40,0,0
35516,-83.3333333333333,4,2,51,55,0,0
40569,-133.333333333333,4,2,0,55,0,0
45621,-83.3333333333333,4,2,51,55,0,0
52924,-100,4,2,0,40,0,0
53200,-83.3333333333333,4,2,51,70,0,1
78463,-83.3333333333333,4,2,51,70,0,0
79726,-83.3333333333333,4,2,51,70,0,1
87305,-100,4,2,51,55,0,0

[Colours]
Combo1 : 255,159,236
Combo2 : 140,241,255
Combo3 : 145,175,255
Combo4 : 191,153,255

[HitObjects]
172,92,148,6,0,L|192:186,1,80
48,171,621,2,0,P|12:239|41:311,1,160
186,206,1095,2,0,L|115:242,1,80
340,92,1411,6,0,L|320:186,1,80
463,171,1884,2,0,P|499:239|471:311,1,160
326,206,2358,2,0,L|397:242,1,80
179,141,2674,6,0,L|163:221,1,80
64,329,3148,2,0,P|119:366|219:318,1,160
72,164,3621,2,0,L|48:253,1,80
314,182,3937,6,0,L|330:262,1,80
448,329,4411,2,0,P|393:366|293:318,1,160
440,164,4884,2,0,L|464:253,1,80
121,124,5200,6,0,L|101:222,1,80,2|0,1:2|0:0,0:0:0:0:
211,206,5516,1,0,1:0:0:0:
84,225,5674,1,0,0:0:0:0:
214,276,5832,2,0,L|230:367,1,80,0|0,1:0|0:0,0:0:0:0:
83,200,6148,2,0,L|63:107,1,80,0|0,1:0|0:0,0:0:0:0:
312,73,6463,6,0,L|329:156,1,80,0|0,1:0|0:0,0:0:0:0:
208,244,6779,1,0,1:0:0:0:
343,293,6937,1,0,0:0:0:0:
468,215,7095,2,0,L|484:302,1,80,0|0,1:0|0:0,0:0:0:0:
357,214,7411,2,0,L|340:308,1,80,0|0,1:0|0:0,0:0:0:0:
83,157,7726,6,0,L|68:54,1,80,0|0,1:0|0:0,0:0:0:0:
211,206,8042,1,0,1:0:0:0:
84,225,8200,1,0,0:0:0:0:
214,276,8358,2,0,L|230:367,1,80,0|0,1:0|0:0,0:0:0:0:
84,289,8674,2,0,L|58:394,1,80,0|0,1:0|0:0,0:0:0:0:
342,66,8990,6,0,L|356:160,1,80,0|0,1:0|0:0,0:0:0:0:
206,65,9305,2,0,L|184:171,1,80,0|0,1:0|0:0,0:0:0:0:
354,240,9621,2,0,L|251:265,1,80,0|0,1:0|0:0,0:0:0:0:
143,216,9937,2,0,L|246:194,1,80,0|0,1:0|0:0,0:0:0:0:
443,296,10253,6,0,P|367:279|291:303,1,160,0|0,1:0|1:0,0:0:0:0:
390,377,10726,1,0,0:0:0:0:
146,77,10884,2,0,P|109:135|158:217,1,160,0|0,1:0|0:0,0:0:0:0:
247,235,11358,1,0,0:0:0:0:
485,167,11516,6,0,L|495:246,1,80,0|0,1:0|0:0,0:0:0:0:
360,238,11832,2,0,L|346:340,1,80,0|0,1:0|0:0,0:0:0:0:
122,70,12148,1,0,1:0:0:0:
51,107,12305,1,0,0:0:0:0:
31,184,12463,1,0,1:0:0:0:
58,259,12621,1,0,0:0:0:0:
276,352,12779,6,0,P|316:301|272:214,1,160,0|0,1:0|1:0,0:0:0:0:
168,236,13253,1,0,0:0:0:0:
388,56,13411,2,0,L|404:145,1,80,0|0,1:0|0:0,0:0:0:0:
124,56,13726,2,0,L|107:150,1,80,0|0,1:0|0:0,0:0:0:0:
360,292,14042,6,0,L|464:300,2,80,0|0|0,1:0|0:0|1:0,0:0:0:0:
476,300,14516,1,0,0:0:0:0:
256,64,14674,2,0,L|234:172,1,80,0|0,1:0|0:0,0:0:0:0:
464,72,14990,2,0,L|479:150,1,80,0|0,1:0|0:0,0:0:0:0:
256,292,15305,6,0,L|178:315,2,80,0|0|0,1:0|0:0|1:0,0:0:0:0:
375,261,15779,1,0,0:0:0:0:
157,58,15937,2,0,L|138:153,1,80,0|0,1:0|0:0,0:0:0:0:
14,137,16253,2,0,L|25:227,1,80,0|0,1:0|0:0,0:0:0:0:
328,280,16569,6,0,L|406:303,2,80,0|0|0,1:0|0:0|1:0,0:0:0:0:
213,253,17042,1,0,0:0:0:0:
452,179,17200,2,0,L|466:61,1,80,0|0,1:0|0:0,0:0:0:0:
328,128,17516,2,0,L|314:10,1,80,0|0,1:0|0:0,0:0:0:0:
84,116,17832,6,0,P|38:177|86:241,1,160,0|0,1:0|1:0,0:0:0:0:
185,263,18305,1,0,0:0:0:0:
428,116,18463,2,0,P|474:177|426:241,1,160,0|0,1:0|1:0,0:0:0:0:
327,263,18937,1,0,0:0:0:0:
176,72,19095,6,0,L|156:172,1,80,0|0,1:0|0:0,0:0:0:0:
294,142,19411,2,0,L|321:229,1,80,0|0,1:0|0:0,0:0:0:0:
39,222,19726,2,0,L|17:298,1,80,0|0,1:0|0:0,0:0:0:0:
157,261,20042,2,0,L|169:362,1,80,0|0,1:0|0:0,0:0:0:0:
460,73,20358,6,0,P|504:133|460:193,1,160,0|0,1:0|1:0,0:0:0:0:
364,228,20832,1,0,0:0:0:0:
141,87,20990,2,0,P|125:156|204:196,1,160,0|0,1:0|1:0,0:0:0:0:
290,213,21463,1,0,0:0:0:0:
42,208,21621,6,0,L|18:300,1,80,0|0,1:0|0:0,0:0:0:0:
142,291,21937,2,0,L|151:382,1,80,0|0,1:0|0:0,0:0:0:0:
387,41,22253,1,0,1:0:0:0:
461,76,22411,1,0,0:0:0:0:
486,151,22569,1,0,1:0:0:0:
457,225,22726,1,0,0:0:0:0:
237,347,22884,6,0,P|197:296|241:209,1,160,0|0,1:0|1:0,0:0:0:0:
345,231,23358,1,0,0:0:0:0:
128,328,23516,2,0,L|112:239,1,80,0|0,1:0|0:0,0:0:0:0:
384,328,23832,2,0,L|401:234,1,80,0|0,1:0|0:0,0:0:0:0:
107,45,24148,5,0,1:0:0:0:
59,108,24305,1,0,0:0:0:0:
69,187,24463,1,0,1:0:0:0:
133,235,24621,1,0,0:0:0:0:
361,221,24779,2,0,P|323:212|279:217,1,80,0|0,1:0|0:0,0:0:0:0:
440,320,25095,2,0,L|458:238,1,80,0|0,1:0|0:0,0:0:0:0:
183,272,25411,5,0,1:0:0:0:
71,328,25569,2,0,L|163:365,2,80,0|0|0,0:0|1:0|0:0,0:0:0:0:
312,259,26042,2,0,L|326:340,1,80,0|0,1:0|0:0,0:0:0:0:
453,208,26358,2,0,L|425:303,1,80,0|0,1:0|0:0,0:0:0:0:
191,88,26674,6,0,L|89:98,2,80,0|0|0,1:0|0:0|1:0,0:0:0:0:
304,167,27148,1,0,0:0:0:0:
54,270,27305,2,0,L|35:187,1,80,0|0,1:0|0:0,0:0:0:0:
160,327,27621,2,0,L|179:244,1,80,0|0,1:0|0:0,0:0:0:0:
465,43,27937,6,0,P|504:106|460:167,1,160,0|0,1:0|1:0,0:0:0:0:
347,181,28411,1,0,0:0:0:0:
125,255,28569,2,0,L|131:174,1,80,0|0,1:0|0:0,0:0:0:0:
355,310,28884,2,0,L|341:232,1,80,0|0,1:0|0:0,0:0:0:0:
38,257,29200,6,0,L|13:333,1,80,0|0,1:0|0:0,0:0:0:0:
343,58,29516,2,0,L|502:52,2,160,0|0|0,1:0|1:0|1:0,0:0:0:0:
77,70,30463,5,2,0:0:0:0:
65,108,30621,1,0,0:0:0:0:
56,147,30779,1,0,0:0:0:0:
190,172,30937,2,0,P|249:180|308:174,1,120.000004577637,2|0,0:0|0:0,0:0:0:0:
420,56,31411,2,0,L|348:59,1,60.0000022888184,0|2,0:0|0:0,0:0:0:0:
226,57,31726,6,0,L|151:57,2,60.0000022888184
333,138,32200,2,2,P|364:184|325:224,1,120.000004577637
201,245,32674,1,2,0:0:0:0:
438,69,32990,5,2,0:0:0:0:
450,107,33148,1,0,0:0:0:0:
459,146,33305,1,0,0:0:0:0:
321,172,33463,2,0,P|263:182|203:174,1,120.000004577637,2|0,0:0|0:0,0:0:0:0:
74,53,33937,2,0,L|146:56,1,60.0000022888184,0|2,0:0|0:0,0:0:0:0:
360,53,34253,6,0,L|420:53,2,60.0000022888184
226,162,34726,2,0,P|295:152|362:169,1,120.000004577637,2|2,0:0|1:2,0:0:0:0:
107,285,35200,2,0,L|118:206,1,80,8|0,0:0|0:0,0:0:0:0:
447,161,35516,6,0,L|466:67,1,95.9999970703126,4|0,1:0|1:0,0:0:0:0:
224,73,35832,2,0,L|203:193,1,95.9999970703126,8|0,0:0|0:0,0:0:0:0:
440,182,36148,1,0,1:0:0:0:
321,268,36305,1,0,1:0:0:0:
454,334,36463,1,8,0:0:0:0:
200,308,36621,6,0,P|159:322|98:302,1,95.9999970703126,0|0,0:0|1:0,0:0:0:0:
250,228,36937,2,0,P|291:214|352:234,1,95.9999970703126,0|8,1:0|0:0,0:0:0:0:
67,87,37253,1,0,0:0:0:0:
191,167,37411,1,0,1:0:0:0:
54,238,37569,1,0,1:0:0:0:
324,80,37726,2,0,P|378:69|444:94,1,95.9999970703126,8|0,0:0|0:0,0:0:0:0:
194,256,38042,6,0,L|183:161,1,95.9999970703126,0|0,1:0|1:0,0:0:0:0:
42,318,38358,2,0,L|54:223,1,95.9999970703126,8|0,0:0|0:0,0:0:0:0:
324,80,38674,1,0,1:0:0:0:
188,80,38832,1,0,1:0:0:0:
336,192,38990,1,8,0:0:0:0:
176,192,39148,1,0,0:0:0:0:
442,256,39305,6,0,L|466:349,1,95.9999970703126,0|0,1:0|1:0,0:0:0:0:
103,251,39621,2,0,L|79:344,1,95.9999970703126,8|0,0:0|1:0,0:0:0:0:
366,175,39937,1,8,0:0:0:0:
239,254,40095,1,0,1:0:0:0:
377,323,40253,1,8,0:0:0:0:
120,157,40411,2,8,L|79:203,1,47.9999985351563
360,263,40569,6,0,P|396:221|366:175,1,120.000004577637,2|0,0:2|0:0,0:0:0:0:
215,51,41042,2,0,P|195:103|238:139,1,120.000004577637,2|0,0:0|0:0,0:0:0:0:
472,310,41516,2,0,L|455:230,1,60.0000022888184,2|0,0:0|0:0,0:0:0:0:
195,79,41832,5,2,0:0:0:0:
145,132,41990,1,0,0:0:0:0:
137,203,42148,1,0,0:0:0:0:
172,264,42305,1,0,0:0:0:0:
322,275,42463,1,2,0:0:0:0:
372,222,42621,1,0,0:0:0:0:
380,151,42779,1,0,0:0:0:0:
345,90,42937,1,0,0:0:0:0:
182,299,43095,6,0,P|123:287|64:298,1,120.000004577637,2|0,0:0|0:0,0:0:0:0:
166,243,43569,1,2,0:0:0:0:
389,179,43726,1,0,0:0:0:0:
441,208,43884,1,0,0:0:0:0:
460,264,44042,1,2,0:0:0:0:
438,320,44200,1,0,0:0:0:0:
313,345,44358,6,0,L|179:346,1,120.000004577637,2|2,0:0|0:0,0:0:0:0:
64,187,44990,2,0,P|25:226|86:315,1,180.000006866455,2|0,0:0|0:0,0:0:0:0:
373,115,45621,6,0,P|327:106|275:131,1,95.9999970703126,0|0,1:0|1:0,0:0:0:0:
428,181,45937,2,0,L|446:319,1,95.9999970703126,8|0,0:0|0:0,0:0:0:0:
170,244,46253,2,0,P|123:258|74:241,2,95.9999970703126,0|0|8,1:0|1:0|0:0,0:0:0:0:
335,205,46726,6,0,L|339:308,1,95.9999970703126,0|0,0:0|1:0,0:0:0:0:
86,60,47042,2,0,L|68:184,1,95.9999970703126,0|8,1:0|0:0,0:0:0:0:
293,235,47358,1,0,0:0:0:0:
149,311,47516,1,0,1:0:0:0:
406,16,47674,1,0,1:0:0:0:
281,123,47832,1,8,0:0:0:0:
427,189,47990,1,0,0:0:0:0:
136,89,48148,6,0,L|116:183,1,95.9999970703126,0|0,1:0|1:0,0:0:0:0:
374,236,48463,2,0,L|388:330,1,95.9999970703126,8|0,0:0|0:0,0:0:0:0:
141,278,48779,6,0,L|92:310,1,47.9999985351563,0|0,1:0|0:0,0:0:0:0:
301,207,48937,1,8,0:0:0:0:
339,177,49016,1,8,0:0:0:0:
358,133,49095,1,8,0:0:0:0:
352,86,49174,1,8,0:0:0:0:
327,46,49253,1,8,0:0:0:0:
283,28,49332,1,8,0:0:0:0:
80,91,49411,6,0,L|167:142,1,95.9999970703126,0|0,1:0|1:0,0:0:0:0:
396,166,49726,1,8,0:0:0:0:
268,256,49884,1,0,1:0:0:0:
412,320,50042,1,8,0:0:0:0:
122,167,50200,1,0,1:0:0:0:
268,256,50358,1,8,0:0:0:0:
47,323,50516,1,0,1:0:0:0:
400,48,50674,6,0,L|498:62,2,95.9999970703126,4|4|0,1:0|1:0|0:0,0:0:0:0:
112,48,51148,2,0,L|15:63,2,95.9999970703126,4|4|0,1:0|1:0|0:0,0:0:0:0:
328,176,51621,2,0,L|216:176,1,95.9999970703126,4|4,1:0|1:0,0:0:0:0:
476,212,51937,5,0,0:0:0:0:
482,259,52016,1,8,0:0:0:0:
487,306,52095,1,8,0:0:0:0:
192,228,52253,2,0,L|151:259,1,47.9999985351563,2|0,1:2|0:0,0:0:0:0:
320,228,52411,2,0,L|361:259,1,47.9999985351563,8|8,0:0|0:0,0:0:0:0:
54,214,52569,2,0,L|19:327,1,95.9999970703126,8|2,0:0|1:2,0:0:0:0:
353,38,52884,5,8,0:0:0:0:
370,47,52924,1,0,0:0:0:0:
382,61,52963,1,0,0:0:0:0:
385,79,53003,1,0,0:0:0:0:
379,97,53042,1,0,0:0:0:0:
366,111,53082,1,0,0:0:0:0:
350,121,53121,1,0,0:0:0:0:
214,111,53200,6,0,L|201:213,1,95.9999970703126,6|0,1:2|0:0,0:0:0:0:
343,265,53516,1,8,0:0:0:0:
85,260,53674,1,0,0:0:0:0:
78,297,53753,1,0,0:0:0:0:
72,335,53832,1,0,1:0:0:0:
324,32,53990,1,0,1:0:0:0:
188,32,54148,1,8,0:0:0:0:
464,208,54305,6,0,L|484:92,1,95.9999970703126,6|0,1:2|0:0,0:0:0:0:
190,195,54621,2,0,L|166:288,1,95.9999970703126,0|8,1:0|0:0,0:0:0:0:
318,197,54937,2,0,L|341:290,1,95.9999970703126,0|0,0:0|1:0,0:0:0:0:
91,226,55253,2,0,L|71:110,1,95.9999970703126,0|8,1:0|0:0,0:0:0:0:
331,57,55569,2,8,L|409:60,1,47.9999985351563
203,43,55726,6,0,P|161:48|108:72,1,95.9999970703126,0|0,1:0|0:0,0:0:0:0:
383,129,56042,1,8,0:0:0:0:
256,219,56200,1,0,0:0:0:0:
403,286,56358,1,0,1:0:0:0:
126,308,56516,1,0,1:0:0:0:
256,219,56674,1,8,0:0:0:0:
104,142,56832,1,0,0:0:0:0:
456,52,56990,6,0,L|335:70,2,95.9999970703126,0|0|8,1:0|1:0|0:0,0:0:0:0:
220,144,57463,2,0,L|201:256,1,95.9999970703126,0|0,0:0|1:0,0:0:0:0:
56,192,57779,2,0,L|83:304,1,95.9999970703126,0|8,1:0|0:0,0:0:0:0:
379,191,58095,2,0,L|433:199,1,47.9999985351563
228,41,58253,6,0,L|120:53,2,95.9999970703126,0|0|0,1:0|1:0|0:0,0:0:0:0:
445,40,58726,2,0,L|457:135,1,95.9999970703126,8|0,0:0|0:0,0:0:0:0:
67,40,59042,2,0,L|51:164,1,95.9999970703126,8|0,0:0|0:0,0:0:0:0:
365,122,59358,6,0,P|414:202|359:281,1,191.999994140625,4|0,1:2|1:0,0:0:0:0:
129,151,59832,1,8,0:0:0:0:
255,152,59990,1,0,0:0:0:0:
265,198,60069,1,0,0:0:0:0:
273,245,60148,1,0,1:0:0:0:
51,356,60305,1,0,1:0:0:0:
177,255,60463,1,8,0:0:0:0:
39,202,60621,1,0,0:0:0:0:
273,19,60779,5,0,1:0:0:0:
314,42,60858,1,0,0:0:0:0:
336,84,60937,1,8,0:0:0:0:
337,132,61016,1,8,0:0:0:0:
315,174,61095,1,8,0:0:0:0:
273,198,61174,1,8,0:0:0:0:
471,224,61253,2,2,L|502:259,1,47.9999985351563,2|2,1:2|0:2,1:2:0:0:
175,185,61411,6,8,L|131:205,1,47.9999985351563
304,321,61569,2,2,L|357:361,1,47.9999985351563,2|2,1:2|0:0,0:0:0:0:
61,257,61726,2,2,L|18:279,1,47.9999985351563,2|2,0:2|0:2,0:2:0:0:
287,258,61884,6,0,P|371:239|475:185,1,191.999994140625,6|0,1:2|1:0,0:0:0:0:
197,102,62358,2,0,L|131:120,1,47.9999985351563,8|0,0:0|0:0,0:0:0:0:
332,157,62516,2,0,L|400:187,1,47.9999985351563,8|8,0:0|0:0,0:0:0:0:
79,145,62674,5,2,1:2:0:0:
40,181,62753,1,0,0:0:0:0:
40,229,62832,1,8,0:0:0:0:
79,256,62911,1,8,0:0:0:0:
256,247,62990,2,0,L|334:247,1,47.9999985351563,10|8,1:2|0:0,0:0:0:0:
242,273,63148,2,0,L|164:273,1,47.9999985351563,8|8,0:0|0:0,0:0:0:0:
431,43,63305,6,0,L|494:141,1,95.9999970703126,6|0,1:2|1:0,0:0:0:0:
248,77,63621,1,8,0:0:0:0:
378,114,63779,1,0,0:0:0:0:
155,139,63937,1,8,0:0:0:0:
285,176,64095,1,0,1:0:0:0:
64,200,64253,1,8,0:0:0:0:
328,240,64411,2,0,L|344:292,1,47.9999985351563,0|0,1:0|1:0,1:0:0:0:
81,43,64569,6,0,L|21:142,1,95.9999970703126,8|0,1:2|1:0,0:0:0:0:
264,77,64884,1,8,0:0:0:0:
134,114,65042,1,0,1:0:0:0:
357,139,65200,1,8,0:0:0:0:
227,176,65358,1,0,1:0:0:0:
448,196,65516,1,8,0:0:0:0:
184,240,65674,2,0,L|168:296,1,47.9999985351563,0|0,1:0|1:0,1:0:0:0:
368,328,65832,6,0,L|408:224,1,95.9999970703126,8|0,0:0|1:0,0:0:0:0:
144,328,66148,2,0,L|111:226,1,95.9999970703126,8|0,0:0|1:0,0:0:0:0:
385,31,66463,2,0,L|433:27,1,47.9999985351563,8|8,0:0|0:0,0:0:0:0:
282,130,66621,2,8,L|217:144,1,47.9999985351563
447,124,66779,1,2,1:2:0:0:
485,153,66858,1,2,0:2:0:0:
483,200,66937,1,2,0:2:0:0:
446,231,67016,1,2,0:2:0:0:
183,240,67095,6,0,P|145:267|97:272,2,95.9999970703126,6|0|2,1:2|0:0|1:2,0:0:0:0:
404,116,67569,2,0,P|418:214|396:308,1,191.999994140625,8|2,0:0|1:2,0:0:0:0:
114,182,68042,2,0,L|126:87,1,95.9999970703126,8|0,0:0|0:0,0:0:0:0:
409,135,68358,6,0,L|496:178,1,95.9999970703126,0|8,1:0|0:0,0:0:0:0:
366,105,68674,2,0,P|293:70|205:151,1,191.999994140625,0|8,1:0|0:0,0:0:0:0:
73,321,69148,2,0,L|60:196,1,95.9999970703126,0|0,1:0|0:0,0:0:0:0:
200,251,69463,2,0,L|259:264,2,47.9999985351563,8|8|0,0:0|0:0|1:0,0:0:0:0:
48,138,69779,6,8,P|88:113|135:109,1,95.9999970703126,8|0,0:0|0:0,0:0:0:0:
237,150,70095,1,0,1:0:0:0:
468,65,70253,2,0,P|496:129|469:194,1,143.999995605469,8|8,0:0|0:0,0:0:0:0:
424,223,70569,1,0,1:0:0:0:
287,86,70726,2,0,L|236:120,1,47.9999985351563,8|8,0:0|0:0,0:0:0:0:
442,282,70884,6,0,P|466:242|469:194,1,95.9999970703126,0|0,1:0|0:0,0:0:0:0:
318,190,71200,2,0,P|294:230|291:278,1,95.9999970703126,8|0,0:0|1:0,0:0:0:0:
57,183,71516,2,0,P|29:247|56:312,1,143.999995605469,8|8,0:0|0:0,0:0:0:0:
208,49,71832,2,0,L|272:55,1,47.9999985351563,8|8,1:2|0:0,0:0:0:0:
428,74,71990,2,0,L|431:127,1,47.9999985351563,8|8,0:0|0:0,0:0:0:0:
214,141,72148,6,0,L|165:163,1,47.9999985351563,2|8,1:2|0:0,0:0:0:0:
349,190,72305,2,8,L|402:217,1,47.9999985351563
56,208,72463,2,0,L|44:332,1,95.9999970703126,8|0,0:0|1:2,0:0:0:0:
324,172,72779,2,0,L|339:272,1,95.9999970703126,8|2,0:0|1:2,0:0:0:0:
189,172,73095,2,0,L|160:314,1,143.999995605469,8|8,0:0|0:0,0:0:0:0:
397,98,73411,6,0,L|489:67,2,95.9999970703126,0|8|0,1:0|0:0|0:0,0:0:0:0:
261,158,73884,2,0,L|366:179,1,95.9999970703126,0|8,1:0|0:0,0:0:0:0:
97,74,74200,2,0,P|49:149|105:241,1,191.999994140625,0|0,1:0|1:0,0:0:0:0:
364,96,74674,5,0,1:0:0:0:
257,122,74832,1,8,0:0:0:0:
152,156,74990,1,0,0:0:0:0:
434,187,75148,2,0,L|497:191,2,47.9999985351563,0|0|8,1:0|1:0|0:0,0:0:0:0:
268,234,75463,2,0,P|301:266|358:290,1,95.9999970703126,0|8,1:0|0:0,0:0:0:0:
97,238,75779,2,2,L|38:247,1,47.9999985351563,2|2,1:2|1:2,0:0:0:0:
304,23,75937,6,0,P|359:97|305:170,1,191.999994140625,2|0,1:2|1:0,0:0:0:0:
86,171,76411,1,8,0:0:0:0:
309,266,76569,2,0,L|418:279,1,95.9999970703126,0|0,0:0|1:0,0:0:0:0:
146,275,76884,2,0,L|37:288,1,95.9999970703126,8|0,0:0|1:0,0:0:0:0:
403,27,77200,5,8,0:0:0:0:
285,122,77358,1,0,1:0:0:0:
428,180,77516,1,0,1:0:0:0:
90,353,77674,1,8,0:0:0:0:
216,259,77832,1,0,0:0:0:0:
64,201,77990,1,0,1:0:0:0:
290,147,78148,1,8,0:0:0:0:
147,99,78305,1,0,0:0:0:0:
378,19,78463,5,8,0:0:0:0:
416,48,78542,1,0,0:0:0:0:
435,91,78621,1,0,0:0:0:0:
428,138,78700,1,0,0:0:0:0:
259,139,78779,2,8,L|247:185,1,47.9999985351563
446,83,78937,5,8,0:0:0:0:
465,126,79016,1,0,0:0:0:0:
462,172,79095,1,0,0:0:0:0:
434,210,79174,1,0,0:0:0:0:
279,140,79253,2,8,L|250:177,1,47.9999985351563,8|8,0:0|0:0,0:0:0:0:
477,173,79411,5,8,0:0:0:0:
474,219,79490,1,8,0:0:0:0:
449,259,79569,1,8,0:0:0:0:
406,279,79648,1,8,0:0:0:0:
145,156,79726,6,0,L|41:178,2,95.9999970703126,6|2|0,1:2|0:0|0:0,0:0:0:0:
384,68,80200,1,12,0:0:0:0:
256,68,80358,1,2,0:0:0:0:
128,68,80516,1,2,0:0:0:0:
367,228,80674,6,0,L|471:206,2,95.9999970703126,12|2|2,0:0|0:0|0:0,0:0:0:0:
120,316,81148,1,12,0:0:0:0:
256,316,81305,1,2,0:0:0:0:
388,316,81463,1,2,0:0:0:0:
128,64,81621,6,0,L|110:174,1,95.9999970703126,12|2,0:0|0:0,0:0:0:0:
384,64,81937,2,0,L|402:174,1,95.9999970703126,8|2,0:0|0:0,0:0:0:0:
64,244,82253,6,0,P|113:257|161:246,2,95.9999970703126,12|2|2,0:0|0:0|0:0,0:0:0:0:
392,68,82726,1,12,0:0:0:0:
256,68,82884,1,2,0:0:0:0:
120,68,83042,1,2,0:0:0:0:
448,140,83200,6,0,P|399:127|351:138,2,95.9999970703126,12|2|2,0:0|0:0|0:0,0:0:0:0:
116,316,83674,1,12,0:0:0:0:
256,316,83832,1,2,0:0:0:0:
396,316,83990,1,2,0:0:0:0:
152,48,84148,2,8,P|64:59|97:228,1,287.999991210938,12|0,0:0|0:0,0:0:0:0:
378,311,84779,6,0,B|465:282|542:203|545:98|440:69|396:126|396:126|378:56|269:56|238:138|280:240|339:284,1,671.999979492188,6|2,1:2|0:0,0:0:0:0:
378,311,85963,1,2,0:0:0:0:
128,80,86042,6,2,L|34:104,1,95.9999970703126,2|2,1:2|1:2,1:2:0:0:
314,41,86358,2,2,L|408:65,1,95.9999970703126,2|2,1:2|1:2,1:2:0:0:
126,210,86674,1,2,1:2:0:0:
440,142,86832,2,0,P|487:218|431:288,1,191.999994140625,6|0,1:2|0:0,0:0:0:0:
124,64,87305,6,0,L|110:142,1,80
304,128,87779,2,0,P|328:174|298:277,1,160
168,240,88253,2,0,L|159:134,1,80
