osu file format v14

[General]
AudioFilename: audio.mp3
AudioLeadIn: 0
PreviewTime: 52884
Countdown: 0
SampleSet: Soft
StackLeniency: 0.7
Mode: 0
LetterboxInBreaks: 0
WidescreenStoryboard: 0

[Editor]
DistanceSpacing: 0.5
BeatDivisor: 4
GridSize: 16
TimelineZoom: 1.6

[Metadata]
Title:Redo
TitleUnicode:Redo
Artist:Suzuki Konomi
ArtistUnicode:鈴木このみ
Creator:Neoskylove
Version:Walao's Insane
Source:Re:ゼロから始める異世界生活
Tags:Re: Zero kara Hajimeru Isekai Seikatsu op opening tv size Karia walaowey ProEzreal tasuke912
BeatmapID:1159424
BeatmapSetID:545351

[Difficulty]
HPDrainRate:6
CircleSize:4
OverallDifficulty:7
ApproachRate:8.8
SliderMultiplier:1.6
SliderTickRate:1

[Events]
//Background and Video events
0,0,"BG.jpg",0,0
Video,-752,"video.avi"
//Break Periods
//Storyboard Layer 0 (Background)
//Storyboard Layer 1 (Fail)
//Storyboard Layer 2 (Pass)
//Storyboard Layer 3 (Foreground)
//Storyboard Sound Samples

[TimingPoints]
148,315.789473684211,4,2,0,40,1,0
148,-133.333333333333,4,2,0,40,0,0
5200,-117.647058823529,4,2,0,50,0,0
10253,-100,4,2,0,60,0,0
30463,-133.333333333333,4,2,0,40,0,0
35200,-100,4,2,51,60,0,0
40569,-133.333333333333,4,2,0,40,0,0
44990,-153.846153846153,4,2,0,30,0,0
45621,-100,4,2,51,60,0,0
49411,-100,4,2,51,80,0,0
52884,-125,4,2,51,60,0,0
53200,-100,4,2,51,70,0,1
58253,-100,4,2,51,60,0,1
59358,-100,4,2,51,70,0,1
62832,-100,4,2,51,60,0,0
63305,-100,4,2,51,70,0,1
68358,-100,4,2,51,60,0,1
73411,-100,4,2,51,70,0,1
78463,-100,4,2,51,80,0,1
79726,-100,4,2,51,70,0,0
84779,-125,4,2,51,60,0,0
85411,-100,4,2,51,60,0,0
87305,-133.333333333333,4,2,0,40,0,0
88569,-153.846153846153,4,2,0,30,0,0
88884,-153.846153846153,4,2,0,5,0,0

[Colours]
Combo1 : 255,159,236
Combo2 : 140,241,255
Combo3 : 145,175,255
Combo4 : 191,153,255

[HitObjects]
100,140,148,6,0,L|151:88,1,60.0000022888184,2|0,0:0|0:0,0:0:0:0:
159,82,621,2,0,P|215:92|280:146,1,120.000004577637,2|0,0:0|0:0,0:0:0:0:
310,192,1095,1,2,0:0:0:0:
232,197,1253,1,0,0:0:0:0:
343,122,1411,6,0,L|405:67,1,60.0000022888184,2|0,0:0|0:0,0:0:0:0:
412,84,1885,2,0,L|387:201,1,120.000004577637,2|0,0:0|0:0,0:0:0:0:
373,277,2358,1,2,0:0:0:0:
447,252,2516,1,0,0:0:0:0:
313,225,2674,6,0,P|295:258|302:305,1,60.0000022888184,2|0,0:0|0:0,0:0:0:0:
288,303,3148,2,0,P|280:240|257:190,1,120.000004577637,2|0,0:0|0:0,0:0:0:0:
184,158,3621,1,2,0:0:0:0:
108,178,3779,1,0,0:0:0:0:
179,291,3937,6,0,L|163:233,1,60.0000022888184,2|0,0:0|0:0,0:0:0:0:
156,207,4411,2,0,P|159:154|209:109,1,120.000004577637,2|0,0:0|0:0,0:0:0:0:
284,128,4885,1,2,0:0:0:0:
230,184,5042,1,0,0:0:0:0:
98,113,5200,6,0,L|31:76,2,68.0000012969971,2|0|0,0:0|0:0|0:0,0:0:0:0:
102,188,5674,1,2,0:0:0:0:
33,161,5832,2,0,P|28:197|45:235,1,68.0000012969971
104,261,6148,2,0,L|179:261,1,68.0000012969971,2|0,0:0|0:0,0:0:0:0:
297,187,6463,6,0,P|332:184|383:213,2,68.0000012969971,2|0|0,0:0|0:0|0:0,0:0:0:0:
321,258,6937,1,2,0:0:0:0:
395,262,7095,2,0,P|426:237|439:191,1,68.0000012969971,0|0,0:0|0:0,0:0:0:0:
414,140,7411,2,0,P|452:137|485:153,1,68.0000012969971,2|0,0:0|0:0,0:0:0:0:
416,20,7726,6,0,L|349:33,1,68.0000012969971,2|0,0:0|0:0,0:0:0:0:
275,50,8042,1,0,0:0:0:0:
295,121,8200,1,2,0:0:0:0:
368,107,8358,2,0,P|366:146|337:182,1,68.0000012969971,0|0,0:0|0:0,0:0:0:0:
278,184,8674,2,0,P|280:145|309:109,1,68.0000012969971,2|0,0:0|0:0,0:0:0:0:
439,155,8990,6,0,L|494:228,1,68.0000012969971,2|0,0:0|0:0,0:0:0:0:
494,282,9305,1,0,0:0:0:0:
422,259,9463,1,2,0:0:0:0:
435,332,9621,2,0,L|374:375,1,68.0000012969971,0|0,0:0|0:0,0:0:0:0:
361,297,9937,2,0,L|278:302,1,68.0000012969971,2|0,0:0|0:0,0:0:0:0:
385,141,10253,6,0,B|437:99|494:99|494:99|478:155,2,160,2|0|2,0:0|0:0|0:0,0:0:0:0:
304,170,11042,1,0,0:0:0:0:
226,200,11200,2,0,L|127:234,1,80
109,91,11516,6,0,P|183:70|239:121,1,160,2|0,0:0|0:0,0:0:0:0:
166,148,11990,1,0,0:0:0:0:
151,226,12148,2,0,B|130:331,1,80,2|0,0:0|0:0,0:0:0:0:
198,363,12463,2,0,B|213:284,1,80
302,176,12779,6,0,B|333:127|314:87|314:87|374:61,2,160,2|0|2,0:0|0:0|0:0,0:0:0:0:
239,121,13569,1,0,0:0:0:0:
249,41,13727,2,0,L|340:106,1,80
226,201,14042,6,0,P|162:145|183:62,1,160,2|0,0:0|0:0,0:0:0:0:
239,121,14516,1,0,0:0:0:0:
302,176,14674,2,0,L|288:257,1,80,2|0,0:0|0:0,0:0:0:0:
274,333,14990,2,0,P|316:329|363:284,1,80,0|0,0:0|0:0,0:0:0:0:
226,201,15306,5,2,0:0:0:0:
209,283,15463,1,0,0:0:0:0:
151,226,15621,2,0,L|70:154,1,80
180,68,15937,2,0,L|254:134,1,80,2|0,0:0|0:0,0:0:0:0:
302,176,16253,1,0,0:0:0:0:
226,201,16411,1,0,0:0:0:0:
316,95,16569,6,0,B|396:20|396:20|393:85,1,160,2|0,0:0|0:0,0:0:0:0:
378,147,17042,1,0,0:0:0:0:
288,254,17200,2,0,B|302:176,1,80,2|0,0:0|0:0,0:0:0:0:
166,148,17516,2,0,B|226:201,1,80,0|0,0:0|0:0,0:0:0:0:
348,303,17832,6,0,P|429:271|438:196,1,160,2|0,0:0|0:0,0:0:0:0:
364,225,18305,1,0,0:0:0:0:
364,225,18463,2,0,P|426:284|494:265,1,160,2|0,0:0|0:0,0:0:0:0:
441,206,18937,1,0,0:0:0:0:
302,175,19095,6,0,L|223:202,2,80,2|0|0,0:0|0:0|0:0,0:0:0:0:
378,147,19569,1,0,0:0:0:0:
241,121,19726,2,0,L|166:148,1,80,2|0,0:0|0:0,0:0:0:0:
131,304,20042,1,0,0:0:0:0:
131,304,20358,6,0,P|199:278|223:185,1,160,2|0,0:0|0:0,0:0:0:0:
166,148,20832,1,0,0:0:0:0:
90,171,20990,2,0,P|88:132|105:96,1,80,2|0,0:0|0:0,0:0:0:0:
180,69,21306,2,0,P|221:88|245:135,1,80,0|0,0:0|0:0,0:0:0:0:
288,254,21621,6,0,P|356:306|438:259,1,160,2|0,0:0|0:0,0:0:0:0:
364,225,22095,1,0,0:0:0:0:
302,175,22253,2,0,L|321:73,1,80,2|0,0:0|0:0,0:0:0:0:
378,147,22569,2,0,L|460:119,1,80,0|0,0:0|0:0,0:0:0:0:
330,17,22884,6,0,P|252:49|242:126,1,160,2|0,0:0|0:0,0:0:0:0:
302,175,23358,1,0,0:0:0:0:
288,254,23516,2,0,L|191:288,1,80,2|0,0:0|0:0,0:0:0:0:
151,226,23832,1,0,0:0:0:0:
226,200,23990,1,0,0:0:0:0:
131,304,24148,6,0,P|87:276|71:231,1,80,2|0,0:0|0:0,0:0:0:0:
94,174,24463,2,0,P|138:202|154:247,1,80,0|0,0:0|0:0,0:0:0:0:
212,280,24779,2,0,L|305:248,1,80,2|0,0:0|0:0,0:0:0:0:
302,175,25095,2,0,L|391:144,1,80,0|0,0:0|0:0,0:0:0:0:
257,40,25411,6,0,L|242:118,1,80,2|0,0:0|0:0,0:0:0:0:
226,200,25727,1,0,0:0:0:0:
150,225,25885,1,0,0:0:0:0:
104,96,26042,2,0,L|164:150,1,80,2|0,0:0|0:0,0:0:0:0:
241,118,26358,1,0,0:0:0:0:
180,69,26516,1,0,0:0:0:0:
86,177,26674,6,0,P|70:217|86:273,2,80,2|0|0,0:0|0:0|0:0,0:0:0:0:
150,225,27148,1,0,0:0:0:0:
60,327,27305,2,0,P|12:297|0:254,1,80,2|0,0:0|0:0,0:0:0:0:
136,305,27621,2,0,L|215:279,1,80,0|0,0:0|0:0,0:0:0:0:
241,118,27937,6,0,P|179:66|97:102,1,160,2|0,0:0|0:0,0:0:0:0:
165,147,28411,1,0,0:0:0:0:
165,147,28569,2,0,B|180:186|219:197|219:197|211:296,1,160,2|0,0:0|0:0,0:0:0:0:
288,254,29042,1,0,0:0:0:0:
316,96,29200,6,0,P|349:72|412:74,1,80,2|0,0:0|0:0,0:0:0:0:
443,198,29516,2,0,P|406:182|382:150,1,80,0|0,0:0|0:0,0:0:0:0:
468,43,29832,2,0,P|472:83|439:137,1,80,2|0,0:0|0:0,0:0:0:0:
316,96,30148,2,0,L|212:128,1,80,0|0,0:0|0:0,0:0:0:0:
222,288,30463,6,0,B|254:304|254:304|302:288|302:288|334:304,1,120.000004577637,2|0,0:0|0:0,0:0:0:0:
338,224,30937,2,0,B|306:208|306:208|258:224|258:224|226:208,1,120.000004577637,2|0,0:0|0:0,0:0:0:0:
157,244,31411,1,2,0:0:0:0:
157,244,31569,1,0,0:0:0:0:
68,162,31727,6,0,B|78:95|41:37,1,120.000004577637,2|0,0:0|0:0,0:0:0:0:
140,48,32200,2,0,B|130:115|167:173,1,120.000004577637,2|0,0:0|0:0,0:0:0:0:
227,208,32674,1,2,0:0:0:0:
248,202,32990,6,0,L|368:149,1,120.000004577637,2|0,0:0|0:0,0:0:0:0:
435,143,33463,2,0,P|463:162|484:198,1,60.0000022888184,2|0,0:0|0:0,0:0:0:0:
449,255,33779,2,0,P|420:235|399:199,1,60.0000022888184,2|0,0:0|0:0,0:0:0:0:
357,153,34095,1,0,0:0:0:0:
234,103,34253,6,0,L|168:118,1,60.0000022888184,2|0,0:0|0:0,0:0:0:0:
220,180,34569,1,2,0:0:0:0:
305,86,34727,2,0,P|289:54|247:33,1,60.0000022888184
220,180,35042,1,4,0:3:0:0:
357,153,35200,2,0,L|466:133,1,80,8|0,0:0|0:0,0:0:0:0:
381,290,35516,6,0,B|300:306,1,80,4|0,0:0|0:0,0:0:0:0:
249,244,35832,2,0,L|344:227,1,80,8|0,0:0|0:0,0:0:0:0:
357,153,36148,1,0,0:0:0:0:
304,93,36305,1,0,0:0:0:0:
222,105,36463,2,0,L|291:182,1,80,8|0,0:0|0:0,0:0:0:0:
382,78,36779,6,0,B|295:94,1,80,0|0,0:0|0:0,0:0:0:0:
357,153,37095,1,8,0:0:0:0:
435,138,37253,2,0,P|459:104|459:60,1,80,0|0,0:0|0:0,0:0:0:0:
382,78,37569,1,0,0:0:0:0:
357,153,37727,2,0,L|323:244,1,80,8|0,0:0|0:0,0:0:0:0:
196,178,38042,6,0,L|305:159,1,80
222,103,38358,2,0,P|177:99|130:135,1,80,8|0,0:0|0:0,0:0:0:0:
121,193,38674,1,0,0:0:0:0:
170,258,38832,1,0,0:0:0:0:
250,231,38990,2,0,P|229:197|195:177,1,80,8|0,0:0|0:0,0:0:0:0:
39,212,39306,5,4,0:0:0:0:
170,258,39463,1,0,0:0:0:0:
62,137,39621,5,8,0:0:0:0:
94,269,39779,1,0,0:0:0:0:
142,118,39937,5,8,0:0:0:0:
39,212,40095,1,0,0:0:0:0:
196,178,40253,5,8,0:0:0:0:
87,62,40411,1,8,0:0:0:0:
87,62,40490,1,8,0:0:0:0:
87,62,40569,6,0,P|65:104|90:178,1,120.000004577637,2|0,0:0|0:0,0:0:0:0:
131,227,41042,2,0,P|116:171|141:117,1,120.000004577637,2|0,0:0|0:0,0:0:0:0:
196,178,41516,2,0,L|279:180,1,60.0000022888184,2|0,0:0|0:0,0:0:0:0:
388,179,41832,6,0,B|421:142|421:142|417:48,2,120.000004577637,2|0|2,0:0|0:0|0:0,0:0:0:0:
256,262,42779,1,2,0:0:0:0:
206,77,43095,6,0,P|265:79|311:116,1,120.000004577637,2|0,0:0|0:0,0:0:0:0:
351,267,43726,1,2,0:0:0:0:
229,168,44042,2,0,L|154:167,1,60.0000022888184,0|0,0:0|0:0,0:0:0:0:
116,225,44358,5,2,0:0:0:0:
177,362,44674,1,0,0:0:0:0:
266,252,44990,2,0,P|236:191|198:253,1,155.999992858887,2|0,0:0|0:0,0:0:0:0:
264,331,45621,6,0,L|335:293,1,80,4|0,0:0|0:0,0:0:0:0:
405,255,45937,2,0,L|408:150,1,80,8|0,0:0|0:0,0:0:0:0:
339,132,46253,1,0,0:0:0:0:
268,170,46411,1,0,0:0:0:0:
337,213,46569,2,0,L|410:173,1,80,8|0,0:0|0:0,0:0:0:0:
272,88,46885,6,0,L|199:42,1,80,0|0,0:0|0:0,0:0:0:0:
133,83,47200,2,0,L|212:133,1,80,8|0,0:0|0:0,0:0:0:0:
268,170,47516,1,0,0:0:0:0:
196,205,47674,1,0,0:0:0:0:
263,248,47832,2,0,L|167:301,1,80,8|0,0:0|0:0,0:0:0:0:
59,199,48148,6,0,L|143:153,1,80
122,320,48463,2,0,L|48:274,1,80,8|0,0:0|0:0,0:0:0:0:
196,205,48779,1,4,0:0:0:0:
264,330,48937,2,0,L|264:374,2,40,8|8|8,0:0|0:0|0:0,0:0:0:0:
268,170,49253,1,8,0:0:0:0:
268,170,49332,1,8,0:0:0:0:
268,170,49411,6,0,P|297:145|349:133,1,80,4|0,0:0|0:0,0:0:0:0:
373,281,49726,2,0,P|348:252|336:200,1,80,8|0,0:0|0:0,0:0:0:0:
487,178,50042,2,0,P|458:203|406:215,1,80,8|0,0:0|0:0,0:0:0:0:
382,66,50358,2,0,P|407:95|419:147,1,80,8|0,0:0|0:0,0:0:0:0:
373,281,50674,5,8,0:0:0:0:
336,133,50832,1,8,0:0:0:0:
392,276,51148,5,8,0:0:0:0:
268,170,51305,1,8,0:0:0:0:
411,271,51621,5,8,0:0:0:0:
262,249,51779,2,0,L|189:202,1,80,8|0,0:0|0:0,0:0:0:0:
162,180,52016,1,8,0:0:0:0:
162,180,52095,1,8,0:0:0:0:
272,90,52253,6,0,L|267:182,1,80,8|0,0:3|0:0,0:0:0:0:
306,180,52490,1,8,0:0:0:0:
306,180,52569,2,0,P|336:215|341:258,1,80,8|0,0:0|0:0,0:0:0:0:
192,304,52884,6,0,B|176:288|160:288|160:288|144:256|144:256|128:256|117:240,1,96,8|0,0:0|0:0,0:0:0:0:
85,235,53200,6,0,P|62:302|135:352,1,160,4|8,0:0|0:0,0:0:0:0:
213,223,53674,2,0,B|262:149,1,80,0|0,0:0|0:0,0:0:0:0:
341,161,53990,1,0,0:0:0:0:
297,228,54148,1,8,0:0:0:0:
180,151,54306,6,0,P|214:91|315:104,1,160,4|0,0:0|0:0,0:0:0:0:
213,223,54779,2,0,P|163:229|126:208,1,80,8|0,0:0|0:0,0:0:0:0:
98,149,55095,1,0,0:0:0:0:
180,151,55253,1,0,0:0:0:0:
91,286,55411,2,0,L|133:371,1,80,8|0,0:0|0:0,0:0:0:0:
213,223,55727,6,0,L|174:139,1,80,4|0,0:0|0:0,0:0:0:0:
225,87,56042,2,0,L|304:88,1,80,8|0,0:0|0:0,0:0:0:0:
341,161,56358,1,0,0:0:0:0:
297,228,56516,1,0,0:0:0:0:
332,299,56674,1,8,0:0:0:0:
411,300,56832,1,0,0:0:0:0:
458,235,56990,6,0,L|419:160,1,80
304,88,57305,1,8,0:0:0:0:
258,159,57463,1,0,0:0:0:0:
341,161,57621,2,0,L|395:87,1,80,0|0,0:0|0:0,0:0:0:0:
222,86,57937,2,0,L|165:164,1,80,8|0,0:0|0:0,0:0:0:0:
249,297,58253,5,12,0:0:0:0:
258,159,58411,1,8,0:0:0:0:
17,220,58727,5,8,0:0:0:0:
249,297,59042,6,0,L|303:219,1,80,8|0,0:0|0:0,0:0:0:0:
225,88,59358,6,0,P|292:87|334:181,1,160,4|0,0:0|0:0,0:0:0:0:
258,159,59832,2,0,L|202:241,1,80,8|0,0:0|0:0,0:0:0:0:
166,290,60148,2,0,L|128:212,1,80,0|0,0:0|0:0,0:0:0:0:
98,145,60463,2,0,L|187:152,1,80,8|0,0:0|0:0,0:0:0:0:
294,231,60779,21,4,0:0:0:0:
166,290,60937,1,8,0:0:0:0:
166,290,61016,1,0,0:0:0:0:
166,290,61095,2,8,L|133:333,2,40,8|8|8,0:0|0:0|0:0,0:0:0:0:
177,151,61411,1,8,0:0:0:0:
177,151,61490,1,0,0:0:0:0:
177,151,61569,2,8,L|157:106,2,40,8|8|8,0:0|0:0|0:0,0:0:0:0:
294,231,61884,6,0,P|363:243|423:178,1,160,4|0,0:0|0:0,0:0:0:0:
304,88,62358,1,8,0:0:0:0:
212,225,62516,2,0,L|186:260,2,40,8|8|8,0:0|0:0|0:0,0:0:0:0:
225,88,62832,1,8,0:0:0:0:
225,88,62911,1,8,0:0:0:0:
225,88,62990,2,8,L|225:29,3,40,8|8|8|8,0:0|0:0|0:0|0:0,0:0:0:0:
188,64,63305,6,0,P|115:77|88:157,1,160,4|8,0:0|0:0,0:0:0:0:
137,213,63779,1,0,0:0:0:0:
241,125,63937,1,8,0:0:0:0:
162,137,64095,1,0,0:0:0:0:
286,192,64253,2,0,L|382:179,1,80,8|0,0:0|0:0,0:0:0:0:
314,330,64569,6,0,L|234:340,1,80,8|0,0:0|0:0,0:0:0:0:
211,205,64884,2,0,L|259:268,1,80,8|0,0:0|0:0,0:0:0:0:
365,181,65200,2,0,L|272:192,1,80,8|0,0:0|0:0,0:0:0:0:
267,50,65516,2,0,L|315:113,1,80,8|0,0:0|0:0,0:0:0:0:
259,268,65832,5,8,0:0:0:0:
237,129,65990,1,0,0:0:0:0:
365,181,66148,2,0,P|360:221|318:265,1,80,8|0,0:0|0:0,0:0:0:0:
209,200,66463,2,0,P|214:160|256:116,1,80,8|0,0:0|0:0,0:0:0:0:
346,39,66779,1,8,0:0:0:0:
441,169,66937,1,8,0:0:0:0:
441,169,67016,1,8,0:0:0:0:
441,169,67095,6,0,L|380:322,1,160,4|0,0:0|0:0,0:0:0:0:
285,190,67569,2,0,B|266:132|287:78|287:78|320:119,1,160,8|0,0:0|0:0,0:0:0:0:
365,181,68042,2,0,P|358:226|320:267,1,80,8|0,0:0|0:0,0:0:0:0:
211,205,68358,6,0,L|129:214,1,80,0|8,0:0|0:0,0:0:0:0:
88,293,68674,1,0,0:0:0:0:
93,284,68990,5,12,0:0:0:0:
162,137,69148,1,8,0:0:0:0:
171,131,69463,5,8,0:0:0:0:
181,125,69542,1,8,0:0:0:0:
191,120,69621,6,0,P|231:108|285:126,1,80,4|8,0:0|0:0,0:0:0:0:
276,252,69937,2,0,P|247:226|234:189,1,80
274,34,70253,2,0,P|312:46|339:74,1,80,12|0,0:0|0:0,0:0:0:0:
366,106,70490,1,8,0:0:0:0:
366,106,70569,2,0,P|402:99|443:71,1,80,0|8,0:0|0:0,0:0:0:0:
461,42,70806,1,8,0:0:0:0:
461,43,70885,6,0,B|466:144,1,80,4|0,0:0|0:0,0:0:0:0:
431,195,71200,1,8,0:0:0:0:
383,130,71358,1,0,0:0:0:0:
508,189,71516,1,8,0:0:0:0:
477,261,71674,1,8,0:0:0:0:
477,261,71753,1,8,0:0:0:0:
477,261,71832,2,8,L|457:308,3,40
444,332,72148,5,4,0:0:0:0:
363,360,72306,1,8,0:0:0:0:
363,360,72384,1,8,0:0:0:0:
363,360,72463,2,0,P|316:369|279:361,1,80,8|0,0:0|0:0,0:0:0:0:
287,248,72779,1,8,0:0:0:0:
173,329,72937,1,0,0:0:0:0:
167,187,73095,2,0,L|271:178,1,80,8|0,0:0|0:0,0:0:0:0:
285,169,73332,1,8,0:0:0:0:
285,169,73411,6,0,P|328:178|361:216,1,80,4|0,0:0|0:0,0:0:0:0:
210,254,73726,2,0,L|99:263,1,80
36,127,74042,2,0,B|131:120,1,80,8|0,0:0|0:0,0:0:0:0:
196,113,74358,2,0,P|186:160|152:194,1,80,0|0,0:0|0:0,0:0:0:0:
83,195,74674,5,4,0:0:0:0:
150,53,74832,2,0,P|185:38|243:55,1,80,8|0,0:0|0:0,0:0:0:0:
272,109,75148,1,0,0:0:0:0:
115,121,75306,2,0,P|80:85|77:36,1,80,8|0,0:0|0:0,0:0:0:0:
196,113,75621,1,8,0:0:0:0:
131,257,75779,1,8,0:0:0:0:
131,257,75858,1,8,0:0:0:0:
130,256,75937,6,0,P|145:298|201:333,1,80,4|0,0:0|0:0,0:0:0:0:
211,251,76253,1,0,0:0:0:0:
83,195,76411,2,0,P|58:228|56:278,1,80,8|0,0:0|0:0,0:0:0:0:
130,256,76726,1,0,0:0:0:0:
115,121,76884,2,0,P|72:115|18:146,1,80,8|0,0:0|0:0,0:0:0:0:
130,256,77200,6,0,L|175:172,1,80,8|0,0:0|0:0,0:0:0:0:
326,171,77516,2,0,B|413:164,1,80,4|8,0:0|0:0,0:0:0:0:
287,248,77832,2,0,B|249:327,1,80,0|0,0:0|0:0,0:0:0:0:
245,177,78148,2,0,B|187:92,1,80,8|0,0:0|0:0,0:0:0:0:
326,171,78463,5,8,0:0:0:0:
287,248,78621,1,0,0:0:0:0:
283,104,78779,1,8,0:0:0:0:
283,104,78858,1,8,0:0:0:0:
283,104,78937,2,0,L|333:12,1,80,8|0,0:0|0:0,0:0:0:0:
405,164,79253,2,8,L|432:202,2,40
287,248,79569,1,8,0:0:0:0:
287,248,79648,1,8,0:0:0:0:
287,248,79727,6,0,P|239:259|192:240,1,80,4|0,0:0|0:0,0:0:0:0:
167,185,80042,1,0,0:0:0:0:
283,104,80200,6,0,L|371:100,2,80,12|0|0,0:0|0:0|0:0,0:0:0:0:
115,121,80674,6,0,P|90:153|89:202,1,80,12|0,0:0|0:0,0:0:0:0:
130,256,80990,1,0,0:0:0:0:
245,177,81148,6,0,P|226:133|185:109,2,80,12|0|0,0:0|0:0|0:0,0:0:0:0:
252,320,81621,2,0,L|337:313,1,80,12|0,0:0|0:0,0:0:0:0:
450,236,81937,2,0,L|370:243,1,80,12|0,0:0|0:0,0:0:0:0:
208,254,82253,6,0,L|167:329,1,80,12|0,0:0|0:0,0:0:0:0:
252,320,82569,1,0,0:0:0:0:
160,192,82727,6,0,L|116:273,1,80,12|0,0:0|0:0,0:0:0:0:
208,254,83042,1,0,0:0:0:0:
115,125,83200,6,0,L|74:200,1,80,12|0,0:0|0:0,0:0:0:0:
160,192,83516,1,0,0:0:0:0:
70,59,83674,5,12,0:0:0:0:
64,219,83832,1,0,0:0:0:0:
164,94,83990,1,0,0:0:0:0:
10,139,84148,1,12,0:0:0:0:
36,183,84779,6,0,P|111:171|36:128,1,192,4|0,0:0|0:0,0:0:0:0:
11,252,85411,6,0,P|67:269|161:222,1,160
188,156,85884,1,2,0:0:0:0:
188,156,85963,1,2,0:0:0:0:
188,156,86042,6,0,L|290:121,1,80,8|8,0:0|0:0,0:0:0:0:
419,87,86358,1,8,0:0:0:0:
321,187,86516,1,8,0:0:0:0:
280,52,86674,1,8,0:0:0:0:
399,169,86832,1,12,0:0:0:0:
376,251,87305,6,0,L|345:313,1,60.0000022888184,2|0,0:0|0:0,0:0:0:0:
338,326,87779,1,0,0:0:0:0:
270,364,87937,2,0,P|241:358|214:341,1,60.0000022888184,2|0,0:0|0:0,0:0:0:0:
260,230,88253,2,0,P|269:256|268:288,1,60.0000022888184,2|0,0:0|0:0,0:0:0:0:
193,269,88569,6,0,B|153:267|153:267|131:239|131:239|96:239,1,103.999995239258
