osu file format v14

[General]
AudioFilename: audio.mp3
AudioLeadIn: 0
PreviewTime: 52884
Countdown: 0
SampleSet: Soft
StackLeniency: 0.5
Mode: 0
LetterboxInBreaks: 0
WidescreenStoryboard: 0

[Editor]
DistanceSpacing: 0.9
BeatDivisor: 4
GridSize: 32
TimelineZoom: 2.2

[Metadata]
Title:Redo
TitleUnicode:Redo
Artist:Suzuki Konomi
ArtistUnicode:鈴木このみ
Creator:Neoskylove
Version:Karia's Expert
Source:Re:ゼロから始める異世界生活
Tags:Re: Zero kara Hajimeru Isekai Seikatsu op opening tv size Karia walaowey ProEzreal tasuke912
BeatmapID:1159425
BeatmapSetID:545351

[Difficulty]
HPDrainRate:6
CircleSize:4.2
OverallDifficulty:8.6
ApproachRate:9
SliderMultiplier:1.82
SliderTickRate:1

[Events]
//Background and Video events
0,0,"BG.jpg",0,0
Video,-752,"video.avi"
//Break Periods
//Storyboard Layer 0 (Background)
//Storyboard Layer 1 (Fail)
//Storyboard Layer 2 (Pass)
//Storyboard Layer 3 (Foreground)
//Storyboard Sound Samples

[TimingPoints]
148,315.789473684211,4,2,51,40,1,0
148,-117.647058823529,4,2,51,40,0,0
5200,-117.647058823529,4,2,51,50,0,0
10253,-117.647058823529,4,2,51,50,0,0
24384,-117.647058823529,4,2,51,5,0,0
24463,-117.647058823529,4,2,51,50,0,0
30463,-142.857142857143,4,2,51,45,0,0
35200,-100,4,2,51,50,0,0
35437,-100,4,2,51,5,0,0
35516,-100,4,2,51,60,0,0
40569,-133.333333333333,4,2,51,50,0,0
42069,-133.333333333333,4,2,51,5,0,0
42226,-133.333333333333,4,2,51,50,0,0
44358,-133.333333333333,4,2,51,40,0,0
45621,-100,4,2,51,60,0,0
52569,-76.9230769230769,4,2,51,60,0,0
53200,-100,4,2,51,70,0,1
53437,-100,4,2,51,5,0,1
53516,-100,4,2,51,70,0,1
54542,-100,4,2,51,5,0,1
54621,-100,4,2,51,70,0,1
58805,-100,4,2,51,5,0,1
59042,-100,4,2,51,70,0,1
59121,-100,4,2,51,5,0,1
59358,-76.9230769230769,4,2,51,70,0,1
60148,-100,4,2,51,70,0,1
60858,-100,4,2,51,5,0,1
60937,-100,4,2,51,70,0,1
61332,-100,4,2,51,5,0,1
61411,-100,4,2,51,70,0,1
62121,-100,4,2,51,5,0,1
62200,-100,4,2,51,70,0,1
63226,-100,4,2,51,70,0,0
63305,-100,4,2,51,70,0,1
67095,-86.9565217391304,4,2,51,70,0,1
68279,-86.9565217391304,4,2,51,5,0,1
68358,-100,4,2,51,70,0,1
78463,-100,4,2,51,70,0,0
79726,-100,4,2,51,70,0,1
84148,-133.333333333333,4,2,51,70,0,1
84700,-133.333333333333,4,2,51,5,0,1
84779,-100,4,2,51,70,0,0
87305,-117.647058823529,4,2,51,40,0,0
88569,-133.333333333333,4,2,51,25,0,0
88648,-133.333333333333,4,2,51,5,0,0

[Colours]
Combo1 : 255,159,236
Combo2 : 140,241,255
Combo3 : 145,175,255
Combo4 : 191,153,255

[HitObjects]
186,97,148,6,0,P|151:114|108:112,1,77.3500014753342
32,82,621,6,0,P|109:87|186:97,1,154.700002950668
256,192,1095,1,0,0:0:0:0:
256,192,1253,1,0,0:0:0:0:
326,97,1411,2,0,P|361:114|404:112,1,77.3500014753342
480,84,1884,6,0,P|403:90|326:97,1,154.700002950668
256,192,2358,1,0,0:0:0:0:
256,192,2516,1,0,0:0:0:0:
346,269,2674,2,0,B|356:308|356:308|344:343,1,77.3500014753342
475,248,3148,6,0,P|416:293|346:269,1,154.700002950668
256,192,3621,1,0,0:0:0:0:
256,192,3779,1,0,0:0:0:0:
166,269,3937,2,0,B|156:308|156:308|167:343,1,77.3500014753342
36,247,4411,6,0,P|95:292|166:269,1,154.700002950668
256,192,4884,1,0,0:0:0:0:
256,192,5042,1,0,0:0:0:0:
143,88,5200,6,0,P|147:122|153:174,1,77.3500014753342,2|0,0:0|0:0,0:0:0:0:
243,34,5516,2,0,L|237:68|228:119,1,77.3500014753342,2|0,0:0|0:0,0:0:0:0:
96,27,5832,2,0,P|131:12|169:16,1,77.3500014753342,2|0,0:3|0:0,0:0:0:0:
151,164,6148,2,0,L|146:130,3,25.7833338251114,2|0|0|0,0:0|0:0|0:0|0:0,0:0:0:0:
0,90,6463,6,0,P|38:95|79:100,1,77.3500014753342,2|0,0:0|0:0,0:0:0:0:
227,154,6779,2,0,P|189:158|151:164,1,77.3500014753342,2|0,0:0|0:0,0:0:0:0:
11,240,7095,2,0,P|46:225|84:229,1,77.3500014753342,2|0,0:3|0:0,0:0:0:0:
164,335,7411,2,0,P|168:296|173:258,1,77.3500014753342,2|0,0:0|0:0,0:0:0:0:
338,258,7726,6,0,P|343:296|347:335,1,77.3500014753342,2|0,0:0|0:0,0:0:0:0:
450,206,8042,2,0,P|444:244|440:282,1,77.3500014753342,2|0,0:0|0:0,0:0:0:0:
381,139,8358,2,0,P|346:124|308:128,1,77.3500014753342,2|0,0:3|0:0,0:0:0:0:
189,240,8674,2,0,L|223:235,3,25.7833338251114,2|0|0|0,0:0|0:0|0:0|0:0,0:0:0:0:
219,66,8990,6,0,P|224:104|228:142,1,77.3500014753342,2|0,0:0|0:0,0:0:0:0:
287,295,9305,2,0,P|291:256|296:218,1,77.3500014753342,2|0,0:0|0:0,0:0:0:0:
219,66,9621,2,0,P|181:60|145:74,1,77.3500014753342,2|0,0:3|0:0,0:0:0:0:
2,150,9937,2,0,P|41:154|79:159,1,77.3500014753342,2|0,0:0|0:0,0:0:0:0:
217,247,10253,6,0,P|138:254|39:264,1,154.700002950668,2|2,0:0|0:0,0:0:0:0:
62,261,10726,1,0,0:0:0:0:
142,127,10884,2,0,P|148:181|153:225,1,77.3500014753342,2|0,0:3|0:0,0:0:0:0:
244,61,11200,2,0,P|235:114|229:158,1,77.3500014753342,2|0,0:0|0:0,0:0:0:0:
78,58,11516,6,0,P|143:49|266:33,1,154.700002950668,2|2,0:0|0:0,0:0:0:0:
231,37,11990,1,0,0:0:0:0:
142,127,12148,1,2,0:3:0:0:
142,127,12305,1,0,0:0:0:0:
288,175,12463,1,2,0:0:0:0:
288,175,12621,1,0,0:0:0:0:
141,276,12779,6,0,P|215:265|314:254,1,154.700002950668,2|2,0:0|0:0,0:0:0:0:
294,256,13253,1,0,0:0:0:0:
377,130,13411,2,0,P|371:184|366:228,1,77.3500014753342,2|0,0:3|0:0,0:0:0:0:
270,78,13726,2,0,P|279:131|285:175,1,77.3500014753342,2|0,0:0|0:0,0:0:0:0:
452,179,14042,6,0,P|492:133|443:40,1,154.700002950668,2|2,0:0|0:0,0:0:0:0:
377,130,14516,1,0,0:0:0:0:
275,65,14674,2,0,P|231:56|184:52,1,77.3500014753342,2|0,0:3|0:0,0:0:0:0:
123,182,14990,2,0,P|167:177|213:167,1,77.3500014753342,2|0,0:0|0:0,0:0:0:0:
54,83,15305,5,2,0:0:0:0:
3,221,15463,2,0,L|-8:139,2,77.3500014753342,0|2|0,0:0|0:0|0:0,0:0:0:0:
152,274,15937,2,0,P|111:262|62:280,1,77.3500014753342,2|0,0:3|0:0,0:0:0:0:
232,213,16253,1,2,0:0:0:0:
188,354,16411,1,0,0:0:0:0:
232,213,16569,6,0,P|240:268|245:306,1,77.3500014753342,2|0,0:0|0:0,0:0:0:0:
153,165,16884,1,2,0:0:0:0:
242,289,17042,1,0,0:0:0:0:
306,138,17200,2,0,P|270:123|232:130,1,77.3500014753342,2|0,0:3|0:0,0:0:0:0:
405,207,17516,2,0,P|365:213|325:221,1,77.3500014753342,2|0,0:0|0:0,0:0:0:0:
468,134,17832,6,0,P|417:93|445:15,1,154.700002950668,2|2,0:0|0:0,0:0:0:0:
441,17,18305,1,0,0:0:0:0:
303,100,18463,2,0,P|348:105|391:110,1,77.3500014753342,2|0,0:3|0:0,0:0:0:0:
251,24,18779,2,0,L|212:29|173:34,1,77.3500014753342,2|0,0:0|0:0,0:0:0:0:
37,151,19095,6,0,P|66:109|167:135,1,154.700002950668,2|2,0:0|0:0,0:0:0:0:
218,237,19569,1,0,0:0:0:0:
158,122,19726,2,0,P|153:172|149:208,1,77.3500014753342,2|0,0:3|0:0,0:0:0:0:
96,336,20042,2,0,P|91:297|88:259,1,77.3500014753342,2|0,0:0|0:0,0:0:0:0:
233,161,20358,6,0,P|289:202|279:285,1,154.700002950668,2|2,0:0|0:0,0:0:0:0:
282,280,20832,1,0,0:0:0:0:
408,168,20990,2,0,P|412:210|416:257,1,77.3500014753342,2|0,0:3|0:0,0:0:0:0:
319,105,21305,2,0,P|314:147|308:195,1,77.3500014753342,2|0,0:0|0:0,0:0:0:0:
194,56,21621,6,0,P|201:119|213:229,1,154.700002950668,2|2,0:0|0:0,0:0:0:0:
210,209,22095,1,0,0:0:0:0:
59,153,22253,1,2,0:3:0:0:
210,228,22411,1,0,0:0:0:0:
48,264,22569,2,0,P|95:260|139:258,1,77.3500014753342,2|0,0:0|0:0,0:0:0:0:
268,353,22884,6,0,P|213:348|113:338,1,154.700002950668,2|2,0:0|0:0,0:0:0:0:
114,338,23358,1,0,0:0:0:0:
257,277,23516,2,0,P|270:240|246:180,1,77.3500014753342,2|0,0:3|0:0,0:0:0:0:
143,91,23832,2,0,L|150:148|154:188,1,77.3500014753342,2|0,0:0|0:0,0:0:0:0:
327,125,24148,6,0,P|285:93|222:122,1,116.025002213001,2|0,0:0|0:0,0:0:0:0:
247,189,24463,2,0,P|290:193|321:169,1,77.3500014753342,2|0,0:0|0:0,0:0:0:0:
448,78,24779,2,0,P|443:126|439:165,1,77.3500014753342,2|0,0:3|0:0,0:0:0:0:
393,310,25095,2,0,P|389:271|385:233,1,77.3500014753342,2|0,0:0|0:0,0:0:0:0:
460,376,25411,5,2,0:0:0:0:
304,332,25569,2,0,P|266:334|214:348,2,77.3500014753342,0|2|0,0:0|0:0|0:0,0:0:0:0:
156,247,26042,2,0,P|193:257|231:262,1,77.3500014753342,2|0,0:3|0:0,0:0:0:0:
342,163,26358,1,2,0:0:0:0:
298,304,26516,1,0,0:0:0:0:
342,163,26674,6,0,P|347:208|352:255,1,77.3500014753342,2|0,0:0|0:0,0:0:0:0:
269,101,26990,1,2,0:0:0:0:
425,148,27148,1,0,0:0:0:0:
269,101,27305,2,0,P|319:95|355:91,1,77.3500014753342,2|0,0:3|0:0,0:0:0:0:
193,174,27621,2,0,P|231:178|271:183,1,77.3500014753342,2|0,0:0|0:0,0:0:0:0:
136,89,27937,6,0,P|63:59|2:120,1,154.700002950668,2|2,0:0|0:0,0:0:0:0:
8,100,28411,1,0,0:0:0:0:
96,239,28569,2,0,P|101:199|107:153,1,77.3500014753342,2|0,0:3|0:0,0:0:0:0:
15,288,28884,2,0,P|20:328|26:374,1,77.3500014753342,2|0,0:0|0:0,0:0:0:0:
195,338,29200,6,0,P|155:333|109:327,1,77.3500014753342,2|0,0:0|0:0,0:0:0:0:
277,267,29516,2,0,L|315:262|353:257,1,77.3500014753342,2|0,0:0|0:0,0:0:0:0:
212,146,29832,2,0,P|199:190|213:224,1,77.3500014753342,2|0,0:3|0:0,0:0:0:0:
299,93,30148,1,2,0:0:0:0:
299,93,30305,1,0,0:0:0:0:
405,191,30463,6,0,P|371:188|254:178,1,127.399996112061
172,103,30937,2,0,P|206:100|323:90,1,127.399996112061
394,31,31411,2,0,P|389:67|385:109,1,63.6999980560303
459,252,31726,6,0,P|487:197|464:137,1,127.399996112061
372,196,32200,2,0,P|380:266|388:332,1,127.399996112061
476,344,32674,1,0,0:0:0:0:
183,296,32990,6,0,L|318:280,1,127.399996112061
187,212,33463,2,0,L|48:191,2,127.399996112061
283,160,34253,6,0,P|312:105|281:43,1,127.399996112061
198,10,34726,1,0,0:0:0:0:
198,10,35042,5,2,0:0:0:0:
146,170,35200,2,0,P|205:165|286:159,1,136.5,8|0,0:0|0:0,0:0:0:0:
303,77,35516,5,4,0:0:0:0:
303,77,35674,1,2,0:0:0:0:
350,239,35832,2,0,P|305:234|258:229,1,91,8|0,0:0|0:0,0:0:0:0:
450,137,36148,2,0,P|404:143|355:150,1,91,2|2,0:0|0:0,0:0:0:0:
512,216,36463,1,8,0:0:0:0:
359,149,36621,1,0,0:0:0:0:
512,62,36779,5,2,0:0:0:0:
512,62,36937,1,2,0:0:0:0:
359,149,37095,2,0,P|404:154|449:161,1,91,8|0,0:0|0:0,0:0:0:0:
307,62,37411,1,2,0:0:0:0:
269,211,37569,1,2,0:0:0:0:
146,90,37726,2,0,L|152:135|158:180,1,91,8|0,0:0|0:0,0:0:0:0:
230,339,38042,5,2,0:0:0:0:
230,339,38200,1,2,0:0:0:0:
51,295,38358,2,0,P|103:286|142:280,1,91,8|0,0:0|0:0,0:0:0:0:
249,148,38674,2,0,P|240:200|234:239,1,91,2|2,0:0|0:0,0:0:0:0:
128,83,38990,2,0,L|134:128|140:173,1,91,8|0,0:0|0:0,0:0:0:0:
270,32,39305,6,0,P|229:12|180:21,1,91,4|2,0:0|0:0,0:0:0:0:
72,158,39621,1,8,0:0:0:0:
245,113,39779,1,2,0:0:0:0:
79,46,39937,1,8,0:0:0:0:
173,197,40095,1,2,0:0:0:0:
185,18,40253,1,8,0:0:0:0:
72,158,40411,1,8,0:0:0:0:
72,158,40490,1,8,0:0:0:0:
72,158,40569,6,0,P|128:153|228:144,1,136.500005207062
256,222,41042,2,0,P|312:224|412:227,1,136.500005207062
475,188,41516,2,0,P|471:228|468:264,1,68.250002603531
432,362,41832,6,0,B|394:322|411:211|461:270|479:170|442:102,1,273.000010414124
276,32,42779,1,0,0:0:0:0:
276,32,43095,6,0,L|287:176,2,136.500005207062
368,186,44042,1,0,0:0:0:0:
147,82,44358,5,0,0:0:0:0:
168,327,44674,1,0,0:0:0:0:
368,186,44990,1,0,0:0:0:0:
368,186,45621,5,4,0:0:0:0:
368,186,45779,1,2,0:0:0:0:
278,52,45937,2,0,P|285:112|289:152,1,91,8|0,0:0|0:0,0:0:0:0:
141,232,46253,2,0,P|187:226|236:219,1,91,2|2,0:0|0:0,0:0:0:0:
56,137,46569,2,0,P|102:143|151:150,1,91,8|0,0:0|0:0,0:0:0:0:
0,218,46884,5,2,0:0:0:0:
0,218,47042,1,2,0:0:0:0:
44,47,47200,2,0,L|50:92|56:137,1,91,8|0,0:0|0:0,0:0:0:0:
128,284,47516,1,2,0:0:0:0:
170,118,47674,1,2,0:0:0:0:
128,284,47832,2,0,L|122:239|114:193,1,91,8|0,0:0|0:0,0:0:0:0:
303,220,48148,6,0,L|258:226|213:233,1,91,2|2,0:0|0:0,0:0:0:0:
351,127,48463,2,0,L|306:133|261:140,1,91,8|0,0:0|0:0,0:0:0:0:
432,174,48779,2,0,P|445:130|434:86,1,91,2|8,0:0|0:0,0:0:0:0:
431,82,49016,1,8,0:0:0:0:
427,78,49095,1,8,0:0:0:0:
368,260,49253,1,8,0:0:0:0:
371,263,49332,1,8,0:0:0:0:
374,266,49411,6,0,L|422:261|466:257,1,91,4|0,0:0|0:0,0:0:0:0:
288,184,49726,1,8,0:0:0:0:
374,348,49884,1,2,0:0:0:0:
461,179,50042,1,8,0:0:0:0:
285,266,50200,1,2,0:0:0:0:
457,349,50358,1,8,0:0:0:0:
427,150,50516,1,2,0:0:0:0:
427,150,50595,1,2,0:0:0:0:
427,150,50674,5,8,0:0:0:0:
409,267,50832,1,8,0:0:0:0:
310,87,51148,5,8,0:0:0:0:
323,220,51305,1,8,0:0:0:0:
187,70,51621,5,8,0:0:0:0:
217,220,51779,1,8,0:0:0:0:
56,76,52016,5,8,0:0:0:0:
56,76,52095,1,0,0:0:0:0:
110,241,52253,1,0,0:0:0:0:
306,124,52490,5,8,0:0:0:0:
296,123,52569,2,0,L|165:109,1,118.299994584656,8|2,0:0|0:0,0:0:0:0:
5,208,52884,2,0,L|141:192,1,118.299994584656,8|0,0:0|0:0,0:0:0:0:
321,289,53200,6,0,P|266:261|199:301,1,136.5,4|0,0:0|0:0,0:0:0:0:
200,304,53516,1,8,0:0:0:0:
387,342,53674,2,0,P|404:296|393:245,1,91,0|2,0:0|0:0,0:0:0:0:
298,88,53990,2,0,P|290:132|304:175,1,91,2|8,0:0|0:0,0:0:0:0:
510,141,54305,6,0,P|464:136|371:126,1,136.5,4|0,0:0|0:0,0:0:0:0:
224,198,54621,2,0,P|282:191|318:187,1,91,2|8,0:0|0:0,0:0:0:0:
256,66,54937,2,0,P|210:60|165:55,1,91,0|2,0:0|0:0,0:0:0:0:
64,168,55253,2,0,P|122:161|158:157,1,91,2|8,0:0|0:0,0:0:0:0:
0,88,55569,1,8,0:0:0:0:
0,88,55648,1,8,0:0:0:0:
0,88,55726,5,2,0:0:0:0:
67,274,55884,1,2,0:0:0:0:
206,120,56042,1,8,0:0:0:0:
8,140,56200,1,0,0:0:0:0:
122,303,56358,5,2,0:0:0:0:
179,110,56516,1,2,0:0:0:0:
2,195,56674,1,8,0:0:0:0:
180,297,56832,1,0,0:0:0:0:
155,95,56990,5,2,0:0:0:0:
11,249,57148,2,0,P|59:242|104:236,1,91,2|8,0:0|0:0,0:0:0:0:
297,200,57463,2,0,P|251:193|206:187,1,91,0|2,0:0|0:0,0:0:0:0:
270,297,57779,1,2,0:0:0:0:
375,145,57937,2,0,L|381:190|387:235,1,91,8|0,0:0|0:0,0:0:0:0:
443,87,58253,5,2,0:0:0:0:
378,312,58411,1,2,0:0:0:0:
165,217,58726,6,0,L|171:285,1,45.5,8|0,0:0|0:0,0:0:0:0:
356,149,59042,6,0,L|350:217,1,45.5,8|0,0:0|0:0,0:0:0:0:
249,27,59358,6,0,B|241:79|264:113|264:113|246:162|246:162|277:206|259:277,1,236.599989169312,4|2,0:0|0:0,0:0:0:0:
86,361,59832,2,0,P|30:297|91:209,1,177.449991876984,8|8,0:0|0:0,0:0:0:0:
162,112,60148,2,0,P|157:168|152:227,1,91,2|2,0:0|0:0,0:0:0:0:
314,340,60463,2,0,P|258:335|199:330,1,91,8|0,0:0|0:0,0:0:0:0:
419,232,60779,6,0,L|357:241,1,45.5,4|0,0:0|0:0,0:0:0:0:
285,217,60937,1,8,0:0:0:0:
261,185,61016,1,8,0:0:0:0:
252,149,61095,1,8,0:0:0:0:
263,114,61174,1,8,0:0:0:0:
291,92,61253,6,0,L|342:100,1,45.5,4|0,0:0|0:0,0:0:0:0:
418,155,61411,1,8,0:0:0:0:
433,122,61490,1,8,0:0:0:0:
426,86,61569,6,0,L|329:99,1,91,4|2,0:3|0:0,0:0:0:0:
252,36,61805,1,2,0:0:0:0:
247,49,61884,2,0,L|263:205,1,136.5,4|0,0:0|0:0,0:0:0:0:
273,272,62200,5,2,0:0:0:0:
106,144,62358,2,0,P|67:195|107:264,1,136.5,8|8,0:0|0:0,0:0:0:0:
110,271,62674,1,2,0:0:0:0:
260,184,62832,5,8,0:0:0:0:
309,187,62911,1,8,0:0:0:0:
348,217,62990,1,8,0:0:0:0:
364,264,63069,1,8,0:0:0:0:
356,313,63148,1,8,0:0:0:0:
326,352,63226,1,8,0:0:0:0:
277,365,63305,6,0,L|173:355,1,91,4|2,0:0|0:0,0:0:0:0:
4,295,63621,2,0,L|108:285,1,91,8|0,0:0|0:0,0:0:0:0:
260,158,63937,1,8,0:0:0:0:
186,356,64095,1,2,0:0:0:0:
138,137,64253,1,8,0:0:0:0:
273,272,64411,1,2,0:0:0:0:
270,276,64490,1,2,0:0:0:0:
267,279,64569,6,0,L|166:267,1,91,8|2,0:0|0:0,0:0:0:0:
350,147,64884,2,0,L|249:159,1,91,8|2,0:0|0:0,0:0:0:0:
433,258,65200,1,8,0:0:0:0:
377,61,65358,1,2,0:0:0:0:
330,279,65516,1,8,0:0:0:0:
480,161,65674,1,2,0:0:0:0:
480,161,65753,1,2,0:0:0:0:
480,161,65832,6,0,P|475:217|470:277,1,91,8|2,0:0|0:0,0:0:0:0:
282,185,66148,1,8,0:0:0:0:
337,366,66305,1,2,0:0:0:0:
383,176,66463,1,8,0:0:0:0:
251,338,66621,1,2,0:0:0:0:
92,199,66779,1,10,0:0:0:0:
132,204,66858,1,2,0:0:0:0:
172,209,66937,1,2,0:0:0:0:
212,215,67016,1,2,0:0:0:0:
252,221,67095,6,0,B|195:250|195:250|141:228|141:228|100:258|25:248,1,209.300003992081,2|2,0:0|0:0,0:0:0:0:
264,131,67569,2,0,B|321:160|321:160|375:138|375:138|416:169|491:158,1,209.300003992081,8|2,0:0|0:0,0:0:0:0:
176,12,68042,2,0,P|183:93|190:184,1,156.975002994061,8|0,0:0|0:0,0:0:0:0:
252,221,68358,5,2,0:0:0:0:
295,10,68516,1,8,0:0:0:0:
252,221,68674,1,2,0:0:0:0:
264,235,68990,6,0,L|365:223,1,91,8|2,0:0|0:0,0:0:0:0:
496,165,69305,2,0,L|395:153,1,91,0|8,0:0|0:0,0:0:0:0:
324,138,69542,1,8,0:0:0:0:
314,136,69621,5,4,0:0:0:0:
343,348,69779,1,8,0:0:0:0:
314,136,69937,2,0,L|303:246,1,91,2|2,0:3|0:0,0:0:0:0:
119,327,70253,2,0,L|277:307,1,136.5,8|8,0:0|0:0,0:0:0:0:
277,306,70569,1,2,0:0:0:0:
78,248,70726,1,8,0:0:0:0:
78,248,70805,1,8,0:0:0:0:
78,248,70884,1,4,0:0:0:0:
91,257,71200,6,0,P|86:295|79:360,1,91,2|2,0:3|0:0,0:0:0:0:
11,190,71516,2,0,P|6:152|-1:87,1,91,8|0,0:0|0:0,0:0:0:0:
0,67,71753,1,8,0:0:0:0:
5,69,71832,1,8,0:0:0:0:
10,71,71911,1,8,0:0:0:0:
15,73,71990,1,8,0:0:0:0:
20,75,72069,1,8,0:0:0:0:
25,77,72148,5,2,0:0:0:0:
56,74,72226,1,8,0:0:0:0:
87,71,72305,1,8,0:0:0:0:
118,68,72384,1,8,0:0:0:0:
149,65,72463,2,0,P|145:110|141:168,1,91,8|2,0:0|0:0,0:0:0:0:
221,335,72779,2,0,P|234:290|221:247,1,91,8|0,0:0|0:0,0:0:0:0:
292,68,73095,2,0,P|279:113|292:156,1,91,8|0,0:0|0:0,0:0:0:0:
354,208,73332,1,8,0:0:0:0:
362,212,73411,5,4,0:0:0:0:
338,5,73569,1,8,0:0:0:0:
362,212,73726,2,0,P|407:225|450:212,1,91,2|2,0:0|0:0,0:0:0:0:
291,154,74042,1,8,0:0:0:0:
448,212,74200,2,0,P|357:222|243:234,1,182,2|2,0:0|0:0,0:0:0:0:
83,149,74674,5,2,0:0:0:0:
146,340,74832,2,0,P|150:295|155:246,1,91,8|0,0:0|0:0,0:0:0:0:
193,65,75148,1,2,0:0:0:0:
193,65,75226,1,2,0:0:0:0:
193,65,75305,2,0,P|213:108|200:160,1,91,8|2,0:0|0:0,0:0:0:0:
13,205,75621,2,0,P|71:200|110:197,1,91,8|0,0:0|0:0,0:0:0:0:
183,221,75858,1,2,0:0:0:0:
192,224,75937,1,2,0:0:0:0:
13,205,76253,5,0,0:0:0:0:
192,224,76411,2,0,P|240:184|193:78,1,182,8|2,0:0|0:0,0:0:0:0:
104,258,76884,2,0,P|109:312|112:358,1,91,8|2,0:0|0:0,0:0:0:0:
170,150,77200,2,0,P|132:129|76:143,1,91,8|2,0:0|0:0,0:0:0:0:
270,231,77516,6,0,P|329:225|371:221,1,91,2|8,0:0|0:0,0:0:0:0:
500,327,77832,2,0,P|441:321|399:317,1,91,0|2,0:0|0:0,0:0:0:0:
324,146,78148,2,0,P|383:140|425:136,1,91,8|0,0:0|0:0,0:0:0:0:
295,325,78463,2,0,P|236:319|194:315,1,91,8|0,0:0|0:0,0:0:0:0:
78,149,78779,6,0,L|84:204,1,45.5,8|8,0:0|0:0,0:0:0:0:
111,270,78937,2,0,B|121:121|121:121|86:142,1,182,8|8,0:0|0:0,0:0:0:0:
47,338,79411,1,8,0:0:0:0:
82,357,79490,1,8,0:0:0:0:
122,361,79569,1,8,0:0:0:0:
160,347,79648,1,8,0:0:0:0:
188,317,79726,6,0,L|196:214,1,91,4|0,0:0|0:0,0:0:0:0:
195,226,80042,1,2,0:0:0:0:
328,150,80200,6,0,L|225:142,1,91,12|2,0:0|0:0,0:0:0:0:
237,142,80516,1,2,0:0:0:0:
176,18,80674,5,12,0:0:0:0:
237,142,80832,1,2,0:0:0:0:
317,28,80990,1,2,0:0:0:0:
111,98,81148,5,12,0:0:0:0:
268,222,81305,1,2,0:0:0:0:
317,28,81463,1,2,0:0:0:0:
136,167,81621,6,0,P|190:161|252:157,1,91,12|2,0:0|0:0,0:0:0:0:
407,36,81937,2,0,P|352:30|291:26,1,91,12|2,0:0|0:0,0:0:0:0:
469,187,82253,6,0,P|485:148|464:91,1,91,12|2,0:0|0:0,0:0:0:0:
473,102,82569,1,2,0:0:0:0:
396,294,82726,6,0,P|390:249|383:193,1,91,12|2,0:0|0:0,0:0:0:0:
384,203,83042,1,2,0:0:0:0:
490,365,83200,5,12,0:0:0:0:
297,306,83358,1,2,0:0:0:0:
444,167,83516,1,2,0:0:0:0:
361,376,83674,5,12,0:0:0:0:
211,204,83832,1,2,0:0:0:0:
435,155,83990,1,2,0:0:0:0:
217,303,84148,6,0,B|270:273|323:277|350:334|403:335|468:287,1,238.875009112358,12|0,0:0|0:0,0:0:0:0:
385,217,84779,5,4,0:0:0:0:
385,217,86042,5,8,0:0:0:0:
338,15,86200,1,8,0:0:0:0:
385,217,86358,1,8,0:0:0:0:
338,15,86516,1,8,0:0:0:0:
512,126,86674,5,8,0:0:0:0:
289,179,86832,1,8,0:0:0:0:
289,179,87305,6,0,P|273:144|290:87,1,77.3500014753342
413,185,87779,6,0,P|348:143|279:208,1,154.700002950668
224,263,88253,2,0,L|220:229,3,25.7833338251114
293,334,88569,6,0,B|330:342|330:342|361:323|361:323|394:346|437:338,1,136.500005207062
