osu file format v14

[General]
AudioFilename: audio.mp3
AudioLeadIn: 0
PreviewTime: 52884
Countdown: 0
SampleSet: Soft
StackLeniency: 0.7
Mode: 0
LetterboxInBreaks: 0
WidescreenStoryboard: 0

[Editor]
DistanceSpacing: 1.2
BeatDivisor: 4
GridSize: 4
TimelineZoom: 1.6

[Metadata]
Title:Redo
TitleUnicode:Redo
Artist:Suzuki Konomi
ArtistUnicode:鈴木このみ
Creator:Neoskylove
Version:Insane
Source:Re:ゼロから始める異世界生活
Tags:Re: Zero kara Hajimeru Isekai Seikatsu op opening tv size Karia walaowey ProEzreal tasuke912
BeatmapID:1155425
BeatmapSetID:545351

[Difficulty]
HPDrainRate:6
CircleSize:4
OverallDifficulty:8.3
ApproachRate:8.5
SliderMultiplier:1.6
SliderTickRate:1

[Events]
//Background and Video events
0,0,"BG.jpg",0,0
Video,-752,"video.avi"
//Break Periods
//Storyboard Layer 0 (Background)
//Storyboard Layer 1 (Fail)
//Storyboard Layer 2 (Pass)
//Storyboard Layer 3 (Foreground)
//Storyboard Sound Samples

[TimingPoints]
148,315.789473684211,4,2,51,40,1,0
148,-153.846153846153,4,2,51,40,0,0
5200,-125,4,2,51,50,0,0
10253,-117.647058823529,4,2,51,50,0,0
24384,-117.647058823529,4,2,51,5,0,0
24463,-117.647058823529,4,2,51,50,0,0
30463,-166.666666666667,4,2,51,45,0,0
35042,-100,4,2,51,45,0,0
35200,-100,4,2,51,50,0,0
35516,-100,4,2,51,60,0,0
40569,-166.666666666667,4,2,51,50,0,0
44358,-166.666666666667,4,2,51,40,0,0
45621,-100,4,2,51,60,0,0
53200,-100,4,2,51,70,0,1
53516,-100,4,2,51,70,0,1
54621,-100,4,2,51,70,0,1
59042,-100,4,2,51,70,0,1
59358,-100,4,2,51,70,0,1
60937,-100,4,2,51,70,0,1
61411,-100,4,2,51,70,0,1
62200,-100,4,2,51,70,0,1
62990,-100,4,2,51,70,0,0
63305,-100,4,2,51,70,0,1
68358,-100,4,2,51,70,0,1
79726,-100,4,2,51,70,0,0
84779,-100,4,2,51,70,0,0
87305,-100,4,2,51,40,0,0
88569,-100,4,2,51,25,0,0
88648,-100,4,2,51,5,0,0

[Colours]
Combo1 : 255,159,236
Combo2 : 140,241,255
Combo3 : 145,175,255
Combo4 : 191,153,255

[HitObjects]
181,72,148,5,0,0:0:0:0:
148,170,305,1,0,0:0:0:0:
153,185,621,2,0,P|204:179|256:179,1,103.999995239258,0|0,0:0|0:0,0:0:0:0:
240,311,1095,2,0,P|234:285|236:260,1,51.999997619629,0|0,0:0|0:0,0:0:0:0:
316,236,1411,5,0,0:0:0:0:
412,276,1569,1,0,0:0:0:0:
413,260,1884,2,0,P|406:208|410:156,1,103.999995239258,0|0,0:0|0:0,0:0:0:0:
497,79,2358,2,0,L|446:81,1,51.999997619629,0|0,0:0|0:0,0:0:0:0:
380,29,2674,5,0,0:0:0:0:
283,66,2832,1,0,0:0:0:0:
270,58,3148,2,0,P|271:109|265:161,1,103.999995239258,0|0,0:0|0:0,0:0:0:0:
210,237,3621,2,0,P|236:237|262:244,1,51.999997619629,0|0,0:0|0:0,0:0:0:0:
328,295,3937,5,0,0:0:0:0:
233,339,4095,1,0,0:0:0:0:
223,326,4411,2,0,P|172:319|120:318,1,103.999995239258,0|0,0:0|0:0,0:0:0:0:
39,367,4884,2,0,L|37:316,1,51.999997619629,0|0,0:0|0:0,0:0:0:0:
111,148,5200,5,2,0:0:0:0:
29,111,5358,2,0,L|25:174,1,64,0|2,0:0|0:0,0:0:0:0:
148,66,5674,1,0,0:0:0:0:
174,152,5832,2,0,L|111:148,1,64,2|0,0:3|0:0,0:0:0:0:
169,242,6148,2,0,L|232:238,1,64,2|0,0:0|0:0,0:0:0:0:
371,215,6463,5,2,0:0:0:0:
451,174,6621,2,0,P|460:204|458:236,1,64,0|2,0:0|0:0,0:0:0:0:
330,136,6937,1,0,0:0:0:0:
308,222,7095,2,0,P|339:224|370:214,1,64,2|0,0:3|0:0,0:0:0:0:
352,50,7411,2,0,P|320:47|289:57,1,64,2|0,0:0|0:0,0:0:0:0:
178,156,7726,5,2,0:0:0:0:
266,144,7884,2,0,L|340:134,1,64,0|2,0:0|0:0,0:0:0:0:
212,74,8200,1,0,0:0:0:0:
178,156,8358,2,0,L|149:225,1,64,2|0,0:3|0:0,0:0:0:0:
212,74,8674,2,0,L|166:14,1,64,2|0,0:0|0:0,0:0:0:0:
153,215,8990,5,2,0:0:0:0:
63,225,9148,2,0,L|91:294,1,64,0|2,0:0|0:0,0:0:0:0:
87,145,9463,1,0,0:0:0:0:
177,155,9621,2,0,L|148:224,1,64,2|0,0:3|0:0,0:0:0:0:
62,85,9937,2,0,L|90:154,1,64,2|0,0:0|0:0,0:0:0:0:
258,135,10253,6,0,P|217:83|152:74,1,136.000002593994,2|2,0:0|0:0,0:0:0:0:
235,215,10726,1,0,0:0:0:0:
315,194,10884,2,0,L|382:193,1,68.0000012969971,2|0,0:3|0:0,0:0:0:0:
235,214,11200,2,0,P|227:247|237:279,1,68.0000012969971,2|0,0:0|0:0,0:0:0:0:
425,342,11516,6,0,P|358:332|291:340,1,136.000002593994,2|2,0:0|0:0,0:0:0:0:
209,356,11990,1,0,0:0:0:0:
170,228,12148,1,2,0:3:0:0:
126,354,12305,1,0,0:0:0:0:
236,278,12463,1,2,0:0:0:0:
102,276,12621,1,0,0:0:0:0:
236,277,12779,6,0,P|251:213|214:158,1,136.000002593994,2|2,0:0|0:0,0:0:0:0:
170,228,13253,1,0,0:0:0:0:
132,156,13411,2,0,L|64:160,1,68.0000012969971,2|0,0:3|0:0,0:0:0:0:
175,85,13726,2,0,L|242:80,1,68.0000012969971,2|0,0:0|0:0,0:0:0:0:
349,147,14042,6,0,L|213:157,1,136.000002593994,2|2,0:0|0:0,0:0:0:0:
170,228,14516,1,0,0:0:0:0:
236,277,14674,2,0,P|251:213|214:158,1,136.000002593994,2|2,0:3|0:0,0:0:0:0:
213,157,15305,6,0,L|280:152,1,68.0000012969971,2|0,0:0|0:0,0:0:0:0:
170,228,15621,2,0,L|103:233,1,68.0000012969971,2|0,0:0|0:0,0:0:0:0:
213,157,15937,1,2,0:3:0:0:
224,291,16095,1,0,0:0:0:0:
294,176,16253,1,2,0:0:0:0:
170,228,16411,1,0,0:0:0:0:
301,259,16569,6,0,L|368:256,1,68.0000012969971,2|0,0:0|0:0,0:0:0:0:
426,199,16884,1,2,0:0:0:0:
294,176,17042,1,0,0:0:0:0:
446,276,17200,2,0,P|476:262|497:236,1,68.0000012969971,2|0,0:3|0:0,0:0:0:0:
416,133,17516,2,0,P|413:166|425:198,1,68.0000012969971,2|0,0:0|0:0,0:0:0:0:
489,98,17832,6,0,P|440:55|374:62,1,136.000002593994,2|2,0:0|0:0,0:0:0:0:
334,133,18305,1,0,0:0:0:0:
293,63,18463,2,0,L|225:64,1,68.0000012969971,2|0,0:3|0:0,0:0:0:0:
334,133,18779,2,0,P|341:166|336:199,1,68.0000012969971,2|0,0:0|0:0,0:0:0:0:
193,269,19095,6,0,P|204:204|259:169,1,136.000002593994,2|2,0:0|0:0,0:0:0:0:
272,249,19569,1,0,0:0:0:0:
250,326,19726,2,0,P|222:346|189:350,1,68.0000012969971,2|0,0:3|0:0,0:0:0:0:
133,245,20042,2,0,P|166:249|193:268,1,68.0000012969971,2|0,0:0|0:0,0:0:0:0:
65,291,20358,6,0,P|52:227|91:173,1,136.000002593994,2|2,0:0|0:0,0:0:0:0:
174,172,20832,1,0,0:0:0:0:
132,100,20990,2,0,L|135:32,1,68.0000012969971,2|0,0:3|0:0,0:0:0:0:
216,100,21305,2,0,P|241:122|255:153,1,68.0000012969971,2|0,0:0|0:0,0:0:0:0:
181,304,21621,6,0,P|165:239|174:172,1,136.000002593994,2|2,0:0|0:0,0:0:0:0:
255,153,22095,1,0,0:0:0:0:
312,214,22253,2,0,L|380:214,1,68.0000012969971,2|0,0:3|0:0,0:0:0:0:
174,172,22569,1,2,0:0:0:0:
173,172,22884,6,0,P|165:239|181:304,1,136.000002593994,2|2,0:0|0:0,0:0:0:0:
256,339,23358,1,0,0:0:0:0:
331,304,23516,2,0,L|398:310,1,68.0000012969971,2|0,0:3|0:0,0:0:0:0:
181,304,23832,2,0,L|113:310,1,68.0000012969971,2|0,0:0|0:0,0:0:0:0:
42,233,24148,6,0,L|178:221,1,136.000002593994,2|2,0:0|0:0,0:0:0:0:
256,201,24621,1,0,0:0:0:0:
199,142,24779,2,0,P|190:109|198:76,1,68.0000012969971,2|0,0:3|0:0,0:0:0:0:
313,76,25095,2,0,P|321:109|313:142,1,68.0000012969971,2|0,0:0|0:0,0:0:0:0:
256,201,25411,5,2,0:0:0:0:
376,258,25569,1,0,0:0:0:0:
313,141,25726,1,2,0:0:0:0:
295,273,25884,1,0,0:0:0:0:
387,176,26042,2,0,L|454:174,1,68.0000012969971,2|0,0:3|0:0,0:0:0:0:
294,273,26358,2,0,P|261:280|228:278,1,68.0000012969971,2|0,0:0|0:0,0:0:0:0:
136,142,26674,5,2,0:0:0:0:
256,201,26832,1,0,0:0:0:0:
193,83,26990,1,2,0:0:0:0:
175,215,27148,1,0,0:0:0:0:
266,119,27305,2,0,P|273:85|268:52,1,68.0000012969971,2|0,0:3|0:0,0:0:0:0:
256,201,27621,2,0,P|289:197|319:182,1,68.0000012969971,2|0,0:0|0:0,0:0:0:0:
502,232,27937,6,0,P|435:224|371:245,1,136.000002593994,2|2,0:0|0:0,0:0:0:0:
308,297,28411,1,0,0:0:0:0:
388,309,28569,2,0,P|385:275|371:245,1,68.0000012969971,2|0,0:3|0:0,0:0:0:0:
227,284,28884,2,0,P|229:317|244:348,1,68.0000012969971,2|0,0:0|0:0,0:0:0:0:
278,221,29200,6,0,P|247:206|213:204,1,68.0000012969971,2|0,0:0|0:0,0:0:0:0:
180,331,29516,2,0,P|207:312|226:283,1,68.0000012969971,2|0,0:0|0:0,0:0:0:0:
133,192,29832,2,0,P|135:225|150:256,1,68.0000012969971,2|0,0:3|0:0,0:0:0:0:
183,128,30148,1,2,0:0:0:0:
183,128,30305,1,0,0:0:0:0:
213,204,30463,6,0,P|260:201|308:203,1,95.9999970703126,0|0,0:0|0:0,0:0:0:0:
390,126,30937,2,0,P|342:129|295:127,1,95.9999970703126,0|0,0:0|0:0,0:0:0:0:
238,74,31411,1,0,0:0:0:0:
183,128,31569,1,0,0:0:0:0:
162,53,31726,6,0,P|123:79|106:122,1,95.9999970703126,0|0,0:0|0:0,0:0:0:0:
174,223,32200,2,0,L|183:128,1,95.9999970703126,0|0,0:0|0:0,0:0:0:0:
238,74,32674,1,0,0:0:0:0:
238,74,32990,6,0,P|282:59|327:75,1,95.9999970703126,0|0,0:0|0:0,0:0:0:0:
356,146,33463,2,0,P|392:116|403:70,2,95.9999970703126,0|0|0,0:0|0:0|0:0,0:0:0:0:
281,137,34253,6,0,P|289:183|324:215,1,95.9999970703126,0|0,0:0|0:0,0:0:0:0:
400,209,34726,1,0,0:0:0:0:
400,209,35042,5,2,0:0:0:0:
238,74,35200,1,8,0:0:0:0:
238,74,35516,5,4,0:0:0:0:
145,101,35674,1,2,0:0:0:0:
214,247,35832,2,0,P|217:207|215:168,1,80,8|0,0:0|0:0,0:0:0:0:
76,60,36148,2,0,P|108:82|144:100,1,80,2|2,0:0|0:0,0:0:0:0:
307,34,36463,2,0,P|271:50|238:72,1,80,8|0,0:0|0:0,0:0:0:0:
214,247,36779,5,2,0:0:0:0:
123,280,36937,1,2,0:0:0:0:
214,247,37095,2,0,P|217:207|215:168,1,80,8|0,0:0|0:0,0:0:0:0:
123,280,37411,1,2,0:0:0:0:
197,341,37569,1,2,0:0:0:0:
293,248,37726,2,0,P|253:244|213:247,1,80,8|0,0:0|0:0,0:0:0:0:
123,280,38042,5,2,0:0:0:0:
139,186,38200,1,2,0:0:0:0:
29,141,38358,2,0,P|41:179|50:218,1,80,8|0,0:0|0:0,0:0:0:0:
216,206,38674,2,0,P|176:197|138:185,1,80,2|2,0:0|0:0,0:0:0:0:
66,336,38990,2,0,P|93:306|122:279,1,80,8|0,0:0|0:0,0:0:0:0:
293,226,39305,6,0,P|254:214|215:205,1,80,4|2,0:0|0:0,0:0:0:0:
295,335,39621,2,0,P|334:326|372:314,1,80,8|2,0:0|0:0,0:0:0:0:
210,286,39937,2,0,P|198:324|189:363,1,80,8|2,0:0|0:0,0:0:0:0:
191,183,40253,1,8,0:0:0:0:
348,126,40411,1,8,0:0:0:0:
348,126,40490,1,8,0:0:0:0:
348,125,40569,6,0,P|395:119|443:123,1,95.9999970703126,0|0,0:0|0:0,0:0:0:0:
496,179,41042,2,0,L|495:274,1,95.9999970703126,0|0,0:0|0:0,0:0:0:0:
441,330,41516,1,0,0:0:0:0:
441,330,41674,1,0,0:0:0:0:
393,269,41832,6,0,L|345:272,1,47.9999985351563,0|0,0:0|0:0,0:0:0:0:
297,333,42148,2,0,L|249:329,1,47.9999985351563,0|0,0:0|0:0,0:0:0:0:
153,272,42463,1,0,0:0:0:0:
177,270,42779,1,0,0:0:0:0:
201,269,43095,6,0,L|191:173,1,95.9999970703126,0|0,0:0|0:0,0:0:0:0:
314,80,43726,2,0,L|323:175,1,95.9999970703126,0|0,0:0|0:0,0:0:0:0:
343,327,44358,5,0,0:0:0:0:
115,229,44674,1,0,0:0:0:0:
314,80,44990,1,0,0:0:0:0:
314,80,45621,5,4,0:0:0:0:
253,154,45779,1,2,0:0:0:0:
139,72,45937,2,0,L|219:64,1,80,8|0,0:0|0:0,0:0:0:0:
299,218,46253,2,0,L|252:153,1,80,2|2,0:0|0:0,0:0:0:0:
346,6,46569,2,0,L|313:79,1,80,8|0,0:0|0:0,0:0:0:0:
252,153,46884,5,2,0:0:0:0:
218,64,47042,1,2,0:0:0:0:
252,153,47201,2,0,L|299:218,1,80,8|0,0:0|0:0,0:0:0:0:
231,381,47516,2,0,L|264:308,1,80,2|2,0:0|0:0,0:0:0:0:
440,286,47832,2,0,L|360:294,1,80,8|0,0:0|0:0,0:0:0:0:
201,231,48148,5,2,0:0:0:0:
263,308,48305,1,2,0:0:0:0:
378,209,48463,2,0,L|298:217,1,80,8|0,0:0|0:0,0:0:0:0:
165,323,48779,1,2,0:0:0:0:
140,155,48937,2,0,L|135:113,2,40,8|8|8,0:0|0:0|0:0,0:0:0:0:
298,217,49253,1,8,0:0:0:0:
298,217,49332,1,8,0:0:0:0:
298,217,49411,6,0,L|378:209,1,80,4|0,0:0|0:0,0:0:0:0:
245,62,49726,2,0,L|237:142,1,80,8|2,0:0|0:0,0:0:0:0:
261,306,50042,1,8,0:0:0:0:
107,243,50200,1,2,0:0:0:0:
238,142,50358,1,8,0:0:0:0:
238,142,50674,5,8,0:0:0:0:
357,294,50832,1,8,0:0:0:0:
357,294,51148,5,8,0:0:0:0:
107,243,51305,1,8,0:0:0:0:
107,243,51621,5,8,0:0:0:0:
377,209,51778,1,8,0:0:0:0:
291,165,51937,6,0,L|251:170,2,40,0|8|0,0:0|0:0|0:0,0:0:0:0:
333,78,52253,1,0,0:0:0:0:
377,209,52411,2,0,L|416:214,2,40,0|8|8,0:0|0:0|0:0,0:0:0:0:
202,308,52884,6,0,L|182:304,7,20,8|0|0|0|0|0|0|0,0:0|0:0|0:0|0:0|0:0|0:0|0:0|0:0,0:0:0:0:
160,314,53200,6,0,L|152:224,1,80,4|0,0:0|0:0,0:0:0:0:
197,148,53516,1,8,0:0:0:0:
326,235,53674,2,0,P|286:240|248:229,1,80,0|2,0:0|0:0,0:0:0:0:
119,142,53990,2,0,P|158:137|196:147,1,80,2|8,0:0|0:0,0:0:0:0:
328,314,54305,6,0,L|325:234,1,80,4|0,0:0|0:0,0:0:0:0:
344,139,54621,1,2,0:0:0:0:
197,282,54779,1,8,0:0:0:0:
264,148,54937,2,0,L|343:138,1,80,0|2,0:0|0:0,0:0:0:0:
141,204,55253,2,0,L|62:195,1,80,2|8,0:0|0:0,0:0:0:0:
325,234,55569,1,8,0:0:0:0:
325,234,55648,1,8,0:0:0:0:
325,234,55726,5,2,0:0:0:0:
197,282,55884,1,2,0:0:0:0:
237,194,56042,1,8,0:0:0:0:
285,322,56200,1,0,0:0:0:0:
141,204,56358,1,2,0:0:0:0:
315,137,56516,1,2,0:0:0:0:
285,322,56674,1,8,0:0:0:0:
141,204,56832,1,0,0:0:0:0:
315,137,56990,5,2,0:0:0:0:
264,56,57148,2,0,L|343:45,1,80,2|8,0:0|0:0,0:0:0:0:
473,116,57463,2,0,L|314:136,1,160,0|2,0:0|0:0,0:0:0:0:
237,194,57937,1,8,0:0:0:0:
237,194,58253,5,2,0:0:0:0:
264,56,58411,1,2,0:0:0:0:
192,22,58726,1,8,0:0:0:0:
127,67,59042,1,8,0:0:0:0:
54,33,59358,6,0,P|45:112|60:190,1,160,4|2,0:0|0:0,0:0:0:0:
157,200,59832,2,0,L|236:193,1,80,8|0,0:0|0:0,0:0:0:0:
320,145,60148,1,2,0:0:0:0:
235,289,60305,1,2,0:0:0:0:
402,291,60463,1,8,0:0:0:0:
402,291,60779,5,4,0:0:0:0:
320,145,60937,1,8,0:0:0:0:
317,164,61015,1,8,0:0:0:0:
313,184,61094,1,8,0:0:0:0:
200,113,61253,2,0,L|216:191,1,80,4|8,0:0|0:0,0:0:0:0:
324,125,61569,2,0,L|332:85,2,40,4|0|2,0:3|0:0|0:0,0:0:0:0:
135,41,61884,5,4,0:0:0:0:
135,41,62200,1,2,0:0:0:0:
57,177,62358,1,8,0:0:0:0:
200,113,62516,1,0,0:0:0:0:
47,81,62674,1,2,0:0:0:0:
69,273,62832,1,8,0:0:0:0:
89,269,62910,1,8,0:0:0:0:
107,260,62989,1,8,0:0:0:0:
123,248,63068,1,8,0:0:0:0:
136,233,63147,1,8,0:0:0:0:
146,216,63226,1,8,0:0:0:0:
152,197,63305,6,0,L|178:272,1,80,4|2,0:0|0:0,0:0:0:0:
262,224,63621,1,8,0:0:0:0:
209,380,63779,2,0,L|260:318,1,80,0|8,0:0|0:0,0:0:0:0:
340,238,64095,2,0,L|261:223,1,80,2|8,0:0|0:0,0:0:0:0:
152,197,64411,1,2,0:0:0:0:
152,197,64490,1,2,0:0:0:0:
152,197,64569,6,0,L|73:211,1,80,8|2,0:0|0:0,0:0:0:0:
230,140,64884,1,8,0:0:0:0:
136,120,65042,2,0,P|136:160|151:196,1,80,2|8,0:0|0:0,0:0:0:0:
323,159,65358,2,0,P|322:119|307:82,1,80,2|8,0:0|0:0,0:0:0:0:
260,230,65674,1,2,0:0:0:0:
260,230,65753,1,2,0:0:0:0:
260,230,65832,5,8,0:0:0:0:
230,140,65990,1,2,0:0:0:0:
322,159,66148,1,8,0:0:0:0:
260,230,66306,1,2,0:0:0:0:
230,140,66463,1,8,0:0:0:0:
352,79,66621,1,2,0:0:0:0:
352,79,66700,1,0,0:0:0:0:
352,79,66779,2,0,P|352:98|348:118,3,40,10|2|2|2,0:0|0:0|0:0|0:0,0:0:0:0:
322,159,67095,6,0,L|399:177,1,80,2|0,0:0|0:0,0:0:0:0:
260,230,67411,1,2,0:0:0:0:
229,140,67569,2,0,L|206:63,1,80,8|0,0:0|0:0,0:0:0:0:
322,159,67884,1,2,0:0:0:0:
260,230,68042,2,0,L|204:287,1,80,8|0,0:0|0:0,0:0:0:0:
119,241,68358,5,2,0:0:0:0:
121,336,68516,1,8,0:0:0:0:
118,241,68674,2,0,P|49:274|27:349,1,160,2|8,0:0|0:0,0:0:0:0:
203,287,69148,1,2,0:0:0:0:
203,287,69463,1,8,0:0:0:0:
217,272,69541,1,8,0:0:0:0:
231,258,69621,6,0,L|310:269,1,80,4|8,0:0|0:0,0:0:0:0:
203,165,69937,2,0,L|123:176,1,80,2|2,0:3|0:0,0:0:0:0:
297,185,70253,2,0,P|302:125|282:69,1,120,8|8,0:0|0:0,0:0:0:0:
271,53,70569,1,2,0:0:0:0:
116,136,70726,1,8,0:0:0:0:
120,156,70804,1,8,0:0:0:0:
123,176,70884,5,4,0:0:0:0:
123,176,71200,2,0,L|203:165,1,80,2|2,0:3|0:0,0:0:0:0:
33,283,71516,2,0,L|113:272,1,80,8|0,0:0|0:0,0:0:0:0:
119,291,71753,1,8,0:0:0:0:
125,309,71832,2,0,L|119:348,2,40,8|8|8,0:0|0:0|0:0,0:0:0:0:
257,269,72148,5,2,0:0:0:0:
257,269,72226,1,8,0:0:0:0:
257,269,72305,2,0,L|263:308,2,40,8|8|8,0:0|0:0|0:0,0:0:0:0:
380,214,72621,1,2,0:0:0:0:
420,301,72779,2,0,L|499:290,1,80,8|0,0:0|0:0,0:0:0:0:
364,189,73095,2,0,L|443:178,1,80,8|0,0:0|0:0,0:0:0:0:
236,75,73411,6,0,L|156:80,1,80,4|8,0:0|0:0,0:0:0:0:
42,175,73726,2,0,L|201:164,1,160,2|8,0:0|0:0,0:0:0:0:
297,149,74200,1,2,0:0:0:0:
297,149,74516,1,2,0:0:0:0:
313,137,74594,1,0,0:0:0:0:
329,125,74674,6,0,L|323:204,1,80,2|8,0:0|0:0,0:0:0:0:
282,292,74990,1,0,0:0:0:0:
378,283,75148,1,2,0:0:0:0:
378,283,75226,1,2,0:0:0:0:
378,283,75305,1,8,0:0:0:0:
230,134,75621,1,8,0:0:0:0:
170,209,75779,1,0,0:0:0:0:
135,118,75937,6,0,P|150:82|177:53,1,80,2|0,0:0|0:0,0:0:0:0:
230,134,76253,1,0,0:0:0:0:
170,209,76411,2,0,P|130:214|92:204,1,80,8|0,0:0|0:0,0:0:0:0:
135,119,76727,1,2,0:0:0:0:
230,134,76884,2,0,P|254:165|265:203,1,80,8|2,0:0|0:0,0:0:0:0:
170,209,77200,5,8,0:0:0:0:
170,209,77358,1,2,0:0:0:0:
223,289,77516,1,2,0:0:0:0:
361,198,77674,1,8,0:0:0:0:
361,198,77832,1,0,0:0:0:0:
265,203,77990,1,2,0:0:0:0:
318,284,78148,1,8,0:0:0:0:
318,284,78463,6,0,L|397:286,1,80,8|0,0:0|0:0,0:0:0:0:
223,289,78779,1,8,0:0:0:0:
223,289,78858,1,8,0:0:0:0:
222,289,78937,2,0,B|106:288|106:288|135:256,1,160,8|8,0:0|0:0,0:0:0:0:
263,205,79411,1,8,0:0:0:0:
266,175,79489,1,8,0:0:0:0:
270,145,79568,1,8,0:0:0:0:
274,115,79647,1,8,0:0:0:0:
278,86,79726,5,4,0:0:0:0:
186,113,79884,1,0,0:0:0:0:
208,19,80042,1,2,0:0:0:0:
278,86,80200,2,0,L|358:89,2,80,12|2|2,0:0|0:0|0:0,0:0:0:0:
94,140,80674,5,12,0:0:0:0:
164,207,80832,1,2,0:0:0:0:
186,113,80990,1,2,0:0:0:0:
94,140,81148,2,0,L|14:136,2,80,12|2|2,0:0|0:0|0:0,0:0:0:0:
186,113,81621,5,12,0:0:0:0:
329,241,81937,1,12,0:0:0:0:
146,300,82253,5,12,0:0:0:0:
189,214,82411,1,2,0:0:0:0:
241,294,82569,1,2,0:0:0:0:
146,300,82726,2,0,L|66:312,2,80,12|2|2,0:0|0:0|0:0,0:0:0:0:
284,220,83200,5,12,0:0:0:0:
241,134,83358,1,2,0:0:0:0:
189,214,83516,1,2,0:0:0:0:
284,220,83674,2,0,L|363:232,2,80,12|2|2,0:0|0:0|0:0,0:0:0:0:
145,128,84148,5,12,0:0:0:0:
390,328,84779,5,4,0:0:0:0:
390,328,86042,6,0,P|350:324|312:311,1,80,8|8,0:0|0:0,0:0:0:0:
471,274,86358,2,0,P|483:312|487:351,1,80,8|8,0:0|0:0,0:0:0:0:
293,279,86674,1,8,0:0:0:0:
417,145,86832,1,8,0:0:0:0:
417,145,87305,5,0,0:0:0:0:
329,106,87463,2,0,L|252:126,1,80,0|0,0:0|0:0,0:0:0:0:
87,145,87779,1,0,0:0:0:0:
174,106,87937,2,0,L|251:125,1,80,0|0,0:0|0:0,0:0:0:0:
256,222,88253,2,0,L|256:248,3,26.6666666666667,0|0|0|0,0:0|0:0|0:0|0:0,0:0:0:0:
256,345,88569,5,0,0:0:0:0:
