osu file format v14

[General]
AudioFilename: audio.mp3
AudioLeadIn: 0
PreviewTime: 52884
Countdown: 0
SampleSet: Soft
StackLeniency: 0.7
Mode: 0
LetterboxInBreaks: 0
WidescreenStoryboard: 0

[Editor]
DistanceSpacing: 1.3
BeatDivisor: 4
GridSize: 4
TimelineZoom: 1.3

[Metadata]
Title:Redo
TitleUnicode:Redo
Artist:Suzuki Konomi
ArtistUnicode:鈴木このみ
Creator:Neoskylove
Version:Ezreal's Hard
Source:Re:ゼロから始める異世界生活
Tags:Re: Zero kara Hajimeru Isekai Seikatsu op opening tv size Karia walaowey ProEzreal tasuke912
BeatmapID:1161044
BeatmapSetID:545351

[Difficulty]
HPDrainRate:6
CircleSize:4
OverallDifficulty:6
ApproachRate:7.5
SliderMultiplier:1.4
SliderTickRate:1

[Events]
//Background and Video events
0,0,"BG.jpg",0,0
Video,-752,"video.avi"
//Break Periods
//Storyboard Layer 0 (Background)
//Storyboard Layer 1 (Fail)
//Storyboard Layer 2 (Pass)
//Storyboard Layer 3 (Foreground)
//Storyboard Sound Samples

[TimingPoints]
148,315.789473684211,4,2,51,40,1,0
30463,-125,4,2,51,45,0,0
35200,-125,4,2,51,50,0,0
35437,-125,4,2,51,5,0,0
35516,-100,4,2,51,60,0,0
40569,-125,4,2,51,50,0,0
42069,-125,4,2,51,5,0,0
42226,-125,4,2,51,50,0,0
45621,-100,4,2,51,60,0,0
53200,-86.9565217391304,4,2,51,70,0,1
53437,-86.9565217391304,4,2,51,5,0,1
53516,-86.9565217391304,4,2,51,70,0,1
54542,-86.9565217391304,4,2,51,5,0,1
54621,-86.9565217391304,4,2,51,70,0,1
58805,-86.9565217391304,4,2,51,5,0,1
59042,-86.9565217391304,4,2,51,70,0,1
59358,-86.9565217391304,4,2,51,70,0,1
60858,-86.9565217391304,4,2,51,5,0,1
60937,-86.9565217391304,4,2,51,70,0,1
61411,-86.9565217391304,4,2,51,70,0,1
62121,-86.9565217391304,4,2,51,5,0,1
62200,-86.9565217391304,4,2,51,70,0,1
62674,-86.9565217391304,4,2,51,70,0,0
63305,-86.9565217391304,4,2,51,70,0,1
68279,-86.9565217391304,4,2,51,5,0,1
68358,-86.9565217391304,4,2,51,70,0,1
84700,-86.9565217391304,4,2,51,5,0,1
84779,-125,4,2,51,70,0,0
86042,-100,4,2,51,70,0,0
87305,-100,4,2,51,40,0,0
88569,-142.857142857143,4,2,51,19,0,0
88884,-142.857142857143,4,2,51,16,0,0

[Colours]
Combo1 : 255,159,236
Combo2 : 140,241,255
Combo3 : 145,175,255
Combo4 : 191,153,255

[HitObjects]
403,63,148,6,0,B|394:100|394:100|407:151,1,70
403,132,621,2,0,L|256:144,1,140,0|0,0:0|0:0,0:0:0:0:
192,96,1095,1,0,0:0:0:0:
192,96,1253,1,0,0:0:0:0:
140,162,1411,6,0,B|146:202|146:202|136:250,1,70
140,230,1884,2,0,L|287:242,1,140
344,186,2358,1,0,0:0:0:0:
344,186,2516,1,0,0:0:0:0:
388,264,2674,6,0,B|380:300|380:300|392:352,1,70
387,332,3147,2,0,L|240:344,1,140
176,300,3621,1,0,0:0:0:0:
176,300,3779,1,0,0:0:0:0:
100,336,3937,6,0,B|86:299|86:299|100:248,1,70
94,269,4411,2,0,L|114:127,1,140
168,68,4884,1,0,0:0:0:0:
168,68,5042,1,0,0:0:0:0:
241,109,5200,6,0,L|321:117,1,70,2|0,0:0|0:0,0:0:0:0:
468,48,5674,1,0,0:0:0:0:
468,48,5832,2,0,L|468:132,1,70,2|0,0:3|0:0,0:0:0:0:
428,192,6148,2,0,L|428:276,1,70,2|0,0:0|0:0,0:0:0:0:
468,336,6463,6,0,P|416:344|372:332,1,70,2|0,0:0|0:0,0:0:0:0:
240,280,6937,1,0,0:0:0:0:
240,280,7095,2,0,L|240:360,1,70,2|0,0:3|0:0,0:0:0:0:
320,324,7411,2,0,L|320:244,1,70,2|0,0:0|0:0,0:0:0:0:
360,180,7726,6,0,P|320:172|276:180,1,70,2|0,0:0|0:0,0:0:0:0:
148,84,8200,1,0,0:0:0:0:
148,84,8358,2,0,L|148:154,1,70,2|0,0:3|0:0,0:0:0:0:
92,216,8674,2,0,L|92:286,1,70,2|0,0:0|0:0,0:0:0:0:
52,360,8990,6,0,P|108:368|140:356,1,70,2|0,0:0|0:0,0:0:0:0:
284,324,9463,1,0,0:0:0:0:
284,324,9621,2,0,L|372:336,1,70,2|0,0:3|0:0,0:0:0:0:
424,380,9937,2,0,P|440:328|428:296,1,70,2|0,0:0|0:0,0:0:0:0:
372,252,10253,6,0,P|348:192|392:116,1,140,2|2,0:0|0:0,0:0:0:0:
508,20,10884,2,0,L|348:28,1,140,2|2,0:3|0:0,0:0:0:0:
204,72,11516,2,0,L|52:64,1,140,2|2,0:0|0:0,0:0:0:0:
28,228,12148,2,0,L|36:312,1,70,2|0,0:3|0:0,0:0:0:0:
44,380,12463,2,0,P|96:364|140:368,1,70,2|0,0:0|0:0,0:0:0:0:
188,332,12779,6,0,P|260:356|344:336,1,140,2|2,0:0|0:0,0:0:0:0:
468,264,13411,2,0,B|480:160|480:160|460:120,1,140,2|2,0:3|0:0,0:0:0:0:
316,48,14042,2,0,B|304:152|304:152|324:192,1,140,2|2,0:0|0:0,0:0:0:0:
364,256,14516,1,0,0:0:0:0:
364,256,14674,2,0,L|272:264,1,70,2|0,0:3|0:0,0:0:0:0:
212,288,14990,2,0,L|124:280,1,70,2|0,0:0|0:0,0:0:0:0:
68,244,15305,5,2,0:0:0:0:
76,328,15463,1,0,0:0:0:0:
142,281,15621,2,0,P|152:248|138:197,1,70,2|0,0:0|0:0,0:0:0:0:
78,163,15937,2,0,P|57:97|91:29,1,140,2|2,0:3|0:0,0:0:0:0:
167,17,16411,1,0,0:0:0:0:
243,53,16569,6,0,L|331:49,1,70,2|0,0:0|0:0,0:0:0:0:
387,13,16884,1,2,0:0:0:0:
387,13,17042,1,0,0:0:0:0:
451,65,17200,2,0,L|443:233,1,140,2|2,0:3|0:0,0:0:0:0:
492,364,17832,6,0,P|424:344|336:360,1,140,2|2,0:0|0:0,0:0:0:0:
188,364,18463,2,0,P|124:376|40:356,1,140,2|2,0:3|0:0,0:0:0:0:
32,280,18937,1,0,0:0:0:0:
32,280,19095,2,0,L|60:120,1,140,2|2,0:0|0:0,0:0:0:0:
200,55,19726,2,0,B|232:70|232:70|272:59,1,70,2|0,0:3|0:0,0:0:0:0:
349,51,20042,2,0,B|383:44|383:44|419:65,1,70,2|0,0:3|0:0,0:0:0:0:
488,104,20358,6,0,L|476:260,1,140,2|2,0:0|0:0,0:0:0:0:
364,368,20990,2,0,B|380:292|380:292|356:216,1,140,2|2,0:3|0:0,0:0:0:0:
240,116,21621,2,0,P|296:140|388:112,1,140,2|2,0:0|0:0,0:0:0:0:
248,16,22253,1,2,0:3:0:0:
168,44,22411,1,0,0:0:0:0:
88,72,22569,1,2,0:0:0:0:
36,232,22884,6,0,P|104:244|188:208,1,140,2|2,0:0|0:0,0:0:0:0:
300,116,23516,2,0,B|288:288,1,140,2|2,0:3|0:0,0:0:0:0:
212,292,23990,1,0,0:0:0:0:
212,292,24148,2,0,P|272:336|360:308,1,140,2|2,0:0|0:0,0:0:0:0:
472,232,24779,2,0,L|480:152,1,70,2|0,0:3|0:0,0:0:0:0:
400,136,25095,2,0,L|392:216,1,70,2|0,0:0|0:0,0:0:0:0:
323,258,25411,5,2,0:0:0:0:
323,258,25569,2,0,L|335:338,2,70,0|2|0,0:0|0:0|0:0,0:0:0:0:
304,176,26042,2,0,P|224:160|148:188,1,140,2|2,0:3|0:0,0:0:0:0:
96,220,26516,1,0,0:0:0:0:
96,220,26674,2,0,P|88:176|100:132,1,70,2|0,0:0|0:0,0:0:0:0:
165,106,26990,2,0,P|173:150|161:194,1,70,2|0,0:0|0:0,0:0:0:0:
88,76,27305,2,0,P|140:28|224:48,1,140,2|2,0:3|0:0,0:0:0:0:
324,152,27937,6,0,L|312:312,1,140,2|2,0:0|0:0,0:0:0:0:
464,216,28569,2,0,P|488:152|448:68,1,140,2|2,0:3|0:0,0:0:0:0:
304,44,29200,2,0,L|216:48,1,70,2|0,0:0|0:0,0:0:0:0:
151,27,29516,2,0,P|130:100|171:171,2,140,2|2|2,0:0|0:3|0:0,0:0:0:0:
232,171,30463,6,0,P|200:223|132:231,1,112,0|0,0:0|0:0,0:0:0:0:
98,283,30937,2,0,P|153:276|206:323,1,112
240,368,31411,2,0,P|268:336|297:321,1,56
338,287,31726,6,0,L|458:303,1,112
506,349,32200,2,0,P|479:277|487:230,1,112
498,172,32674,1,0,0:0:0:0:
390,73,32990,6,0,L|262:65,1,112
210,39,33463,2,0,B|226:99|226:99|218:163,1,112
205,220,33937,1,0,0:0:0:0:
141,255,34095,1,0,0:0:0:0:
72,231,34253,6,0,P|44:179|52:107,1,112
82,64,34726,2,0,L|214:52,1,112,0|2,0:0|0:0,0:0:0:0:
319,72,35200,1,8,0:0:0:0:
285,241,35516,6,0,L|193:229,1,70,4|2,0:0|0:0,0:0:0:0:
148,180,35832,1,8,0:0:0:0:
148,180,35990,1,0,0:0:0:0:
88,240,36148,2,0,L|96:320,2,70,2|2|8,0:0|0:0|0:0,0:0:0:0:
68,160,36621,6,0,P|108:108|192:112,1,140,0|2,0:0|0:0,0:0:0:0:
252,144,37095,1,8,0:0:0:0:
252,144,37253,1,0,0:0:0:0:
320,96,37411,2,0,P|380:88|416:96,1,70,2|2,0:0|0:0,0:0:0:0:
460,132,37726,2,0,L|472:228,1,70,8|0,0:0|0:0,0:0:0:0:
444,284,38042,5,2,0:0:0:0:
444,284,38200,1,2,0:0:0:0:
380,336,38358,2,0,L|304:332,1,70,8|0,0:0|0:0,0:0:0:0:
244,280,38674,2,0,P|176:316|96:304,1,140,2|8,0:0|0:0,0:0:0:0:
44,264,39148,1,0,0:0:0:0:
20,184,39305,6,0,L|16:100,1,70,4|2,0:0|0:0,0:0:0:0:
104,40,39621,2,0,L|108:120,1,70,8|2,0:0|0:0,0:0:0:0:
188,188,39937,1,8,0:0:0:0:
272,204,40095,1,2,0:0:0:0:
340,156,40253,1,8,0:0:0:0:
356,72,40411,1,8,0:0:0:0:
356,72,40490,1,8,0:0:0:0:
356,72,40569,6,0,L|384:208,1,112,0|0,0:0|0:0,0:0:0:0:
340,243,41042,2,0,P|400:219|464:247,1,112
505,270,41516,2,0,L|497:334,1,56
449,380,41832,6,0,P|397:348|281:356,1,168
225,379,42463,1,0,0:0:0:0:
86,333,42779,1,0,0:0:0:0:
56,192,43095,6,0,B|108:164|164:184|164:184|222:208|267:190|285:144|264:88|224:76|180:96,1,336
194,90,44358,2,0,B|249:119|305:103|305:103|361:83|421:107,1,224
412,352,45621,5,4,0:0:0:0:
412,352,45779,1,2,0:0:0:0:
340,308,45937,2,0,L|248:312,1,70,8|0,0:0|0:0,0:0:0:0:
216,376,46253,2,0,P|184:312|224:236,1,140,2|8,0:0|0:0,0:0:0:0:
272,200,46726,6,0,L|112:216,1,140,0|2,0:0|0:0,0:0:0:0:
64,168,47200,1,8,0:0:0:0:
64,168,47358,1,0,0:0:0:0:
92,88,47516,2,0,L|176:80,1,70,2|2,0:0|0:0,0:0:0:0:
236,40,47832,2,0,L|320:56,1,70,8|0,0:0|0:0,0:0:0:0:
372,104,48148,5,2,0:0:0:0:
444,60,48305,1,2,0:0:0:0:
492,128,48463,2,0,L|496:212,1,70,8|0,0:0|0:0,0:0:0:0:
468,280,48779,1,2,0:0:0:0:
392,240,48937,2,0,L|384:180,2,35,8|8|8,0:0|0:0|0:0,0:0:0:0:
392,324,49253,1,8,0:0:0:0:
392,324,49332,1,8,0:0:0:0:
392,324,49411,6,0,L|244:336,1,140,4|8,0:0|0:0,0:0:0:0:
184,288,49884,1,2,0:0:0:0:
112,332,50042,2,0,P|100:288|108:252,1,70,8|2,0:0|0:0,0:0:0:0:
164,208,50358,2,0,P|176:156|164:116,1,70,8|2,0:0|0:0,0:0:0:0:
124,72,50674,5,8,0:0:0:0:
124,72,50832,1,8,0:0:0:0:
288,36,51148,5,8,0:0:0:0:
288,36,51305,1,8,0:0:0:0:
332,200,51621,5,8,0:0:0:0:
332,200,51779,1,8,0:0:0:0:
260,244,51937,6,0,L|264:296,2,35,0|8|0,0:0|0:0|0:0,0:0:0:0:
208,176,52253,1,0,0:0:0:0:
129,207,52411,2,0,L|126:262,2,35,0|8|8,0:0|0:0|0:0,0:0:0:0:
91,131,52726,1,2,0:0:0:0:
12,156,52884,1,8,0:0:0:0:
80,336,53200,6,0,L|240:352,1,161.000003070831,4|8,0:0|0:0,0:0:0:0:
324,300,53674,2,0,P|336:352|332:384,1,80.5000015354157,0|2,0:0|0:0,0:0:0:0:
240,352,53990,2,0,P|228:304|240:252,1,80.5000015354157,2|8,0:0|0:0,0:0:0:0:
304,208,54305,6,0,L|128:220,1,161.000003070831,4|2,0:0|0:0,0:0:0:0:
88,140,54779,1,8,0:0:0:0:
152,68,54937,2,0,L|252:72,1,80.5000015354157,0|2,0:0|0:0,0:0:0:0:
324,104,55253,2,0,L|424:108,1,80.5000015354157,2|8,0:0|0:0,0:0:0:0:
488,56,55569,1,8,0:0:0:0:
488,56,55648,1,8,0:0:0:0:
488,56,55726,6,0,P|500:124|488:160,1,80.5000015354157,2|2,0:0|0:0,0:0:0:0:
428,200,56042,1,8,0:0:0:0:
428,200,56200,1,0,0:0:0:0:
332,180,56358,2,0,L|216:188,1,80.5000015354157,2|2,0:0|0:0,0:0:0:0:
160,152,56674,1,8,0:0:0:0:
160,152,56832,1,0,0:0:0:0:
76,200,56990,6,0,L|84:288,1,80.5000015354157,2|2,0:0|0:0,0:0:0:0:
157,342,57305,1,8,0:0:0:0:
227,274,57463,2,0,P|161:246|79:285,1,161.000003070831,0|2,0:0|0:0,0:0:0:0:
157,342,57937,1,8,0:0:0:0:
252,364,58095,1,0,0:0:0:0:
347,347,58253,5,2,0:0:0:0:
347,347,58411,1,2,0:0:0:0:
490,218,58726,2,0,L|318:202,1,161.000003070831,8|8,0:0|0:0,0:0:0:0:
264,129,59200,1,0,0:0:0:0:
330,57,59358,6,0,P|359:136|308:219,1,161.000003070831,4|2,0:0|0:0,0:0:0:0:
264,129,59832,1,8,0:0:0:0:
228,319,60148,2,0,L|141:315,1,80.5000015354157
60,352,60463,1,8,0:0:0:0:
60,352,60621,1,0,0:0:0:0:
27,261,60779,5,4,0:0:0:0:
62,170,60937,2,0,L|58:118,2,40.2500007677078,8|8|8,0:0|0:0|0:0,0:0:0:0:
136,244,61253,1,0,0:0:0:0:
166,140,61411,2,0,L|162:97,2,40.2500007677078,4|0|2,0:3|0:0|0:0,0:0:0:0:
136,244,61726,1,0,0:0:0:0:
236,215,61884,6,0,P|267:146|232:62,1,161.000003070831,4|2,0:0|0:0,0:0:0:0:
145,20,62358,1,8,0:0:0:0:
65,84,62516,1,0,0:0:0:0:
40,182,62674,1,0,0:0:0:0:
79,276,62832,2,0,L|93:335,5,40.2500007677078,8|8|8|8|8|8,0:0|0:0|0:0|0:0|0:0|0:0,0:0:0:0:
104,360,63305,6,0,L|220:352,1,80.5000015354157,4|2,0:0|0:0,0:0:0:0:
272,308,63621,1,8,0:0:0:0:
360,344,63779,2,0,P|368:288|356:256,1,80.5000015354157,0|8,0:0|0:0,0:0:0:0:
276,216,64095,2,0,L|180:224,1,80.5000015354157,2|8,0:0|0:0,0:0:0:0:
108,268,64411,1,2,0:0:0:0:
108,268,64569,6,0,P|96:224|112:176,1,80.5000015354157,8|2,0:0|0:0,0:0:0:0:
168,120,64884,1,8,0:0:0:0:
192,28,65042,2,0,P|152:24|108:40,1,80.5000015354157,2|8,0:0|0:0,0:0:0:0:
168,120,65358,2,0,L|276:128,1,80.5000015354157,2|8,0:0|0:0,0:0:0:0:
328,68,65674,1,2,0:0:0:0:
328,68,65832,6,0,L|416:84,1,80.5000015354157,8|2,0:0|0:0,0:0:0:0:
476,152,66148,1,8,0:0:0:0:
476,152,66305,1,2,0:0:0:0:
420,232,66463,2,0,L|332:216,1,80.5000015354157,8|2,0:0|0:0,0:0:0:0:
260,160,66779,1,2,0:0:0:0:
252,256,66937,1,2,0:0:0:0:
320,328,67095,6,0,L|152:336,1,161.000003070831,2|2,0:0|0:0,0:0:0:0:
72,376,67569,2,0,P|100:296|72:216,1,161.000003070831,8|2,0:0|0:0,0:0:0:0:
20,152,68042,1,8,0:0:0:0:
182,47,68358,6,0,L|274:57,1,80.5000015354157,2|8,0:0|0:0,0:0:0:0:
358,65,68674,1,2,0:0:0:0:
262,233,68990,2,0,L|83:215,1,161.000003070831,8|0,0:0|0:0,0:0:0:0:
20,152,69463,1,8,0:0:0:0:
20,152,69542,1,8,0:0:0:0:
20,152,69621,6,0,L|28:249,1,80.5000015354157,4|8,0:0|0:0,0:0:0:0:
37,328,69937,1,2,0:3:0:0:
230,337,70253,2,0,L|214:175,1,161.000003070831,8|2,0:0|0:0,0:0:0:0:
206,80,70726,1,8,0:0:0:0:
206,80,70805,1,8,0:0:0:0:
206,80,70884,6,0,L|300:89,1,80.5000015354157,4|0,0:0|0:0,0:0:0:0:
383,94,71200,1,2,0:3:0:0:
416,284,71516,2,0,L|322:275,1,80.5000015354157,8|0,0:0|0:0,0:0:0:0:
238,267,71832,2,0,L|186:262,3,40.2500007677078,8|8|8|8,0:0|0:0|0:0|0:0,0:0:0:0:
149,259,72148,5,2,0:0:0:0:
79,193,72305,2,0,L|21:201,2,40.2500007677078,8|8|8,0:0|0:0|0:0,0:0:0:0:
147,123,72621,1,2,0:0:0:0:
147,123,72779,2,0,L|256:132,1,80.5000015354157,8|8,0:0|0:0,0:0:0:0:
317,183,73095,1,0,0:0:0:0:
484,57,73411,5,4,0:0:0:0:
472,152,73569,1,8,0:0:0:0:
393,95,73726,1,2,0:0:0:0:
454,278,74042,2,0,P|385:300|278:266,1,161.000003070831,8|0,0:0|0:0,0:0:0:0:
119,209,74674,5,2,0:0:0:0:
155,298,74832,1,8,0:0:0:0:
217,224,74990,1,0,0:0:0:0:
48,129,75305,2,0,P|11:193|41:282,1,161.000003070831,8|8,0:0|0:0,0:0:0:0:
159,126,75937,5,2,0:0:0:0:
214,47,76095,1,0,0:0:0:0:
117,39,76253,1,0,0:0:0:0:
159,126,76411,2,0,L|345:135,1,161.000003070831,8|2,0:0|0:0,0:0:0:0:
366,214,76884,1,8,0:0:0:0:
474,54,77200,5,8,0:0:0:0:
366,214,77516,2,0,L|377:298,2,80.5000015354157,2|8|0,0:0|0:0|0:0,0:0:0:0:
259,52,78148,1,8,0:0:0:0:
259,244,78463,5,8,0:0:0:0:
91,148,78779,2,0,L|36:158,2,40.2500007677078,8|8|8,0:0|0:0|0:0,0:0:0:0:
179,187,79095,2,0,L|170:245,3,40.2500007677078,0|0|8|0,0:0|0:0|0:0|0:0,0:0:0:0:
168,275,79411,2,0,L|176:320,3,40.2500007677078,8|8|8|8,0:0|0:0|0:0|0:0,0:0:0:0:
182,362,79726,6,0,L|288:371,2,80.5000015354157,4|0|2,0:0|0:0|0:0,0:0:0:0:
63,308,80200,2,0,L|48:138,1,161.000003070831,12|2,0:0|0:0,0:0:0:0:
76,54,80674,2,0,P|31:49|-12:70,2,80.5000015354157,12|2|2,0:0|0:0|0:0,0:0:0:0:
168,147,81148,2,0,P|250:171|342:137,1,161.000003070831,12|2,0:0|0:0,0:0:0:0:
395,87,81621,1,12,0:0:0:0:
413,278,81937,1,12,0:0:0:0:
395,87,82253,6,0,L|489:72,2,80.5000015354157,12|2|2,0:0|0:0|0:0,0:0:0:0:
269,114,82726,2,0,L|95:93,1,161.000003070831,12|2,0:0|0:0,0:0:0:0:
18,129,83200,2,0,P|13:75|38:31,2,80.5000015354157,12|2|2,0:0|0:0|0:0,0:0:0:0:
129,202,83674,1,12,0:0:0:0:
129,202,83832,2,0,P|145:256|137:296,1,80.5000015354157,2|2,0:0|0:0,0:0:0:0:
52,383,84148,1,12,0:0:0:0:
52,383,84779,6,0,B|98:345|142:353|142:353|179:382|225:368,1,168,4|0,0:0|0:0,0:0:0:0:
277,352,85411,2,0,B|258:299|258:299|270:246|270:246|248:180,1,168
231,108,86042,5,8,0:0:0:0:
231,108,86200,1,8,0:0:0:0:
166,161,86358,1,8,0:0:0:0:
166,161,86516,1,8,0:0:0:0:
85,153,86674,1,8,0:0:0:0:
85,153,86832,1,8,0:0:0:0:
264,337,87305,6,0,B|295:317|295:317|331:329,1,70
326,327,87779,2,0,L|309:175,1,140
364,122,88253,1,0,0:0:0:0:
364,122,88411,1,0,0:0:0:0:
234,89,88569,6,0,B|188:110|188:110|206:55,1,97.9999970092774,0|0,0:0|0:0,0:0:0:0:
