osu file format v14

[General]
AudioFilename: audio.mp3
AudioLeadIn: 0
PreviewTime: 52884
Countdown: 0
SampleSet: Soft
StackLeniency: 0.7
Mode: 0
LetterboxInBreaks: 0
WidescreenStoryboard: 0

[Editor]
DistanceSpacing: 1
BeatDivisor: 4
GridSize: 4
TimelineZoom: 1.6

[Metadata]
Title:Redo
TitleUnicode:Redo
Artist:Suzuki Konomi
ArtistUnicode:鈴木このみ
Creator:Neoskylove
Version:Normal
Source:Re:ゼロから始める異世界生活
Tags:Re: Zero kara Hajimeru Isekai Seikatsu op opening tv size Karia walaowey ProEzreal tasuke912
BeatmapID:1156129
BeatmapSetID:545351

[Difficulty]
HPDrainRate:4
CircleSize:3.5
OverallDifficulty:4
ApproachRate:5
SliderMultiplier:1.2
SliderTickRate:1

[Events]
//Background and Video events
0,0,"BG.jpg",0,0
Video,-752,"video.avi"
//Break Periods
//Storyboard Layer 0 (Background)
//Storyboard Layer 1 (Fail)
//Storyboard Layer 2 (Pass)
//Storyboard Layer 3 (Foreground)
//Storyboard Sound Samples

[TimingPoints]
148,315.789473684211,4,2,51,40,1,0
148,-100,4,2,51,40,0,0
5200,-100,4,2,51,50,0,0
10253,-100,4,2,51,50,0,0
24384,-100,4,2,51,5,0,0
24463,-100,4,2,51,50,0,0
30463,-100,4,2,51,45,0,0
35042,-100,4,2,51,45,0,0
35200,-100,4,2,51,50,0,0
35437,-100,4,2,51,5,0,0
35516,-100,4,2,51,60,0,0
40569,-100,4,2,51,50,0,0
42226,-100,4,2,51,50,0,0
45621,-100,4,2,51,60,0,0
53200,-100,4,2,51,70,0,1
53437,-100,4,2,51,5,0,1
53516,-100,4,2,51,70,0,1
54542,-100,4,2,51,5,0,1
54621,-100,4,2,51,70,0,1
58805,-100,4,2,51,5,0,1
59042,-100,4,2,51,70,0,1
59121,-100,4,2,51,5,0,1
59358,-100,4,2,51,70,0,1
60858,-100,4,2,51,5,0,1
60937,-100,4,2,51,70,0,1
61332,-100,4,2,51,5,0,1
61411,-100,4,2,51,70,0,1
62121,-100,4,2,51,5,0,1
62200,-100,4,2,51,70,0,1
62990,-100,4,2,51,70,0,0
63305,-100,4,2,51,70,0,1
68279,-100,4,2,51,5,0,1
68358,-100,4,2,51,70,0,1
79726,-100,4,2,51,70,0,0
84700,-100,4,2,51,5,0,0
84779,-100,4,2,51,70,0,0
87305,-100,4,2,51,40,0,0
88569,-100,4,2,51,25,0,0

[Colours]
Combo1 : 255,159,236
Combo2 : 140,241,255
Combo3 : 145,175,255
Combo4 : 191,153,255

[HitObjects]
139,139,148,6,0,L|202:137,1,60,0|0,0:0|0:0,0:0:0:0:
294,64,621,2,0,P|316:118|311:178,1,120,0|0,0:0|0:0,0:0:0:0:
287,233,1095,1,0,0:0:0:0:
167,248,1411,2,0,L|104:246,1,60,0|0,0:0|0:0,0:0:0:0:
56,355,1884,2,0,L|175:358,1,120,0|0,0:0|0:0,0:0:0:0:
236,365,2358,1,0,0:0:0:0:
328,287,2674,6,0,P|357:285|387:289,1,60,0|0,0:0|0:0,0:0:0:0:
414,171,3148,2,0,P|355:164|296:171,1,120,0|0,0:0|0:0,0:0:0:0:
244,201,3621,1,0,0:0:0:0:
124,190,3937,2,0,L|124:130,1,60,0|0,0:0|0:0,0:0:0:0:
218,55,4411,2,0,P|267:85|324:72,1,120,0|0,0:0|0:0,0:0:0:0:
378,45,4884,1,0,0:0:0:0:
459,132,5200,5,2,0:0:0:0:
459,132,5358,2,0,P|475:188|461:246,1,120,0|0,0:0|0:0,0:0:0:0:
418,288,5832,2,0,L|298:280,1,120,2|2,0:3|0:0,0:0:0:0:
239,175,6463,1,2,0:0:0:0:
239,175,6621,2,0,L|119:182,1,120,0|0,0:0|0:0,0:0:0:0:
76,137,7095,2,0,P|96:83|152:68,1,120,2|2,0:3|0:0,0:0:0:0:
272,79,7726,5,2,0:0:0:0:
272,79,7884,2,0,P|330:89|390:84,1,120,2|2,0:0|0:0,0:0:0:0:
437,47,8358,2,0,L|421:165,1,120,2|2,0:3|0:0,0:0:0:0:
391,283,8990,1,2,0:0:0:0:
391,283,9148,2,0,P|332:279|272:281,1,120
226,320,9621,2,0,P|229:260|227:200,1,120,2|2,0:3|0:0,0:0:0:0:
219,80,10253,6,0,L|99:78,1,120,2|2,0:0|0:0,0:0:0:0:
47,187,10884,2,0,P|38:245|51:304,1,120,2|2,0:3|0:0,0:0:0:0:
164,346,11516,2,0,P|222:332|281:342,1,120,2|2,0:0|0:0,0:0:0:0:
400,339,12148,2,0,P|410:310|411:280,1,60,2|0,0:3|0:0,0:0:0:0:
364,242,12463,2,0,P|354:213|353:183,1,60,2|0,0:0|0:0,0:0:0:0:
381,130,12779,6,0,P|329:155|277:129,1,120,2|2,0:0|0:0,0:0:0:0:
193,43,13411,2,0,P|140:17|88:42,1,120,2|2,0:3|0:0,0:0:0:0:
54,158,14042,2,0,L|58:286,1,120,2|2,0:0|0:0,0:0:0:0:
52,338,14516,1,0,0:0:0:0:
52,337,14674,2,0,P|107:318|166:329,1,120,2|2,0:3|0:0,0:0:0:0:
280,366,15305,6,0,L|279:246,1,120,2|2,0:0|0:0,0:0:0:0:
320,201,15779,1,0,0:0:0:0:
320,201,15937,2,0,L|379:200,2,60,2|0|2,0:3|0:0|0:0,0:0:0:0:
254,99,16569,2,0,L|194:99,1,60,2|0,0:0|0:0,0:0:0:0:
168,154,16884,2,0,L|108:154,1,60,2|0,0:0|0:0,0:0:0:0:
63,196,17200,2,0,P|43:251|63:306,1,120,2|2,0:3|0:0,0:0:0:0:
175,350,17832,6,0,L|294:343,1,120,2|2,0:0|0:0,0:0:0:0:
403,292,18463,2,0,L|396:172,1,120,2|2,0:3|0:0,0:0:0:0:
276,192,19095,2,0,P|220:210|164:192,1,120,2|2,0:0|0:0,0:0:0:0:
162,72,19726,2,0,P|218:53|274:71,1,120,2|2,0:3|0:0,0:0:0:0:
371,142,20358,6,0,B|404:159|434:150|434:150|422:202|428:204,1,120,2|2,0:0|0:0,0:0:0:0:
333,279,20990,2,0,B|316:312|325:342|325:342|273:330|270:336,1,120,2|2,0:3|0:0,0:0:0:0:
154,364,21621,2,0,P|159:305|158:245,1,120,2|2,0:0|0:0,0:0:0:0:
117,132,22253,2,0,L|57:136,2,60,2|0|2,0:3|0:0|0:0,0:0:0:0:
217,66,22884,6,0,B|252:55|282:55|282:55|283:84|304:102,1,120,2|2,0:0|0:0,0:0:0:0:
419,136,23516,2,0,P|428:194|414:252,1,120,2|2,0:3|0:0,0:0:0:0:
308,309,24148,2,0,B|274:307|253:291|253:291|230:311|196:309,1,120,2|2,0:0|0:0,0:0:0:0:
78,285,24779,1,2,0:3:0:0:
152,191,25095,1,2,0:0:0:0:
70,102,25411,6,0,L|62:42,2,60,2|0|2,0:0|0:0|0:0,0:0:0:0:
187,76,26042,2,0,L|194:16,2,60,2|0|2,0:3|0:0|0:0,0:0:0:0:
152,191,26674,2,0,P|181:197|211:198,1,60,2|0,0:0|0:0,0:0:0:0:
268,179,26990,2,0,P|297:179|327:186,1,60,2|0,0:0|0:0,0:0:0:0:
380,211,27305,2,0,P|371:270|377:329,1,120,2|2,0:3|0:0,0:0:0:0:
495,306,27937,6,0,P|500:246|491:187,1,120,2|2,0:0|0:0,0:0:0:0:
419,91,28569,2,0,B|360:99|360:99|303:78,1,120,2|2,0:3|0:0,0:0:0:0:
185,53,29200,2,0,L|65:55,2,120,2|2|2,0:0|0:0|0:3,0:0:0:0:
174,172,30148,2,0,P|173:202|178:232,1,60,2|0,0:0|0:0,0:0:0:0:
217,278,30463,6,0,P|160:263|111:294,1,120,0|0,0:0|0:0,0:0:0:0:
89,350,30937,2,0,L|70:165,1,180,0|0,0:0|0:0,0:0:0:0:
148,78,31726,2,0,P|199:49|258:54,1,120,0|0,0:0|0:0,0:0:0:0:
316,71,32200,2,0,P|309:161|313:251,1,180,0|0,0:0|0:0,0:0:0:0:
429,283,32990,6,0,P|435:223|432:163,1,120,0|0,0:0|0:0,0:0:0:0:
432,103,33463,1,0,0:0:0:0:
316,71,33779,2,0,P|256:73|196:67,1,120,0|0,0:0|0:0,0:0:0:0:
146,32,34253,2,0,L|146:151,1,120,0|0,0:0|0:0,0:0:0:0:
132,210,34726,1,0,0:0:0:0:
217,293,35042,1,2,0:0:0:0:
217,293,35200,1,8,0:0:0:0:
326,243,35516,6,0,L|445:250,2,120,4|8|2,0:0|0:0|0:0,0:0:0:0:
274,209,36305,2,0,P|270:168|277:141,1,60,2|8,0:0|0:0,0:0:0:0:
344,52,36779,2,0,L|463:59,2,120,2|8|2,0:0|0:0|0:0,0:0:0:0:
287,29,37569,2,0,L|227:32,1,60,2|8,0:0|0:0,0:0:0:0:
180,142,38042,6,0,P|126:121|71:143,2,120,2|8|2,0:0|0:0|0:0,0:0:0:0:
225,184,38832,2,0,P|229:213|223:242,1,60,2|8,0:0|0:0,0:0:0:0:
187,356,39305,2,0,P|242:334|301:336,1,120,4|8,0:0|0:0,0:0:0:0:
360,351,39779,1,2,0:0:0:0:
360,351,39937,2,0,L|419:354,2,60,8|2|8,0:0|0:0|0:0,0:0:0:0:
320,236,40569,6,0,P|311:178|329:121,1,120,0|0,0:0|0:0,0:0:0:0:
367,74,41042,2,0,B|319:102|275:82|275:82|236:63|194:83,1,180,0|0,0:0|0:0,0:0:0:0:
114,173,41832,2,0,L|120:292,1,120
223,354,42463,2,0,L|229:234,1,120,0|0,0:0|0:0,0:0:0:0:
309,143,43095,6,0,P|406:130|345:53,1,240,0|0,0:0|0:0,0:0:0:0:
225,40,44042,1,0,0:0:0:0:
125,107,44358,2,0,P|101:161|113:218,1,120,0|0,0:0|0:0,0:0:0:0:
200,302,44990,2,0,L|319:293,1,120,0|0,0:0|0:0,0:0:0:0:
338,175,45621,6,0,L|457:183,2,120,4|8|2,0:0|0:0|0:0,0:0:0:0:
278,185,46411,2,0,P|280:155|274:125,1,60,2|8,0:0|0:0,0:0:0:0:
177,55,46884,2,0,L|57:46,2,120,2|8|2,0:0|0:0|0:0,0:0:0:0:
146,107,47674,2,0,L|146:167,1,60,2|8,0:0|0:0,0:0:0:0:
136,286,48148,6,0,P|191:266|247:284,1,120,2|8,0:0|0:0,0:0:0:0:
352,343,48779,2,0,P|408:360|463:340,1,120,2|8,0:0|0:0,0:0:0:0:
502,293,49253,1,8,0:0:0:0:
502,293,49411,2,0,L|492:173,1,120,4|8,0:0|0:0,0:0:0:0:
385,118,50042,2,0,L|389:58,2,60,8|2|8,0:0|0:0|0:0,0:0:0:0:
404,224,50674,6,0,L|408:284,1,60,8|8,0:0|0:0,0:0:0:0:
323,351,51148,2,0,L|263:346,1,60,8|8,0:0|0:0,0:0:0:0:
267,239,51621,2,0,L|207:243,1,60,8|8,0:0|0:0,0:0:0:0:
150,139,52095,2,0,P|86:117|106:201,1,180,8|8,0:0|0:0,0:0:0:0:
208,244,52884,1,8,0:0:0:0:
274,144,53200,6,0,L|393:137,1,120,4|8,0:0|0:0,0:0:0:0:
454,137,53674,2,0,P|465:195|452:253,1,120,0|2,0:0|0:0,0:0:0:0:
426,307,54148,1,8,0:0:0:0:
426,307,54305,2,0,L|307:288,1,120,4|2,0:0|0:0,0:0:0:0:
213,213,54937,2,0,L|94:231,1,120,0|2,0:0|0:0,0:0:0:0:
35,245,55411,1,8,0:0:0:0:
69,130,55726,6,0,L|61:70,2,60,2|2|8,0:0|0:0|0:0,0:0:0:0:
179,83,56358,2,0,P|209:76|239:78,1,60,2|2,0:0|0:0,0:0:0:0:
270,129,56674,2,0,P|299:130|329:124,1,60,8|0,0:0|0:0,0:0:0:0:
366,76,56990,6,0,L|362:195,1,120,2|8,0:0|0:0,0:0:0:0:
384,250,57463,2,0,P|326:242|269:261,1,120,0|2,0:0|0:0,0:0:0:0:
234,310,57937,1,8,0:0:0:0:
156,218,58253,5,2,0:0:0:0:
156,218,58411,2,0,B|124:201|97:209|97:209|69:218|39:206,2,120,2|8|8,0:0|0:0|0:0,0:0:0:0:
234,310,59358,2,0,P|284:339|341:327,1,120,4|2,0:0|0:0,0:0:0:0:
389,291,59832,1,8,0:0:0:0:
417,175,60148,2,0,P|359:187|309:157,1,120,2|8,0:0|0:0,0:0:0:0:
279,105,60621,1,0,0:0:0:0:
279,105,60779,6,0,B|250:120|220:111|220:111|193:99|161:110,1,120,4|8,0:0|0:0,0:0:0:0:
121,154,61253,2,0,L|130:278,1,120,4|4,0:0|0:3,0:0:0:0:
225,346,61884,1,4,0:0:0:0:
340,312,62200,2,0,P|343:341|341:371,2,60,2|8|0,0:0|0:0|0:0,0:0:0:0:
290,277,62674,2,0,P|298:248|314:222,1,60,2|8,0:0|0:0,0:0:0:0:
404,67,63305,6,0,P|346:83|289:66,1,120,4|8,0:0|0:0,0:0:0:0:
238,40,63779,2,0,L|227:159,1,120,0|2,0:0|0:0,0:0:0:0:
216,218,64253,1,8,0:0:0:0:
216,218,64411,2,0,P|163:195|108:215,1,120,2|2,0:0|0:0,0:0:0:0:
102,335,65042,2,0,P|155:358|210:338,1,120,2|2,0:0|0:0,0:0:0:0:
256,297,65516,1,8,0:0:0:0:
370,258,65832,6,0,L|428:269,2,60,8|2|8,0:0|0:0|0:0,0:0:0:0:
331,144,66463,2,0,L|273:155,1,60,8|2,0:0|0:0,0:0:0:0:
227,196,66779,2,0,L|168:184,1,60,2|2,0:0|0:0,0:0:0:0:
117,153,67095,2,0,P|135:209|119:266,1,120,2|2,0:0|0:0,0:0:0:0:
93,321,67569,2,0,P|149:302|206:318,1,120,8|2,0:0|0:0,0:0:0:0:
257,349,68042,1,8,0:0:0:0:
361,289,68358,6,0,L|420:288,2,60,2|8|2,0:0|0:0|0:0,0:0:0:0:
287,192,68990,2,0,P|231:173|174:190,1,120,8|0,0:0|0:0,0:0:0:0:
129,230,69463,1,8,0:0:0:0:
129,230,69621,2,0,L|132:289,2,60,4|8|2,0:0|0:0|0:3,0:0:0:0:
61,129,70253,2,0,P|45:74|81:29,1,120,8|2,0:0|0:0,0:0:0:0:
139,41,70726,1,8,0:0:0:0:
139,41,70884,6,0,L|198:32,2,60,4|0|2,0:0|0:0|0:3,0:0:0:0:
217,132,71516,2,0,L|335:149,1,120,8|8,0:0|0:0,0:0:0:0:
388,178,71990,1,8,0:0:0:0:
388,178,72148,2,0,P|383:148|388:119,2,60,2|8|8,0:0|0:0|0:0,0:0:0:0:
427,291,72779,2,0,B|395:300|378:324|378:324|351:312|319:312,1,120,8|8,0:0|0:0,0:0:0:0:
200,304,73411,6,0,L|140:305,2,60,4|8|2,0:0|0:0|0:0,0:0:0:0:
215,185,74042,2,0,L|206:65,1,120,8|0,0:0|0:0,0:0:0:0:
324,87,74674,2,0,P|353:90|382:83,2,60,2|8|0,0:0|0:0|0:0,0:0:0:0:
206,65,75305,2,0,P|148:58|91:77,1,120,8|8,0:0|0:0,0:0:0:0:
39,110,75779,1,0,0:0:0:0:
39,110,75937,6,0,L|33:50,2,60,2|0|0,0:0|0:0|0:0,0:0:0:0:
55,168,76411,2,0,P|74:223|50:276,1,120,8|2,0:0|0:0,0:0:0:0:
14,324,76884,1,8,0:0:0:0:
129,355,77200,2,0,L|247:337,1,120,8|2,0:0|0:0,0:0:0:0:
305,350,77674,2,0,P|281:297|293:239,1,120,8|2,0:0|0:0,0:0:0:0:
339,200,78148,1,8,0:0:0:0:
361,82,78463,6,0,L|241:79,1,120,8|8,0:0|0:0,0:0:0:0:
197,37,78937,2,0,L|77:39,1,120,8|8,0:0|0:0,0:0:0:0:
35,83,79411,1,8,0:0:0:0:
127,159,79726,6,0,P|144:215|124:270,1,120,4|2,0:0|0:0,0:0:0:0:
92,321,80200,1,4,0:0:0:0:
270,342,80674,2,0,P|252:285|272:230,1,120,4|2,0:0|0:0,0:0:0:0:
305,180,81148,1,4,0:0:0:0:
418,40,81621,2,0,B|371:58|371:58|302:46,1,120,4|4,0:0|0:0,0:0:0:0:
181,46,82253,6,0,L|176:165,1,120,4|2,0:0|0:0,0:0:0:0:
172,225,82726,1,4,0:0:0:0:
11,144,83200,2,0,L|15:263,1,120,4|2,0:0|0:0,0:0:0:0:
20,323,83673,1,4,0:0:0:0:
172,225,84148,1,8,0:0:0:0:
393,315,84779,5,4,0:0:0:0:
393,315,86042,2,0,L|395:255,1,60,8|8,0:0|0:0,0:0:0:0:
335,248,86358,2,0,L|337:188,1,60,8|8,0:0|0:0,0:0:0:0:
277,181,86674,2,0,L|279:121,1,60,8|8,0:0|0:0,0:0:0:0:
119,39,87305,5,0,0:0:0:0:
118,39,87463,2,0,P|95:93|108:150,1,120,0|0,0:0|0:0,0:0:0:0:
154,189,87937,2,0,P|166:246|143:300,1,120,0|0,0:0|0:0,0:0:0:0:
39,363,88569,1,0,0:0:0:0:
