osu file format v14

[General]
AudioFilename: audio.mp3
AudioLeadIn: 0
PreviewTime: 52884
Countdown: 0
SampleSet: Soft
StackLeniency: 0.7
Mode: 0
LetterboxInBreaks: 0
WidescreenStoryboard: 0

[Editor]
DistanceSpacing: 0.9
BeatDivisor: 2
GridSize: 4
TimelineZoom: 1.6

[Metadata]
Title:Redo
TitleUnicode:Redo
Artist:Suzuki Konomi
ArtistUnicode:鈴木このみ
Creator:Neoskylove
Version:Easy
Source:Re:ゼロから始める異世界生活
Tags:Re: Zero kara Hajimeru Isekai Seikatsu op opening tv size Karia walaowey ProEzreal tasuke912
BeatmapID:1161043
BeatmapSetID:545351

[Difficulty]
HPDrainRate:3
CircleSize:3
OverallDifficulty:3
ApproachRate:4
SliderMultiplier:1
SliderTickRate:1

[Events]
//Background and Video events
0,0,"BG.jpg",0,0
Video,-752,"video.avi"
//Break Periods
//Storyboard Layer 0 (Background)
//Storyboard Layer 1 (Fail)
//Storyboard Layer 2 (Pass)
//Storyboard Layer 3 (Foreground)
//Storyboard Sound Samples

[TimingPoints]
148,315.789473684211,4,2,51,40,1,0
148,-100,4,2,51,40,0,0
5200,-100,4,2,51,50,0,0
10253,-100,4,2,51,50,0,0
24384,-100,4,2,51,5,0,0
24463,-100,4,2,51,50,0,0
30463,-100,4,2,51,45,0,0
35042,-100,4,2,51,45,0,0
35200,-100,4,2,51,50,0,0
35437,-100,4,2,51,5,0,0
35516,-100,4,2,51,60,0,0
40569,-100,4,2,51,50,0,0
44358,-100,4,2,51,40,0,0
45621,-100,4,2,51,60,0,0
53200,-100,4,2,51,70,0,1
53437,-100,4,2,51,5,0,1
53516,-100,4,2,51,70,0,1
54542,-100,4,2,51,5,0,1
54621,-100,4,2,51,70,0,1
58805,-100,4,2,51,5,0,1
59042,-100,4,2,51,70,0,1
59121,-100,4,2,51,5,0,1
59358,-100,4,2,51,70,0,1
60858,-100,4,2,51,5,0,1
60937,-100,4,2,51,70,0,1
61332,-100,4,2,51,5,0,1
61411,-100,4,2,51,70,0,1
62121,-100,4,2,51,5,0,1
62200,-100,4,2,51,70,0,1
62990,-100,4,2,51,70,0,0
63305,-100,4,2,51,70,0,1
68279,-100,4,2,51,5,0,1
68358,-100,4,2,51,70,0,1
79726,-100,4,2,51,70,0,0
84700,-100,4,2,51,5,0,0
84779,-100,4,2,51,70,0,0
87305,-100,4,2,51,40,0,0
88569,-100,4,2,51,25,0,0
88648,-100,4,2,51,5,0,0

[Colours]
Combo1 : 255,159,236
Combo2 : 140,241,255
Combo3 : 145,175,255
Combo4 : 191,153,255

[HitObjects]
221,301,148,6,0,L|72:320,2,150,0|0|0,0:0|0:0|0:0,0:0:0:0:
293,247,1411,2,0,L|441:266,2,150,0|0|0,0:0|0:0|0:0,0:0:0:0:
221,193,2674,2,0,L|72:212,2,150,0|0|0,0:0|0:0|0:0,0:0:0:0:
293,139,3937,2,0,L|441:158,2,150,0|0|0,0:0|0:0|0:0,0:0:0:0:
213,97,5200,6,0,P|204:146|221:193,1,100,2|2,0:0|0:0,0:0:0:0:
302,228,5832,2,0,P|270:266|224:283,1,100,2|2,0:3|0:0,0:0:0:0:
143,240,6463,2,0,P|134:289|151:336,2,100,2|2|2,0:0|0:0|0:3,0:0:0:0:
220,192,7411,1,2,0:0:0:0:
143,144,7726,6,0,P|134:95|151:48,1,100,2|2,0:0|0:0,0:0:0:0:
239,31,8358,2,0,L|338:37,1,100,2|2,0:3|0:0,0:0:0:0:
407,95,8990,2,0,L|506:88,2,100,2|2|2,0:0|0:0|0:3,0:0:0:0:
322,125,9937,1,2,0:0:0:0:
390,186,10253,6,0,B|432:232|410:283|410:283|359:264|316:282,1,200,2|2,0:0|0:3,0:0:0:0:
256,348,11200,1,2,0:0:0:0:
195,282,11516,2,0,B|153:264|102:283|102:283|80:232|121:186,1,200,2|2,0:0|0:3,0:0:0:0:
186,125,12463,1,2,0:0:0:0:
141,46,12779,6,0,P|225:93|316:60,1,200,2|2,0:0|0:3,0:0:0:0:
397,20,13726,1,2,0:0:0:0:
459,85,14042,2,0,L|454:184,1,100,2|2,0:0|0:0,0:0:0:0:
409,262,14674,1,2,0:3:0:0:
328,221,14990,1,2,0:0:0:0:
256,275,15305,6,0,P|239:228|248:179,1,100,2|2,0:0|0:0,0:0:0:0:
307,111,15937,2,0,L|411:112,1,100,2|2,0:3|0:0,0:0:0:0:
473,172,16569,2,0,P|493:127|489:77,2,100,2|2|2,0:0|0:0|0:3,0:0:0:0:
408,235,17516,1,2,0:0:0:0:
460,306,17832,6,0,P|376:259|292:304,1,200,2|2,0:0|0:3,0:0:0:0:
225,365,18779,1,2,0:0:0:0:
153,310,19095,2,0,L|54:325,2,100,2|2|2,0:0|0:0|0:3,0:0:0:0:
169,130,20358,6,0,B|219:113|263:132|263:132|306:153|362:122,1,200,2|2,0:0|0:3,0:0:0:0:
439,76,21305,1,2,0:0:0:0:
495,145,21621,2,0,P|507:192|494:240,2,100,2|2|2,0:0|0:0|0:3,0:0:0:0:
418,193,22569,1,2,0:0:0:0:
362,122,22884,6,0,B|306:153|263:132|263:132|219:113|169:130,1,200,2|2,0:0|0:3,0:0:0:0:
103,192,23832,1,2,0:0:0:0:
169,254,24148,2,0,B|219:271|263:252|263:252|306:231|362:261,1,200,2|2,0:0|0:3,0:0:0:0:
432,317,25095,1,2,0:0:0:0:
488,247,25411,6,0,L|488:147,1,100,2|2,0:0|0:0,0:0:0:0:
432,76,26042,2,0,L|332:75,1,100,2|2,0:3|0:0,0:0:0:0:
261,132,26674,2,0,L|260:231,2,100,2|2|2,0:0|0:0|0:3,0:0:0:0:
195,70,27621,1,2,0:0:0:0:
123,125,27937,6,0,L|136:324,1,200,2|2,0:0|0:3,0:0:0:0:
219,359,28884,1,2,0:0:0:0:
298,317,29200,2,0,L|397:323,2,100,2|2|2,0:0|0:0|0:3,0:0:0:0:
250,143,30463,6,0,P|177:140|126:193,2,150,0|0|0,0:0|0:0|0:0,0:0:0:0:
301,218,31726,2,0,P|339:155|319:85,2,150,0|0|0,0:0|0:0|0:0,0:0:0:0:
210,224,32990,6,0,P|244:288|315:306,2,150,0|0|0,0:0|0:0|0:0,0:0:0:0:
301,218,34253,2,0,L|450:226,1,150,0|0,0:0|0:0,0:0:0:0:
485,142,35042,2,0,P|489:118|486:94,1,50,2|8,0:0|0:0,0:0:0:0:
416,36,35516,6,0,L|316:40,1,100,4|8,0:0|0:0,0:0:0:0:
261,112,36148,2,0,L|161:107,1,100,2|8,0:0|0:0,0:0:0:0:
106,36,36779,2,0,L|6:40,2,100,2|8|2,0:0|0:0|0:0,0:0:0:0:
195,24,37726,1,8,0:0:0:0:
161,107,38042,6,0,L|160:206,1,100,2|8,0:0|0:0,0:0:0:0:
210,281,38674,2,0,L|309:281,1,100,2|8,0:0|0:0,0:0:0:0:
377,220,39305,2,0,B|422:203|475:222|475:222|505:170|472:127,1,200,4|8,0:0|0:0,0:0:0:0:
300,73,40569,6,0,L|150:70,2,150,0|0|0,0:0|0:0|0:0,0:0:0:0:
308,162,41832,2,0,L|108:158,1,200
51,228,42779,1,0,0:0:0:0:
89,311,43095,6,0,B|139:333|182:304|182:304|232:350|274:327,1,200,0|0,0:0|0:0,0:0:0:0:
332,258,44042,1,0,0:0:0:0:
391,325,44358,2,0,B|364:273|387:226|387:226|410:180|386:132,1,200,0|0,0:0|0:0,0:0:0:0:
213,81,45621,6,0,L|113:87,2,100,4|8|2,0:0|0:0|0:0,0:0:0:0:
285,135,46569,1,8,0:0:0:0:
210,186,46884,2,0,P|203:234|218:282,1,100,2|8,0:0|0:0,0:0:0:0:
295,329,47516,2,0,L|394:322,1,100,2|8,0:0|0:0,0:0:0:0:
409,233,48148,6,0,L|508:239,2,100,2|8|2,0:0|0:0|0:0,0:0:0:0:
350,164,49095,1,8,0:0:0:0:
295,236,49411,2,0,B|246:240|206:215|206:215|168:248|104:235,1,200,4|8,0:0|0:0,0:0:0:0:
72,151,50358,1,8,0:0:0:0:
135,87,50674,6,0,P|65:105|13:56,2,150,8|8|8,0:0|0:0|0:0,0:0:0:0:
257,29,52095,2,0,L|251:178,1,150,0|8,0:0|0:0,0:0:0:0:
316,241,52884,1,8,0:0:0:0:
304,330,53200,6,0,L|154:317,1,150,4|0,0:0|0:0,0:0:0:0:
75,274,53990,1,2,0:0:0:0:
144,216,54305,2,0,L|142:116,1,100,4|2,0:0|0:0,0:0:0:0:
229,94,54937,2,0,L|230:193,1,100,0|2,0:0|0:0,0:0:0:0:
357,239,55726,6,0,P|407:231|456:237,1,100,2|8,0:0|0:0,0:0:0:0:
460,327,56358,2,0,P|410:334|361:328,1,100,2|8,0:0|0:0,0:0:0:0:
281,288,56990,2,0,L|131:300,2,150,2|0|8,0:0|0:0|0:0,0:0:0:0:
357,239,58253,6,0,P|369:166|332:102,1,150,2|8,0:0|0:0,0:0:0:0:
256,55,59042,1,8,0:0:0:0:
179,102,59358,2,0,P|142:166|155:239,1,150,4|8,0:0|0:0,0:0:0:0:
205,314,60148,2,0,P|254:320|302:307,1,100,2|8,0:0|0:0,0:0:0:0:
371,249,60779,6,0,P|351:320|387:383,1,150,4|4,0:0|0:0,0:0:0:0:
473,356,61569,2,0,P|482:307|474:257,1,100,4|4,0:3|0:0,0:0:0:0:
434,177,62200,2,0,L|416:28,1,150,2|2,0:0|0:0,0:0:0:0:
299,164,63305,6,0,B|268:146|268:146|154:153,1,150,4|0,0:0|0:0,0:0:0:0:
82,207,64095,1,2,0:0:0:0:
155,255,64411,2,0,P|196:284|217:329,1,100,2|2,0:0|0:0,0:0:0:0:
299,364,65042,2,0,P|327:323|372:302,1,100,2|2,0:0|0:0,0:0:0:0:
467,206,65832,6,0,L|478:106,1,100,8|8,0:0|0:0,0:0:0:0:
396,68,66463,2,0,L|384:167,1,100,8|10,0:0|0:0,0:0:0:0:
295,182,67095,2,0,P|226:152|151:150,2,150,2|8|8,0:0|0:0|0:0,0:0:0:0:
319,267,68358,6,0,B|259:272|238:319|238:319|194:277|149:289,1,200,2|8,0:0|0:0,0:0:0:0:
53,136,69621,2,0,B|113:131|134:84|134:84|178:126|223:114,1,200,4|8,0:0|0:0,0:0:0:0:
392,51,70884,6,0,L|368:249,1,200,4|8,0:0|0:0,0:0:0:0:
219,352,72148,2,0,P|124:354|75:272,1,200,2|8,0:0|0:0,0:0:0:0:
79,182,73095,1,0,0:0:0:0:
77,92,73411,6,0,L|276:74,1,200,4|8,0:0|0:0,0:0:0:0:
346,131,74358,1,0,0:0:0:0:
416,187,74674,2,0,L|216:204,1,200,2|8,0:0|0:0,0:0:0:0:
316,353,75937,6,0,L|465:340,2,150,2|8|8,0:0|0:0|0:0,0:0:0:0:
226,366,77200,2,0,P|213:317|223:269,1,100,8|2,0:0|0:0,0:0:0:0:
267,190,77832,2,0,P|279:141|269:93,1,100,0|8,0:0|0:0,0:0:0:0:
211,22,78463,6,0,P|280:50|350:28,2,150,8|8|8,0:0|0:0|0:0,0:0:0:0:
125,46,79726,6,0,L|136:195,1,150,4|12,0:0|0:0,0:0:0:0:
210,308,80674,2,0,P|266:260|338:270,1,150,12|12,0:0|0:0,0:0:0:0:
470,301,81621,2,0,L|478:201,1,100,12|12,0:0|0:0,0:0:0:0:
469,110,82253,6,0,P|402:141|334:113,1,150,12|12,0:0|0:0,0:0:0:0:
211,58,83200,2,0,P|143:30|76:60,2,150,12|12|12,0:0|0:0|0:0,0:0:0:0:
133,220,84779,5,4,0:0:0:0:
481,131,86042,1,8,0:0:0:0:
392,112,86358,1,8,0:0:0:0:
303,93,86674,1,8,0:0:0:0:
358,263,87305,6,0,L|507:253,2,150,0|0|0,0:0|0:0|0:0,0:0:0:0:
267,270,88569,1,0,0:0:0:0:
