osu file format v14

[General]
AudioFilename: audio.mp3
AudioLeadIn: 0
PreviewTime: 53082
Countdown: 0
SampleSet: Soft
StackLeniency: 0.2
Mode: 0
LetterboxInBreaks: 0
WidescreenStoryboard: 1

[Editor]
DistanceSpacing: 0.7
BeatDivisor: 4
GridSize: 32
TimelineZoom: 3.399999

[Metadata]
Title:Redo
TitleUnicode:Redo
Artist:Suzuki Konomi
ArtistUnicode:鈴木このみ
Creator:Marcuddles
Version:Re:Extra
Source:Re:ゼロから始める異世界生活
Tags:Zero kara Hajimeru Isekai Seikatsu Life in a different world from opening tv size wajinshu ReFaller Shiratoi kevincela CelsiusLK
BeatmapID:1410925
BeatmapSetID:516907

[Difficulty]
HPDrainRate:6.5
CircleSize:4.4
OverallDifficulty:8.4
ApproachRate:9.2
SliderMultiplier:1.8
SliderTickRate:1

[Events]
//Background and Video events
0,0,"Extra.jpg",0,0
//Break Periods
//Storyboard Layer 0 (Background)
//Storyboard Layer 1 (Fail)
//Storyboard Layer 2 (Pass)
//Storyboard Layer 3 (Foreground)
//Storyboard Sound Samples

[TimingPoints]
148,315.789473684211,4,2,1,70,1,0
148,-133.333333333333,4,2,1,70,0,0
5200,-105.263157894737,4,2,1,70,0,0
10174,-105.263157894737,4,2,1,5,0,0
10253,-105.263157894737,4,2,1,70,0,0
14911,-105.263157894737,4,2,1,5,0,0
14990,-105.263157894737,4,2,1,70,0,0
15226,-105.263157894737,4,2,1,5,0,0
15305,-105.263157894737,4,2,1,70,0,0
16174,-105.263157894737,4,2,1,5,0,0
16253,-105.263157894737,4,2,1,70,0,0
17753,-105.263157894737,4,2,1,5,0,0
17832,-105.263157894737,4,2,1,70,0,0
18700,-105.263157894737,4,2,1,5,0,0
18779,-105.263157894737,4,2,1,70,0,0
25016,-105.263157894737,4,2,1,5,0,0
25095,-105.263157894737,4,2,1,70,0,0
25332,-105.263157894737,4,2,1,5,0,0
25411,-105.263157894737,4,2,1,70,0,0
28805,-105.263157894737,4,2,1,5,0,0
28884,-105.263157894737,4,2,1,70,0,0
29437,-105.263157894737,4,2,1,5,0,0
29516,-105.263157894737,4,2,1,70,0,0
30463,-142.857142857143,4,2,1,50,0,0
34963,-142.857142857143,4,2,1,5,0,0
35042,-105.263157894737,4,2,1,70,0,0
35200,-95.2380952380954,4,2,1,70,0,0
35437,-95.2380952380954,4,2,1,5,0,0
35516,-105.263157894737,4,2,1,70,0,0
37963,-105.263157894737,4,2,1,5,0,0
38042,-105.263157894737,4,2,1,70,0,0
40569,-142.857142857143,4,2,1,50,0,0
41832,-200,4,2,1,50,0,0
42148,-142.857142857143,4,2,1,5,0,0
42463,-142.857142857143,4,2,1,50,0,0
42621,-142.857142857143,4,2,1,5,0,0
42779,-142.857142857143,4,2,1,50,0,0
42937,-142.857142857143,4,2,1,5,0,0
43095,-200,4,2,1,50,0,0
43884,-142.857142857143,4,2,1,5,0,0
44042,-142.857142857143,4,2,1,50,0,0
44358,-142.857142857143,4,2,1,50,0,0
44674,-142.857142857143,4,2,1,40,0,0
44990,-200,4,2,1,50,0,0
45463,-200,4,2,1,5,0,0
45621,-105.263157894737,4,2,1,70,0,0
49411,-100,4,2,1,70,0,0
52884,-100,4,2,1,70,0,0
53200,-95.2380952380952,4,2,1,80,0,1
53437,-95.2380952380952,4,2,1,5,0,1
53516,-95.2380952380952,4,2,1,80,0,1
58174,-95.2380952380952,4,2,1,5,0,1
58253,-95.2380952380952,4,2,1,80,0,1
58726,-166.666666666667,4,2,1,80,0,1
58884,-166.666666666667,4,2,1,5,0,1
59042,-166.666666666667,4,2,1,80,0,1
59200,-166.666666666667,4,2,1,5,0,1
59358,-95.2380952380952,4,2,1,80,0,1
59595,-95.2380952380952,4,2,1,5,0,1
59674,-95.2380952380952,4,2,1,80,0,1
67095,-105.263157894737,4,2,1,80,0,1
67332,-105.263157894737,4,2,1,5,0,1
67411,-105.263157894737,4,2,1,80,0,1
67805,-105.263157894737,4,2,1,5,0,1
67884,-105.263157894737,4,2,1,80,0,1
68279,-105.263157894737,4,2,1,5,0,1
68358,-111.111111111111,4,2,1,65,0,0
68911,-111.111111111111,4,2,1,5,0,0
68990,-111.111111111111,4,2,1,65,0,0
73411,-111.111111111111,4,2,1,65,0,0
73963,-111.111111111111,4,2,1,5,0,0
74042,-111.111111111111,4,2,1,65,0,0
75937,-125,4,2,1,65,0,0
78463,-125,4,2,1,70,0,0
79726,-100,4,2,1,80,0,1
81384,-100,4,2,1,5,0,1
81463,-100,4,2,1,80,0,1
82174,-100,4,2,1,5,0,1
82253,-100,4,2,1,80,0,1
82963,-100,4,2,1,5,0,1
83042,-100,4,2,1,80,0,1
84148,-166.666666666667,4,2,1,80,0,1
84621,-166.666666666667,4,2,1,80,0,1
84779,-166.666666666667,4,2,1,80,0,0
85253,-166.666666666667,4,2,1,5,0,0
85411,-166.666666666667,4,2,1,80,0,0
85884,-166.666666666667,4,2,1,50,0,0
86042,-142.857142857143,4,2,1,80,0,1
86832,-142.857142857143,4,2,1,80,0,1
87148,-142.857142857143,4,2,1,5,0,1
87305,-133.333333333333,4,2,1,60,0,0
88569,-133.333333333333,4,2,1,50,0,0

[Colours]
Combo1 : 253,240,81
Combo2 : 164,255,81
Combo3 : 102,255,205
Combo4 : 23,191,247

[HitObjects]
106,113,148,5,2,0:0:0:0:
118,247,305,1,0,0:0:0:0:
106,113,621,2,0,L|119:253,1,135.000005149842,2|0,0:0|0:0,0:0:0:0:
185,166,1095,2,0,L|192:247,1,67.5000025749208,2|0,0:0|0:0,0:0:0:0:
362,299,1411,5,2,0:0:0:0:
349,164,1569,1,0,0:0:0:0:
362,299,1885,2,0,L|349:159,1,135.000005149842,2|0,0:0|0:0,0:0:0:0:
283,246,2359,2,0,L|276:165,1,67.5000025749208,2|0,0:0|0:0,0:0:0:0:
266,32,2674,5,2,0:0:0:0:
399,50,2832,1,0,0:0:0:0:
266,32,3148,2,0,L|409:52,1,135.000005149842,2|0,0:0|0:0,0:0:0:0:
312,110,3621,2,0,L|386:121,1,67.5000025749208,2|0,0:0|0:0,0:0:0:0:
206,122,3937,5,2,0:0:0:0:
73,140,4095,1,0,0:0:0:0:
206,122,4411,2,0,L|72:140,1,135.000005149842,2|0,0:0|0:0,0:0:0:0:
160,200,4884,2,0,L|93:209,1,67.5000025749208,2|0,0:0|0:0,0:0:0:0:
236,272,5200,5,8,3:2:0:0:
399,191,5358,2,0,P|365:162|316:155,1,85.4999977169037,0|0,0:0|1:2,0:0:0:0:
236,272,5674,1,2,0:0:0:0:
236,272,5832,2,0,P|266:242|274:195,1,85.4999977169037,8|0,1:2|0:0,0:0:0:0:
197,67,6148,2,0,P|217:106|268:136,1,85.4999977169037,0|0,1:0|0:0,0:0:0:0:
447,101,6463,5,8,3:2:0:0:
396,271,6621,2,0,B|383:228|383:228|399:188,1,85.4999977169037,0|0,0:0|1:0,0:0:0:0:
494,237,6937,2,0,L|465:232,2,28.4999992389679,2|0|0,0:0|0:0|0:0,0:0:0:0:
396,271,7095,2,0,L|309:278,1,85.4999977169037,8|0,1:2|0:0,0:0:0:0:
150,295,7411,2,0,P|139:255|155:215,1,85.4999977169037,0|0,1:0|0:0,0:0:0:0:
277,167,7726,5,8,3:2:0:0:
221,334,7884,2,0,B|179:324|179:324|144:289,1,85.4999977169037,0|0,0:0|1:0,0:0:0:0:
128,141,8200,1,2,0:0:0:0:
128,141,8358,2,0,B|158:175|158:175|152:235,1,85.4999977169037,8|0,1:2|0:0,0:0:0:0:
60,270,8674,2,0,L|94:259,3,28.4999992389679,0|0|0|0,1:2|0:0|0:0|0:0,0:0:0:0:
297,220,8990,5,8,3:2:0:0:
221,334,9148,2,0,P|263:306|317:311,1,85.4999977169037,0|0,0:0|1:0,0:0:0:0:
425,342,9463,2,0,L|416:290,2,28.4999992389679,2|0|0,0:0|0:0|0:0,0:0:0:0:
468,262,9621,2,0,L|478:160,1,85.4999977169037,8|0,1:2|0:0,0:0:0:0:
384,80,9937,2,0,P|336:95|382:115,1,128.249996575356,0|0,1:0|0:0,0:0:0:0:
384,80,10253,6,0,B|285:46|316:125|219:97,1,170.999995433807
223,98,10726,1,0,0:0:0:0:
346,234,10884,2,0,P|362:195|344:154,1,85.4999977169037,8|0,0:0|0:0,0:0:0:0:
229,283,11200,2,0,P|214:244|228:204,1,85.4999977169037,0|0,1:0|0:0,0:0:0:0:
314,326,11516,6,0,P|246:382|165:346,1,170.999995433807,2|0,1:2|1:0,0:0:0:0:
199,198,11990,2,0,L|235:205,2,28.4999992389679,2|0|0,0:0|0:0|0:0,0:0:0:0:
172,183,12148,5,8,0:0:0:0:
177,215,12305,1,0,0:0:0:0:
277,89,12463,1,0,1:0:0:0:
251,74,12621,1,0,0:0:0:0:
250,108,12779,6,0,B|276:112|297:104|297:104|325:126|325:126|341:96|341:96|364:110|408:100,1,170.999995433807,2|0,1:2|1:0,0:0:0:0:
393,102,13253,1,0,0:0:0:0:
488,191,13411,2,0,P|452:225|386:220,1,85.4999977169037,8|0,0:0|0:0,0:0:0:0:
280,193,13726,2,0,P|315:220|328:275,1,85.4999977169037,0|0,1:2|0:0,0:0:0:0:
335,371,14042,6,0,P|258:346|248:259,1,170.999995433807,2|0,1:2|1:0,0:0:0:0:
299,172,14516,2,0,L|276:197,2,28.4999992389679,2|0|0,0:0|0:0|0:0,0:0:0:0:
295,142,14674,2,0,B|228:115|244:178|168:142,1,128.249996575356,8|0,0:0|0:0,0:0:0:0:
170,178,14990,2,0,P|135:142|198:147,1,128.249996575356,0|0,1:0|0:0,0:0:0:0:
170,178,15305,5,2,1:2:0:0:
87,198,15463,2,0,L|171:177,1,85.4999977169037,0|0,0:0|1:2,0:0:0:0:
335,267,15779,1,0,0:0:0:0:
335,267,15937,2,0,L|207:248,1,128.249996575356,8|0,0:0|0:0,0:0:0:0:
208,248,16253,2,0,P|222:289|205:334,1,85.4999977169037,0|0,1:0|0:0,0:0:0:0:
361,184,16569,6,0,P|410:220|401:338,1,170.999995433807,2|0,1:2|1:0,0:0:0:0:
506,164,17042,2,0,P|499:194|495:208,2,28.4999992389679,2|0|0,0:0|0:0|0:0,0:0:0:0:
487,140,17200,2,0,L|477:46,1,85.4999977169037,8|0,0:0|0:0,0:0:0:0:
361,184,17516,2,0,B|291:207|307:151|237:177,1,128.249996575356,0|0,1:0|0:0,0:0:0:0:
238,176,17832,6,0,B|221:54|221:54|241:79|265:86,1,170.999995433807,2|0,1:2|1:0,0:0:0:0:
257,83,18305,1,0,0:0:0:0:
134,221,18463,2,0,P|190:170|255:186,1,128.249996575356,8|0,0:0|0:0,0:0:0:0:
237,175,18779,2,0,P|264:212|261:272,1,85.4999977169037,0|0,1:2|0:0,0:0:0:0:
189,357,19095,6,0,B|264:318|264:318|347:358,1,170.999995433807,2|0,1:2|1:0,0:0:0:0:
461,244,19569,2,0,L|430:238,2,28.4999992389679,2|0|0,0:0|0:0|0:0,0:0:0:0:
402,218,19726,2,0,B|357:129|446:151|396:48,1,170.999995433807,8|0,0:0|1:0,0:0:0:0:
287,88,20200,6,0,L|338:98,1,42.7499988584519,0|0,0:0|0:0,0:0:0:0:
260,105,20358,2,0,B|205:111|205:111|160:148|160:148|79:159,1,170.999995433807,2|0,1:2|1:2,0:0:0:0:
103,155,20832,1,0,0:0:0:0:
244,271,20990,2,0,B|257:229|257:229|241:189,1,85.4999977169037,8|0,0:0|0:0,0:0:0:0:
349,260,21305,2,0,B|336:302|336:302|352:342,1,85.4999977169037,0|0,1:0|0:0,0:0:0:0:
491,181,21621,6,0,B|465:184|446:174|446:174|415:195|415:195|388:160|388:160|359:170|338:159,1,170.999995433807,2|0,1:2|1:0,0:0:0:0:
239,116,22095,2,0,L|231:83,2,28.4999992389679,2|0|0,0:0|0:0|0:0,0:0:0:0:
239,64,22253,1,8,0:0:0:0:
212,218,22411,1,0,0:0:0:0:
88,125,22569,2,0,P|124:103|169:108,1,85.4999977169037,0|0,1:0|0:0,0:0:0:0:
195,310,22884,6,0,P|134:264|138:171,1,170.999995433807,2|0,1:2|1:0,0:0:0:0:
135,175,23358,1,0,0:0:0:0:
296,206,23516,2,0,L|197:219,1,85.4999977169037,8|0,0:0|0:0,0:0:0:0:
342,132,23832,2,0,L|427:145,1,85.4999977169037,0|0,1:2|0:0,0:0:0:0:
378,227,24148,6,0,B|359:165|386:109|386:109|350:136|311:138,1,170.999995433807,2|0,1:2|1:0,0:0:0:0:
214,161,24621,2,0,P|228:162|242:160,2,28.4999992389679,2|0|0,0:0|0:0|0:0,0:0:0:0:
181,135,24779,2,0,B|212:72|151:78|181:11,1,128.249996575356,8|0,0:0|0:0,0:0:0:0:
144,29,25095,2,0,P|170:-7|186:54,1,128.249996575356,0|0,1:0|0:0,0:0:0:0:
144,29,25411,5,2,1:2:0:0:
181,135,25569,1,0,0:0:0:0:
59,194,25726,1,0,1:2:0:0:
90,100,25884,1,0,0:0:0:0:
164,244,26042,2,0,B|264:208|228:292|332:248,1,170.999995433807,8|0,0:0|1:0,0:0:0:0:
326,250,26516,1,0,0:0:0:0:
305,101,26674,6,0,P|283:138|296:196,1,85.4999977169037,2|0,1:2|0:0,0:0:0:0:
382,124,26990,2,0,P|385:82|363:45,1,85.4999977169037,0|2,1:0|0:0,0:0:0:0:
323,26,27200,2,0,P|352:32|369:32,1,28.4999992389679
305,101,27305,2,0,B|259:95|236:54|236:54|199:93|147:87,1,170.999995433807,8|0,0:0|1:0,0:0:0:0:
161,87,27937,6,0,B|167:122|168:151|168:151|199:186|199:186|199:218|207:260,1,170.999995433807,2|0,1:2|1:0,0:0:0:0:
204,245,28411,1,0,0:0:0:0:
87,250,28569,2,0,P|119:230|211:252,1,128.249996575356,8|0,0:0|0:0,0:0:0:0:
204,245,28884,2,0,P|224:284|222:344,1,85.4999977169037,0|0,1:2|0:0,0:0:0:0:
337,224,29200,6,0,P|314:162|346:106,1,128.249996575356,2|0,1:2|0:0,0:0:0:0:
340,110,29516,2,0,P|300:124|261:111,1,85.4999977169037,0|2,1:0|0:0,0:0:0:0:
161,22,29832,2,0,B|121:116|197:96|159:187,1,170.999995433807,8|0,0:0|1:0,0:0:0:0:
454,227,30463,6,0,P|396:205|333:226,1,125.999996154785,2|0,0:0|0:0,0:0:0:0:
233,189,30937,2,0,P|292:171|350:192,1,125.999996154785,2|0,0:0|0:0,0:0:0:0:
464,130,31411,2,0,P|463:74|482:49,1,62.9999980773926,2|0,0:0|0:0,0:0:0:0:
345,80,31726,6,0,P|372:135|349:193,1,125.999996154785,2|0,0:0|0:0,0:0:0:0:
354,304,32200,2,0,P|327:249|350:191,1,125.999996154785,2|0,0:0|0:0,0:0:0:0:
465,243,32674,2,0,P|407:243|382:259,1,62.9999980773926,0|0,0:0|0:0,0:0:0:0:
305,357,32990,5,2,0:0:0:0:
305,357,33305,1,0,0:0:0:0:
349,191,33463,2,0,B|313:184|289:202|289:202|263:223|229:217,2,125.999996154785,2|2|0,0:0|0:0|0:0,0:0:0:0:
445,137,34253,6,0,P|470:78|443:27,1,125.999996154785,2|0,0:0|0:0,0:0:0:0:
442,26,34726,1,2,0:0:0:0:
442,26,35042,1,4,0:3:0:0:
227,108,35200,2,0,P|179:109|212:42,1,141.749995674133,12|0,0:0|0:0,0:0:0:0:
197,41,35516,5,0,1:0:0:0:
218,282,35674,1,0,1:0:0:0:
267,211,35832,2,0,P|228:193|182:204,1,85.4999977169037,8|0,0:0|3:0,0:0:0:0:
92,283,36148,1,0,1:0:0:0:
92,283,36305,1,8,0:3:0:0:
142,98,36463,1,8,0:0:0:0:
227,287,36621,6,0,P|266:305|307:298,1,85.4999977169037,0|0,0:0|1:0,0:0:0:0:
421,189,36937,1,0,1:0:0:0:
355,110,37095,2,0,P|327:143|322:185,1,85.4999977169037,8|8,0:0|0:3,0:0:0:0:
476,271,37411,1,0,1:0:0:0:
476,271,37569,1,0,3:0:0:0:
445,76,37726,2,0,P|405:32|319:32,1,128.249996575356,8|0,0:0|0:0,0:0:0:0:
339,24,38042,5,0,1:0:0:0:
349,277,38200,1,0,1:0:0:0:
402,197,38358,2,0,P|364:179|304:195,1,85.4999977169037,8|0,0:0|3:0,0:0:0:0:
186,298,38674,1,0,1:0:0:0:
200,184,38832,1,8,0:3:0:0:
212,66,38990,1,8,0:0:0:0:
212,66,39305,5,0,1:0:0:0:
212,66,39463,1,8,0:3:0:0:
186,298,39621,5,0,1:0:0:0:
212,66,39779,1,0,3:0:0:0:
53,234,39937,1,0,1:0:0:0:
302,199,40095,1,8,0:3:0:0:
84,81,40253,1,0,1:0:0:0:
302,199,40411,5,0,3:0:0:0:
310,204,40490,1,0,1:0:0:0:
318,210,40569,2,0,B|332:177|315:149|315:149|299:118|314:84,1,125.999996154785,4|0,0:0|0:0,0:0:0:0:
381,0,41042,2,0,B|367:33|384:61|384:61|400:92|385:126,1,125.999996154785,2|0,0:0|0:0,0:0:0:0:
318,210,41516,2,0,P|256:209|232:192,1,62.9999980773926,2|0,0:0|0:0,0:0:0:0:
183,82,41832,6,0,B|255:54|245:117|312:87,1,135,2|0,0:0|0:0,0:0:0:0:
311,88,42463,2,0,P|297:116|301:153,1,62.9999980773926,2|0,0:0|0:0,0:0:0:0:
392,213,42779,2,0,P|406:185|402:148,1,62.9999980773926,2|0,0:0|0:0,0:0:0:0:
253,308,43095,6,0,B|289:316|312:301|312:301|334:318|350:334|350:334|361:316|379:296|379:296|410:315|451:304,1,225,2|0,0:0|0:0,0:0:0:0:
443,306,44042,2,0,P|453:275|441:244,1,62.9999980773926,2|0,0:0|0:0,0:0:0:0:
350,166,44358,5,2,0:0:0:0:
290,123,44674,1,0,0:0:0:0:
354,95,44990,2,0,P|411:126|415:206,1,135,2|0,0:0|0:0,0:0:0:0:
421,190,45621,5,0,1:0:0:0:
196,155,45779,1,0,1:0:0:0:
290,123,45937,2,0,P|305:162|291:202,1,85.4999977169037,8|0,0:0|3:0,0:0:0:0:
164,255,46253,1,0,1:0:0:0:
164,255,46411,1,8,0:3:0:0:
226,70,46569,1,8,0:0:0:0:
291,282,46726,6,0,P|279:239|293:198,1,85.4999977169037,0|0,0:0|1:0,0:0:0:0:
423,92,47042,1,0,1:0:0:0:
497,137,47200,2,0,P|469:171|415:175,1,85.4999977169037,8|8,0:0|0:3,0:0:0:0:
308,67,47516,1,0,1:0:0:0:
308,67,47674,1,0,3:0:0:0:
369,311,47832,2,0,P|383:271|366:232,1,85.4999977169037,8|0,0:0|0:0,0:0:0:0:
121,148,48148,5,0,1:0:0:0:
292,278,48305,1,0,1:0:0:0:
253,190,48463,2,0,P|211:215|197:259,1,85.4999977169037,8|0,0:0|3:0,0:0:0:0:
254,380,48779,1,0,1:0:0:0:
348,171,48937,5,8,0:3:0:0:
348,171,49016,1,0,1:0:0:0:
348,171,49095,2,0,P|325:130|278:116,1,85.4999977169037,8|0,0:0|1:0,0:0:0:0:
427,73,49332,5,0,1:0:0:0:
427,73,49411,2,0,P|362:122|352:206,1,135,8|0,0:0|0:0,0:0:0:0:
348,171,49726,5,8,0:0:0:0:
64,137,49884,1,8,0:3:0:0:
376,238,50042,5,8,0:0:0:0:
34,201,50200,1,0,3:0:0:0:
397,312,50358,6,0,L|292:304,1,90,8|8,0:0|0:3,0:0:0:0:
16,270,50674,5,4,0:0:0:0:
325,106,50832,1,8,0:0:0:0:
69,68,51148,5,4,0:0:0:0:
307,305,51306,1,0,1:0:0:0:
16,270,51621,5,4,0:0:0:0:
325,106,51779,2,0,P|374:107|417:138,1,90,8|2,0:0|0:0,0:0:0:0:
417,211,52016,5,0,1:0:0:0:
417,211,52095,2,0,P|372:211|332:190,1,90,8|4,0:0|0:3,0:0:0:0:
256,67,52490,5,0,1:0:0:0:
256,67,52569,2,0,B|216:144|292:124|245:222,1,135,4|0,0:0|0:0,0:0:0:0:
255,196,52884,6,0,P|227:189|211:188,2,30,4|0|0,0:0|0:0|0:0,0:0:0:0:
255,196,53042,6,0,P|283:203|299:204,2,30,2|0|0,0:0|0:0|0:0,0:0:0:0:
255,196,53200,6,0,P|221:254|247:320,1,141.749995674133,0|0,1:0|0:0,0:0:0:0:
246,319,53516,1,8,0:0:0:0:
337,158,53674,2,0,P|309:120|265:107,1,94.499997116089,0|0,3:0|1:0,0:0:0:0:
115,187,53990,1,8,0:3:0:0:
155,4,54148,1,8,0:0:0:0:
115,187,54305,6,0,P|74:214|21:210,1,94.499997116089,4|0,0:0|0:0,0:0:0:0:
255,196,54621,2,0,P|299:217|322:282,1,94.499997116089,8|8,0:3|0:0,0:0:0:0:
207,72,54937,1,0,3:0:0:0:
180,285,55095,5,0,1:0:0:0:
207,72,55253,1,8,0:3:0:0:
180,285,55411,2,0,L|168:378,1,94.499997116089,8|0,0:0|3:0,0:0:0:0:
167,378,55648,1,0,3:0:0:0:
167,378,55726,5,0,1:0:0:0:
319,254,55884,1,8,0:3:0:0:
207,72,56042,2,0,P|179:116|190:176,1,94.499997116089,8|0,0:0|0:0,0:0:0:0:
319,254,56358,5,0,1:0:0:0:
293,15,56516,1,8,0:3:0:0:
96,129,56674,2,0,P|135:156|187:154,1,94.499997116089,8|0,0:0|3:0,0:0:0:0:
403,55,56990,5,4,0:0:0:0:
403,55,57148,1,8,0:3:0:0:
319,254,57305,2,0,P|303:210|323:168,1,94.499997116089,8|0,0:0|3:0,0:0:0:0:
322,168,57542,1,0,0:0:0:0:
322,168,57621,1,8,0:3:0:0:
260,355,57779,1,8,0:3:0:0:
453,250,57937,2,0,B|373:216|403:290|305:248,1,141.749995674133,8|0,0:0|3:0,0:0:0:0:
318,253,58253,5,12,0:0:0:0:
351,6,58411,1,0,1:0:0:0:
336,26,58726,6,0,L|269:20,1,53.9999983520508,0|0,1:0|0:0,0:0:0:0:
130,84,59042,2,0,L|201:88,1,53.9999983520508,0|0,1:0|0:0,0:0:0:0:
397,98,59358,6,0,P|425:158|390:230,1,141.749995674133,4|0,0:1|0:0,0:0:0:0:
397,223,59674,1,8,0:3:0:0:
255,190,59832,2,0,P|292:161|346:163,1,94.499997116089,8|0,0:0|0:0,0:0:0:0:
320,234,60069,5,0,0:0:0:0:
320,234,60148,1,8,0:3:0:0:
284,90,60305,1,8,0:3:0:0:
320,234,60463,2,0,L|306:335,1,94.499997116089,8|0,0:0|3:0,0:0:0:0:
397,98,60779,5,4,0:1:0:0:
237,211,60937,1,0,1:0:0:0:
207,207,61015,1,0,1:0:0:0:
178,203,61094,1,0,1:0:0:0:
26,118,61253,6,0,L|13:70,1,47.2499985580445,4|0,0:1|1:0,0:0:0:0:
92,186,61411,1,0,1:0:0:0:
102,219,61489,1,0,1:0:0:0:
93,253,61569,1,4,0:1:0:0:
82,286,61647,1,4,0:3:0:0:
89,320,61726,1,4,0:3:0:0:
313,282,61884,6,0,B|239:251|259:323|167:285,1,141.749995674133,4|0,0:1|0:0,0:0:0:0:
178,289,62200,1,8,0:3:0:0:
386,234,62358,2,0,P|407:278|388:336,1,94.499997116089,8|8,0:0|0:3,0:0:0:0:
393,326,62595,1,0,1:0:0:0:
383,330,62674,1,8,0:0:0:0:
321,160,62832,6,0,P|361:140|395:144,1,47.2499985580445,0|0,1:0|1:0,0:0:0:0:
482,61,62990,1,0,1:0:0:0:
437,74,63068,1,0,1:0:0:0:
395,56,63147,1,4,0:3:0:0:
354,36,63226,1,0,1:0:0:0:
310,50,63305,5,12,0:2:0:0:
331,278,63463,1,0,1:0:0:0:
161,161,63621,2,0,P|191:122|243:114,1,94.499997116089,8|0,0:0|1:0,0:0:0:0:
422,192,63937,5,8,0:0:0:0:
239,258,64095,1,0,1:0:0:0:
310,50,64253,2,0,P|334:91|321:143,1,94.499997116089,8|8,0:0|0:3,0:0:0:0:
321,141,64490,1,8,0:3:0:0:
313,148,64569,5,8,0:0:0:0:
507,75,64726,1,8,0:3:0:0:
313,148,64884,2,0,L|219:135,1,94.499997116089,8|0,0:0|1:0,0:0:0:0:
71,42,65200,5,8,0:0:0:0:
112,248,65358,1,8,0:3:0:0:
71,42,65516,2,0,P|49:86|64:144,1,94.499997116089,8|8,0:0|0:3,0:0:0:0:
58,135,65753,1,8,0:3:0:0:
63,142,65832,5,8,0:0:0:0:
246,59,65990,1,8,0:3:0:0:
213,265,66148,2,0,P|191:223|205:165,1,94.499997116089,8|8,0:0|0:3,0:0:0:0:
303,286,66463,5,8,0:0:0:0:
286,329,66541,1,0,0:0:0:0:
249,358,66620,1,8,0:3:0:0:
203,363,66699,1,8,0:3:0:0:
161,342,66778,1,0,1:0:0:0:
124,314,66857,1,0,1:0:0:0:
78,306,66936,1,0,1:0:0:0:
34,322,67015,1,8,0:3:0:0:
3,359,67095,6,0,P|27:298|-5:242,1,128.249996575356,4|0,0:0|0:0,0:0:0:0:
0,245,67411,1,8,0:3:0:0:
137,116,67569,2,0,P|115:177|141:237,1,128.249996575356,0|0,1:0|0:0,0:0:0:0:
137,233,67884,1,8,0:3:0:0:
326,167,68042,2,0,B|252:140|283:202|198:173,1,128.249996575356,0|0,1:0|0:0,0:0:0:0:
204,175,68358,5,0,1:0:0:0:
408,91,68516,1,8,0:3:0:0:
328,276,68674,2,0,P|305:228|333:159,1,121.499996292114,0|0,3:0|0:0,0:0:0:0:
325,166,68990,2,0,P|366:160|409:178,1,80.9999975280763,8|8,0:0|0:3,0:0:0:0:
479,265,69305,1,0,3:0:0:0:
491,89,69463,5,0,1:0:0:0:
491,89,69542,1,0,1:0:0:0:
491,89,69621,1,0,1:0:0:0:
479,265,69779,1,8,0:3:0:0:
325,166,69937,2,0,B|258:136|272:198|190:156,1,121.499996292114,0|0,3:0|0:0,0:0:0:0:
208,164,70253,2,0,P|220:206|201:257,1,80.9999975280763,8|0,0:0|3:0,0:0:0:0:
204,352,70490,2,0,P|186:295|210:241,1,121.499996292114,0|0,3:0|3:0,0:0:0:0:
217,238,70805,1,0,1:0:0:0:
227,236,70884,6,0,P|174:281|75:253,1,161.999995056153,0|0,1:0|3:0,0:0:0:0:
88,265,71358,1,0,0:0:0:0:
151,69,71516,2,0,B|175:133|122:124|149:194,1,121.499996292114,8|0,0:0|3:0,0:0:0:0:
146,186,71832,2,0,P|108:177|79:175,1,40.4999987640381,0|0,1:0|1:0,0:0:0:0:
227,236,71990,2,0,P|266:230|295:232,1,40.4999987640381,0|0,1:0|0:0,0:0:0:0:
425,213,72148,5,8,0:3:0:0:
435,240,72226,1,0,0:0:0:0:
428,269,72305,1,0,1:0:0:0:
415,296,72383,1,0,1:0:0:0:
417,326,72462,1,8,0:0:0:0:
356,246,72621,1,8,0:3:0:0:
432,352,72779,5,4,1:2:0:0:
415,180,72937,1,8,0:3:0:0:
269,286,73095,2,0,B|205:262|220:325|140:284,1,121.499996292114,4|8,1:2|0:3,0:0:0:0:
152,290,73411,5,0,1:0:0:0:
134,85,73569,1,8,0:0:0:0:
217,172,73726,2,0,P|186:199|100:195,1,121.499996292114,8|0,0:3|0:0,0:0:0:0:
108,199,74042,1,12,0:0:0:0:
134,85,74200,1,8,0:3:0:0:
217,172,74358,2,0,P|255:184|301:172,1,80.9999975280763,0|0,3:0|3:0,0:0:0:0:
412,69,74674,5,0,1:0:0:0:
391,236,74832,2,0,L|377:333,1,80.9999975280763,8|8,0:3|0:0,0:0:0:0:
379,316,75305,5,4,0:0:0:0:
391,236,75463,1,8,0:3:0:0:
259,298,75621,2,0,L|175:289,1,80.9999975280763,0|8,1:0|0:3,0:0:0:0:
110,182,75937,6,0,P|166:215|174:298,1,144,8|8,0:0|0:3,0:0:0:0:
54,305,76411,2,0,P|83:271|117:261,1,72,8|4,0:0|0:3,0:0:0:0:
274,188,76726,1,8,0:3:0:0:
274,188,76884,2,0,P|238:176|209:142,1,72,8|0,0:0|3:0,0:0:0:0:
175,22,77200,5,8,0:0:0:0:
350,124,77358,1,4,0:3:0:0:
182,226,77516,1,8,0:3:0:0:
186,8,77674,5,8,0:0:0:0:
369,128,77832,1,4,0:3:0:0:
169,213,77990,1,8,0:3:0:0:
394,136,78148,2,0,P|414:187|388:247,1,108,8|0,0:0|0:0,0:0:0:0:
398,235,78463,6,0,L|439:242,3,36,8|0|0|0,0:0|1:0|1:0|1:0,0:0:0:0:
466,305,78779,2,0,L|512:311,1,36,0|0,1:0|1:0,0:0:0:0:
359,335,78937,6,0,L|316:330,3,36,8|0|0|0,0:0|1:0|1:0|1:0,0:0:0:0:
268,273,79253,2,0,L|221:268,1,36,0|0,1:0|1:0,0:0:0:0:
79,257,79411,5,8,0:0:0:0:
57,228,79489,1,8,0:3:0:0:
48,194,79568,1,0,1:0:0:0:
55,158,79647,1,8,0:3:0:0:
75,129,79726,6,0,L|169:121,1,90,4|0,0:0|1:0,0:0:0:0:
358,104,80042,1,8,0:3:0:0:
255,8,80200,2,0,B|222:97|309:84|261:184,1,180,12|8,0:0|0:3,0:0:0:0:
185,305,80674,6,0,P|228:285|288:300,1,90,12|0,0:0|1:0,0:0:0:0:
414,364,80990,1,8,0:3:0:0:
405,166,81148,2,0,P|349:226|357:308,1,135,12|0,0:0|0:0,0:0:0:0:
345,275,81463,1,8,0:3:0:0:
295,169,81621,5,12,0:0:0:0:
429,250,81779,1,8,0:3:0:0:
295,169,81937,2,0,B|222:139|253:204|166:170,1,135,12|0,0:0|0:0,0:0:0:0:
166,170,82253,5,12,0:0:0:0:
134,10,82411,1,0,1:0:0:0:
289,72,82569,1,8,0:3:0:0:
99,138,82726,2,0,P|154:94|227:107,1,135,12|0,0:0|0:0,0:0:0:0:
214,99,83042,1,8,0:3:0:0:
272,272,83200,5,12,0:0:0:0:
171,174,83358,1,0,1:0:0:0:
140,311,83516,1,8,0:3:0:0:
277,208,83674,5,12,0:0:0:0:
103,239,83832,1,0,1:0:0:0:
216,374,83990,1,8,0:3:0:0:
219,104,84148,5,12,0:0:0:0:
219,104,84779,6,0,B|250:106|274:90|274:90|300:104|317:117|317:117|325:97|340:71|340:71|371:86|405:73,1,215.999993408203,4|0,1:1|0:0,0:0:0:0:
401,83,85884,5,8,0:3:0:0:
401,83,85963,1,8,0:3:0:0:
401,83,86042,1,0,1:0:0:0:
365,307,86200,1,0,1:0:0:0:
289,20,86358,5,0,1:0:0:0:
236,331,86516,1,0,1:0:0:0:
475,223,86674,5,0,1:0:0:0:
190,181,86832,2,0,P|251:165|316:201,1,125.999996154785,4|0,0:0|0:0,0:0:0:0:
306,190,87305,5,2,0:0:0:0:
306,60,87463,1,0,0:0:0:0:
306,60,87779,2,0,B|270:136|340:125|299:205,1,135.000005149842,2|0,0:0|0:0,0:0:0:0:
384,108,88253,2,0,P|408:108|425:114,3,22.5000008583069,2|0|0|0,0:0|0:0|0:0|0:0,0:0:0:0:
486,151,88569,5,0,3:0:0:0:
