osu file format v14

[General]
AudioFilename: audio.mp3
AudioLeadIn: 0
PreviewTime: 64946
Countdown: 0
SampleSet: Soft
StackLeniency: 0.2
Mode: 0
LetterboxInBreaks: 0
WidescreenStoryboard: 0

[Editor]
Bookmarks: 21162,41919,47108,52286,57487,62665,65270,91216,92514,100297,121054,141811,147000,152178,157378,162557,167757,170351,196297,197595,206676,217054,227433,230027,245595,250784,257270,261162,287108,296189,316946,337703
DistanceSpacing: 0.25
BeatDivisor: 4
GridSize: 32
TimelineZoom: 2

[Metadata]
Title:Redo (LU-I Remix)
TitleUnicode:Redo (LU-I Remix)
Artist:Suzuki Konomi
ArtistUnicode:鈴木このみ
Creator:Ohwow
Version:Re:Mix
Source:Re:ゼロから始める異世界生活
Tags:Re:Zero kara Hajimeru Isekai Seikatsu Re: Life in a different world from zero opening anime A-Remix Nation 14 hardcore japanese hardstyle Starting Life in Another World
BeatmapID:2456930
BeatmapSetID:1178098

[Difficulty]
HPDrainRate:6
CircleSize:4
OverallDifficulty:9.2
ApproachRate:9.4
SliderMultiplier:2
SliderTickRate:1

[Events]
//Background and Video events
0,0,"emilia.jpg",0,0
//Break Periods
2,230183,245011
//Storyboard Layer 0 (Background)
//Storyboard Layer 1 (Fail)
//Storyboard Layer 2 (Pass)
//Storyboard Layer 3 (Foreground)
//Storyboard Layer 4 (Overlay)
//Storyboard Sound Samples

[TimingPoints]
362,324.324324324324,4,2,1,50,1,0
362,-125,4,2,1,50,0,0
9443,-66.6666666666667,4,2,1,50,0,0
9929,-100,4,2,1,50,0,0
10172,-100,4,2,1,5,0,0
10253,-100,4,2,1,50,0,0
10416,-50,4,2,1,50,0,0
10740,-83.3333333333333,4,2,1,70,0,0
10902,-83.3333333333333,4,2,1,5,0,0
11064,-83.3333333333333,4,2,1,70,0,0
11226,-83.3333333333333,4,2,1,5,0,0
11389,-83.3333333333333,4,2,1,70,0,0
11551,-83.3333333333333,4,2,1,5,0,0
11632,-83.3333333333333,4,2,1,70,0,0
12199,-83.3333333333333,4,2,1,5,0,0
12361,-83.3333333333333,4,2,1,70,0,0
12524,-83.3333333333333,4,2,1,5,0,0
12686,-83.3333333333333,4,2,1,70,0,0
12848,-83.3333333333333,4,2,1,5,0,0
12929,-83.3333333333333,4,2,1,70,0,0
13497,-83.3333333333333,4,2,1,5,0,0
13659,-83.3333333333333,4,2,1,70,0,0
13821,-83.3333333333333,4,2,1,5,0,0
13983,-83.3333333333333,4,2,1,70,0,0
14145,-83.3333333333333,4,2,1,5,0,0
14226,-83.3333333333333,4,2,1,70,0,0
14794,-83.3333333333333,4,2,1,5,0,0
14956,-83.3333333333333,4,2,1,70,0,0
15118,-83.3333333333333,4,2,1,5,0,0
15280,-83.3333333333333,4,2,1,70,0,0
15361,-83.3333333333333,4,2,1,5,0,0
15443,-83.3333333333333,4,2,1,70,0,0
15524,-83.3333333333333,4,2,1,5,0,0
15605,-83.3333333333333,4,2,1,70,0,0
16010,-83.3333333333333,4,2,1,5,0,0
16091,-83.3333333333333,4,2,1,70,0,0
16172,-83.3333333333333,4,2,1,5,0,0
16253,-83.3333333333333,4,2,1,70,0,0
17307,-83.3333333333333,4,2,1,5,0,0
17389,-83.3333333333333,4,2,1,70,0,0
17470,-83.3333333333333,4,2,1,5,0,0
17551,-83.3333333333333,4,2,1,70,0,0
20794,-50,4,2,3,80,0,0
21037,-50,4,2,1,5,0,0
21118,-71.4285714285714,4,2,1,65,0,0
21767,-90.9090909090909,4,2,1,65,0,0
22416,-125,4,2,1,65,0,0
23713,-71.4285714285714,4,2,1,65,0,0
24361,-90.9090909090909,4,2,1,65,0,0
25010,-125,4,2,1,65,0,0
25659,-100,4,2,1,65,0,0
26307,-83.3333333333333,4,2,1,65,0,0
28902,-71.4285714285714,4,2,1,65,0,0
29551,-90.9090909090909,4,2,1,65,0,0
30199,-125,4,2,1,65,0,0
30848,-250,4,2,1,65,0,0
31497,-62.5,4,2,1,70,0,0
32145,-83.3333333333333,4,2,1,70,0,0
32794,-125,4,2,1,70,0,0
33443,-100,4,2,1,70,0,0
34091,-62.5,4,2,1,70,0,0
34740,-83.3333333333333,4,2,1,70,0,0
35389,-125,4,2,1,70,0,0
36037,-100,4,2,1,70,0,0
36686,-83.3333333333333,4,2,1,70,0,0
39280,-62.5,4,2,1,70,0,0
39929,-83.3333333333333,4,2,1,70,0,0
40578,-125,4,2,1,70,0,0
40902,-83.3333333333333,4,2,1,70,0,0
41875,-166.666666666667,4,2,1,50,0,0
47064,-83.3333333333333,4,2,1,75,0,0
52253,-166.666666666667,4,2,1,50,0,0
57443,-125,4,2,1,60,0,0
60037,-125,4,2,1,30,0,0
60361,-100,4,2,1,35,0,0
60686,-83.3333333333333,4,2,1,40,0,0
61010,-71.4285714285714,4,2,1,45,0,0
61334,-100,4,2,1,50,0,0
61983,-100,4,2,1,55,0,0
62632,-100,4,2,1,80,0,0
64416,-166.666666666667,4,2,1,60,0,0
65226,-76.9230769230769,4,2,1,80,0,1
75280,-111.111111111111,4,2,1,80,0,1
75524,-111.111111111111,4,2,1,5,0,1
75605,-71.4285714285714,4,2,1,80,0,1
75767,-71.4285714285714,4,2,1,5,0,1
75929,-71.4285714285714,4,2,1,80,0,1
76091,-71.4285714285714,4,2,1,5,0,1
76253,-71.4285714285714,4,2,1,80,0,1
76416,-71.4285714285714,4,2,1,5,0,1
76497,-71.4285714285714,4,2,1,80,0,1
77064,-71.4285714285714,4,2,1,5,0,1
77226,-71.4285714285714,4,2,1,80,0,1
77389,-71.4285714285714,4,2,1,5,0,1
77551,-71.4285714285714,4,2,1,80,0,1
77713,-71.4285714285714,4,2,1,5,0,1
77794,-71.4285714285714,4,2,1,80,0,1
78361,-71.4285714285714,4,2,1,5,0,1
78524,-71.4285714285714,4,2,1,80,0,1
78686,-71.4285714285714,4,2,1,5,0,1
78848,-71.4285714285714,4,2,1,80,0,1
79010,-71.4285714285714,4,2,1,5,0,1
79091,-71.4285714285714,4,2,1,80,0,1
79659,-71.4285714285714,4,2,1,5,0,1
79821,-71.4285714285714,4,2,1,80,0,1
79983,-71.4285714285714,4,2,1,5,0,1
80145,-71.4285714285714,4,2,1,80,0,1
80226,-71.4285714285714,4,2,1,5,0,1
80307,-71.4285714285714,4,2,1,80,0,1
80389,-71.4285714285714,4,2,1,5,0,1
80470,-71.4285714285714,4,2,1,80,0,1
85659,-71.4285714285714,4,2,3,80,0,1
85983,-71.4285714285714,4,2,2,80,0,1
90767,-71.4285714285714,4,2,1,5,0,1
90848,-71.4285714285714,4,2,2,80,0,1
90929,-71.4285714285714,4,2,1,5,0,1
91010,-71.4285714285714,4,2,2,80,0,1
91091,-71.4285714285714,4,2,1,5,0,1
91172,-200,4,2,1,80,0,0
92470,-166.666666666667,4,2,1,50,0,0
95064,-125,4,2,1,55,0,0
97010,-100,4,2,1,55,0,0
97659,-100,4,2,1,60,0,0
97983,-100,4,2,1,65,0,0
98307,-100,4,2,1,70,0,0
98632,-100,4,2,1,75,0,0
98956,-100,4,2,1,80,0,0
100253,-66.6666666666667,4,2,1,85,0,1
110551,-66.6666666666667,4,2,1,5,0,1
110632,-66.6666666666667,4,2,1,85,0,1
118416,-66.6666666666667,4,2,1,80,0,1
119064,-66.6666666666667,4,2,1,75,0,1
119713,-66.6666666666667,4,2,1,70,0,1
120037,-66.6666666666667,4,2,1,66,0,1
120361,-66.6666666666667,4,2,1,63,0,1
120686,-50,4,2,3,80,0,1
120929,-50,4,2,3,5,0,1
121010,-100,4,2,1,60,0,0
121659,-125,4,2,1,60,0,0
122307,-166.666666666667,4,2,1,60,0,0
123605,-100,4,2,1,60,0,0
124253,-125,4,2,1,60,0,0
124902,-166.666666666667,4,2,1,60,0,0
125551,-125,4,2,1,60,0,0
126199,-100,4,2,1,60,0,0
128794,-100,4,2,1,60,0,0
129442,-125,4,2,1,60,0,0
130091,-166.666666666667,4,2,1,60,0,0
130740,-285.714285714286,4,2,1,60,0,0
131389,-62.5,4,2,1,70,0,0
132037,-83.3333333333333,4,2,1,70,0,0
132686,-125,4,2,1,70,0,0
133334,-100,4,2,1,70,0,0
133983,-62.5,4,2,1,70,0,0
134632,-83.3333333333333,4,2,1,70,0,0
135280,-125,4,2,1,70,0,0
135929,-100,4,2,1,70,0,0
136578,-83.3333333333333,4,2,1,70,0,0
139172,-62.5,4,2,1,70,0,0
139821,-83.3333333333333,4,2,1,70,0,0
140469,-125,4,2,1,70,0,0
140794,-83.3333333333333,4,2,1,70,0,0
141767,-166.666666666667,4,2,1,50,0,0
146956,-83.3333333333333,4,2,1,70,0,0
148172,-83.3333333333333,4,2,1,5,0,0
148253,-83.3333333333333,4,2,1,70,0,0
149470,-83.3333333333333,4,2,1,5,0,0
149551,-83.3333333333333,4,2,1,70,0,0
150767,-83.3333333333333,4,2,1,5,0,0
150848,-83.3333333333333,4,2,1,70,0,0
152145,-166.666666666667,4,2,1,50,0,0
156929,-166.666666666667,4,2,1,5,0,0
157010,-83.3333333333333,4,2,1,70,0,0
157253,-83.3333333333333,4,2,1,5,0,0
157334,-83.3333333333333,4,2,4,70,0,0
162524,-83.3333333333333,4,2,5,70,0,0
167389,-50,4,2,5,75,0,0
167713,-100,4,2,1,80,0,0
169010,-100,4,2,1,50,0,0
169497,-100,4,2,3,60,0,0
169659,-100,4,2,3,70,0,0
169983,-66.6666666666667,4,2,1,70,0,0
170226,-66.6666666666667,4,2,1,5,0,0
170307,-76.9230769230769,4,2,4,80,0,1
175253,-76.9230769230769,4,2,4,5,0,1
175334,-76.9230769230769,4,2,4,80,0,1
175416,-76.9230769230769,4,2,4,5,0,1
175497,-76.9230769230769,4,2,4,80,0,1
179551,-125,4,2,4,80,0,1
180686,-71.4285714285714,4,2,4,80,0,1
180848,-71.4285714285714,4,2,4,5,0,1
181010,-71.4285714285714,4,2,4,80,0,1
181172,-71.4285714285714,4,2,4,5,0,1
181334,-71.4285714285714,4,2,4,80,0,1
181497,-71.4285714285714,4,2,4,5,0,1
181578,-71.4285714285714,4,2,4,80,0,1
182145,-71.4285714285714,4,2,4,5,0,1
182307,-71.4285714285714,4,2,4,80,0,1
182470,-71.4285714285714,4,2,4,5,0,1
182632,-71.4285714285714,4,2,4,80,0,1
182794,-71.4285714285714,4,2,4,5,0,1
182875,-71.4285714285714,4,2,4,80,0,1
183443,-71.4285714285714,4,2,4,5,0,1
183605,-71.4285714285714,4,2,4,80,0,1
183767,-71.4285714285714,4,2,4,5,0,1
183929,-71.4285714285714,4,2,4,80,0,1
184091,-71.4285714285714,4,2,4,5,0,1
184172,-71.4285714285714,4,2,4,80,0,1
184740,-71.4285714285714,4,2,4,5,0,1
184902,-71.4285714285714,4,2,4,80,0,1
185064,-71.4285714285714,4,2,4,5,0,1
185226,-71.4285714285714,4,2,4,80,0,1
185307,-71.4285714285714,4,2,4,5,0,1
185389,-71.4285714285714,4,2,4,80,0,1
185875,-71.4285714285714,4,2,4,80,0,1
190740,-71.4285714285714,4,2,3,80,0,1
191064,-71.4285714285714,4,2,5,80,0,1
195686,-71.4285714285714,4,2,5,5,0,1
195767,-71.4285714285714,4,2,5,80,0,1
195848,-71.4285714285714,4,2,5,5,0,1
195929,-71.4285714285714,4,2,5,80,0,1
196010,-71.4285714285714,4,2,5,5,0,1
196091,-71.4285714285714,4,2,5,80,0,1
196172,-71.4285714285714,4,2,5,5,0,1
196253,-200,4,2,4,70,0,0
197551,-166.666666666667,4,2,4,50,0,0
200145,-142.857142857143,4,2,4,55,0,0
200794,-125,4,2,4,55,0,0
201443,-111.111111111111,4,2,4,55,0,0
202091,-100,4,2,4,55,0,0
202740,-100,4,2,4,60,0,0
203064,-83.3333333333333,4,2,4,65,0,0
203389,-71.4285714285714,4,2,4,70,0,0
203713,-62.5,4,2,4,75,0,0
204037,-100,4,2,4,80,0,0
206307,-100,4,2,4,5,0,0
206632,-62.5,4,2,2,85,0,1
207037,-62.5,4,2,2,5,0,1
207118,-62.5,4,2,2,85,0,1
207280,-55.5555555555556,4,2,2,85,0,1
207443,-55.5555555555556,4,2,2,5,0,1
207524,-55.5555555555556,4,2,2,85,0,1
207767,-55.5555555555556,4,2,2,5,0,1
207848,-55.5555555555556,4,2,2,85,0,1
208010,-55.5555555555556,4,2,2,5,0,1
208091,-55.5555555555556,4,2,2,85,0,1
208497,-55.5555555555556,4,2,2,5,0,1
208578,-50,4,2,2,85,0,1
208740,-100,4,2,2,85,0,1
209226,-62.5,4,2,2,85,0,1
209632,-62.5,4,2,2,5,0,1
209713,-62.5,4,2,2,85,0,1
209875,-50,4,2,2,85,0,1
210524,-100,4,2,2,85,0,1
211172,-55.5555555555556,4,2,2,85,0,1
211416,-55.5555555555556,4,2,2,5,0,1
211497,-45.4545454545455,4,2,2,85,0,1
211740,-45.4545454545455,4,2,2,5,0,1
211821,-62.5,4,2,2,85,0,1
212226,-62.5,4,2,2,5,0,1
212307,-62.5,4,2,2,85,0,1
212470,-55.5555555555556,4,2,2,85,0,1
212713,-55.5555555555556,4,2,2,5,0,1
212794,-71.4285714285714,4,2,2,85,0,1
213280,-55.5555555555556,4,2,2,85,0,1
213686,-55.5555555555556,4,2,2,5,0,1
213767,-50,4,2,2,85,0,1
213929,-100,4,2,2,85,0,1
214902,-62.5,4,2,2,85,0,1
215064,-50,4,2,2,85,0,1
215307,-50,4,2,2,5,0,1
215389,-50,4,2,2,85,0,1
215875,-71.4285714285714,4,2,2,85,0,1
216361,-55.5555555555556,4,2,2,85,0,1
216605,-55.5555555555556,4,2,2,5,0,1
216686,-100,4,2,2,85,0,1
216929,-100,4,2,2,5,0,1
217010,-71.4285714285714,4,2,1,80,0,0
227389,-71.4285714285714,4,2,1,80,0,0
229983,-71.4285714285714,4,2,1,5,0,0
245551,-250,4,2,1,40,0,0
250740,-166.666666666667,4,2,1,40,0,0
251713,-142.857142857143,4,2,1,40,0,0
252686,-125,4,2,1,40,0,0
253334,-111.111111111111,4,2,1,40,0,0
253821,-111.111111111111,4,2,1,45,0,0
254307,-111.111111111111,4,2,1,50,0,0
254632,-100,4,2,1,55,0,0
255118,-90.9090909090909,4,2,1,50,0,0
255605,-83.3333333333333,4,2,1,65,0,0
255929,-76.9230769230769,4,2,1,70,0,0
256416,-76.9230769230769,4,2,1,75,0,0
256902,-76.9230769230769,4,2,1,80,0,0
261118,-76.9230769230769,4,2,1,80,0,1
271172,-111.111111111111,4,2,1,80,0,1
271416,-111.111111111111,4,2,1,5,0,1
271497,-71.4285714285714,4,2,1,80,0,1
271659,-71.4285714285714,4,2,1,5,0,1
271821,-71.4285714285714,4,2,1,80,0,1
271983,-71.4285714285714,4,2,1,5,0,1
272145,-71.4285714285714,4,2,1,80,0,1
272307,-71.4285714285714,4,2,1,5,0,1
272389,-71.4285714285714,4,2,1,80,0,1
272956,-71.4285714285714,4,2,1,5,0,1
273118,-71.4285714285714,4,2,1,80,0,1
273280,-71.4285714285714,4,2,1,5,0,1
273443,-71.4285714285714,4,2,1,80,0,1
273605,-71.4285714285714,4,2,1,5,0,1
273686,-71.4285714285714,4,2,1,80,0,1
274253,-71.4285714285714,4,2,1,5,0,1
274416,-71.4285714285714,4,2,1,80,0,1
274578,-71.4285714285714,4,2,1,5,0,1
274740,-71.4285714285714,4,2,1,80,0,1
274902,-71.4285714285714,4,2,1,5,0,1
274983,-71.4285714285714,4,2,1,80,0,1
275551,-71.4285714285714,4,2,1,5,0,1
275713,-71.4285714285714,4,2,1,80,0,1
275875,-71.4285714285714,4,2,1,5,0,1
276037,-71.4285714285714,4,2,1,80,0,1
276118,-71.4285714285714,4,2,1,5,0,1
276199,-71.4285714285714,4,2,1,80,0,1
276280,-71.4285714285714,4,2,1,5,0,1
276361,-71.4285714285714,4,2,1,80,0,1
281551,-71.4285714285714,4,2,3,80,0,1
281875,-71.4285714285714,4,2,2,80,0,1
286659,-71.4285714285714,4,2,2,5,0,1
286740,-71.4285714285714,4,2,2,80,0,1
286821,-71.4285714285714,4,2,2,5,0,1
286902,-71.4285714285714,4,2,2,80,0,1
286983,-71.4285714285714,4,2,2,5,0,1
287064,-200,4,2,1,80,0,0
288361,-166.666666666667,4,2,1,50,0,0
290956,-125,4,2,1,55,0,0
292902,-100,4,2,1,55,0,0
293551,-100,4,2,1,60,0,0
293875,-100,4,2,1,65,0,0
294199,-100,4,2,1,70,0,0
294524,-100,4,2,1,75,0,0
294848,-100,4,2,1,80,0,0
296145,-66.6666666666667,4,2,1,85,0,1
306524,-133.333333333333,4,2,1,85,0,0
306929,-133.333333333333,4,2,1,5,0,0
307010,-133.333333333333,4,2,1,85,0,0
307172,-66.6666666666667,4,2,1,85,0,1
314308,-66.6666666666667,4,2,1,80,0,1
314956,-66.6666666666667,4,2,1,75,0,1
315605,-66.6666666666667,4,2,1,70,0,1
315929,-66.6666666666667,4,2,1,66,0,1
316253,-66.6666666666667,4,2,1,63,0,1
316578,-50,4,2,1,80,0,1
316821,-50,4,2,3,5,0,1
316902,-125,4,2,1,60,0,0
337983,-125,4,2,1,5,0,0

[Colours]
Combo1 : 255,206,94
Combo2 : 87,175,247
Combo3 : 255,150,34
Combo4 : 167,129,239
SliderBorder : 255,255,255
SliderTrackOverride : 0,0,0

[HitObjects]
419,318,362,5,10,0:3:0:0:
336,365,524,2,0,L|258:351,1,80,2|8,0:0|0:3,0:0:0:0:
419,318,848,2,0,L|498:331,2,80,2|8|2,0:0|0:3|0:0,0:0:0:0:
360,243,1334,1,10,0:3:0:0:
360,243,1497,1,2,0:0:0:0:
434,107,1659,5,10,0:3:0:0:
377,30,1821,2,0,P|353:61|340:99,1,80,2|8,0:0|0:3,0:0:0:0:
272,167,2145,2,0,P|260:129|235:97,2,80,2|8|2,0:0|0:3|0:0,0:0:0:0:
178,174,2632,1,10,0:3:0:0:
178,174,2794,1,2,0:0:0:0:
98,330,2956,5,10,0:3:0:0:
27,288,3118,2,0,L|35:208,1,80,2|8,0:0|0:3,0:0:0:0:
172,285,3443,2,0,L|180:365,2,80,2|8|2,0:0|0:3|0:0,0:0:0:0:
164,189,3929,1,10,0:3:0:0:
164,189,4091,1,2,0:0:0:0:
73,17,4253,5,10,0:3:0:0:
19,96,4416,2,0,P|55:113|94:112,1,80,2|8,0:0|0:3,0:0:0:0:
173,2,4740,2,0,P|213:0|248:18,2,80,2|8|2,0:0|0:3|0:0,0:0:0:0:
194,97,5226,1,10,0:3:0:0:
194,97,5389,1,2,0:0:0:0:
392,17,5551,5,10,0:3:0:0:
449,94,5713,2,0,L|360:112,1,80,2|8,0:0|0:3,0:0:0:0:
298,224,6037,2,0,L|220:208,2,80,2|8|2,0:0|0:3|0:0,0:0:0:0:
277,129,6524,1,10,0:3:0:0:
277,129,6686,1,2,0:0:0:0:
430,284,6848,5,10,0:3:0:0:
357,345,7010,2,0,P|321:328|283:317,1,80,2|8,0:0|0:3,0:0:0:0:
141,331,7334,2,0,P|104:348|66:359,2,80,2|8|2,0:0|0:3|0:0,0:0:0:0:
203,256,7821,1,10,0:3:0:0:
203,256,7983,1,2,0:0:0:0:
416,106,8145,5,10,0:3:0:0:
489,168,8307,2,0,L|509:245,1,80,2|8,0:0|0:3,0:0:0:0:
337,155,8632,2,0,L|357:232,2,80,2|8|2,0:0|0:3|0:0,0:0:0:0:
264,92,9118,1,10,0:3:0:0:
264,92,9280,1,2,0:0:0:0:
310,313,9443,6,0,P|427:329|358:233,1,300.000011444092,10|0,0:3|0:0,0:0:0:0:
149,318,9929,6,0,B|196:313|196:313|223:328|223:328|293:317,1,150,2|0,0:0|0:0,0:0:0:0:
311,313,10253,1,2,0:0:0:0:
358,233,10416,6,0,P|241:217|310:313,1,300.000011444092,2|0,0:0|0:0,0:0:0:0:
455,295,10740,6,0,L|441:175,1,119.999996337891,8|0,1:3|0:0,0:0:0:0:
311,313,11064,2,0,L|431:299,1,119.999996337891,8|0,1:3|0:0,0:0:0:0:
293,169,11389,2,0,L|307:289,1,119.999996337891,8|0,1:3|0:0,0:0:0:0:
309,300,11632,1,0,1:0:0:0:
311,313,11713,1,8,1:3:0:0:
293,169,11875,1,0,1:0:0:0:
117,383,12037,6,0,P|58:386|0:370,1,119.999996337891,8|0,1:3|0:0,0:0:0:0:
150,250,12361,2,0,P|153:310|137:368,1,119.999996337891,8|0,1:3|0:0,0:0:0:0:
16,217,12686,2,0,P|76:214|134:231,1,119.999996337891,8|0,1:3|0:0,0:0:0:0:
142,240,12929,1,0,1:0:0:0:
150,250,13010,1,8,1:3:0:0:
16,217,13172,1,0,1:0:0:0:
243,192,13334,6,0,L|314:95,1,119.999996337891,8|0,1:3|0:0,0:0:0:0:
386,209,13659,2,0,L|265:194,1,119.999996337891,8|0,1:3|0:0,0:0:0:0:
328,76,13983,2,0,L|374:186,1,119.999996337891,8|0,1:3|0:0,0:0:0:0:
381,197,14226,1,0,1:0:0:0:
386,209,14307,1,8,1:3:0:0:
328,76,14470,1,0,1:0:0:0:
42,199,14632,6,0,P|100:210|159:199,1,119.999996337891,8|0,1:3|0:0,0:0:0:0:
221,73,14956,2,0,P|182:118|163:175,1,119.999996337891,8|0,1:3|0:0,0:0:0:0:
241,293,15280,2,0,P|233:263|221:236,1,59.9999981689454,8|0,1:3|0:0,0:0:0:0:
43,217,15443,2,0,P|71:225|101:228,1,59.9999981689454,0|0,1:0|0:0,0:0:0:0:
305,221,15605,1,8,1:3:0:0:
285,181,15686,1,0,1:0:0:0:
248,157,15767,1,0,1:0:0:0:
203,154,15848,1,0,1:0:0:0:
163,174,15929,6,0,P|152:145|149:116,1,59.9999981689454,8|0,1:3|0:0,0:0:0:0:
343,58,16091,2,0,P|339:87|329:115,1,59.9999981689454,0|0,1:0|0:0,0:0:0:0:
69,72,16253,2,0,P|113:32|172:27,1,119.999996337891,8|0,1:3|1:0,0:0:0:0:
305,221,16578,5,8,1:3:0:0:
227,88,16740,1,0,1:0:0:0:
150,287,16902,1,8,1:3:0:0:
72,154,17064,1,0,1:0:0:0:
370,267,17226,6,0,P|380:238|383:209,1,59.9999981689454,8|0,1:3|0:0,0:0:0:0:
190,150,17389,2,0,P|193:179|203:207,1,59.9999981689454,0|0,1:0|0:0,0:0:0:0:
463,164,17551,2,0,P|419:124|360:119,1,119.999996337891,8|0,1:3|1:0,0:0:0:0:
228,313,17875,5,8,1:3:0:0:
306,180,18037,1,0,1:0:0:0:
383,379,18199,1,8,1:3:0:0:
461,246,18361,1,0,1:0:0:0:
163,360,18524,6,0,P|152:331|149:302,1,59.9999981689454,8|0,1:3|1:0,1:0:0:0:
365,260,18686,2,0,P|375:231|378:202,1,59.9999981689454,0|0,1:0|1:0,1:0:0:0:
318,31,18848,5,8,1:3:0:0:
270,32,18929,1,0,1:0:0:0:
225,51,19010,1,0,1:0:0:0:
191,83,19091,1,0,1:0:0:0:
201,138,19172,5,8,1:3:0:0:
236,138,19253,1,0,1:0:0:0:
270,153,19334,1,0,1:0:0:0:
296,178,19416,1,0,1:0:0:0:
294,230,19497,5,8,1:3:0:0:
270,230,19578,1,0,1:0:0:0:
248,240,19659,1,0,1:0:0:0:
231,256,19740,1,0,1:0:0:0:
188,261,19821,5,8,1:3:0:0:
206,264,19902,1,0,1:0:0:0:
221,273,19983,1,0,1:0:0:0:
232,288,20064,1,0,1:0:0:0:
236,306,20145,1,0,1:0:0:0:
235,324,20226,1,0,1:0:0:0:
225,342,20307,1,0,1:0:0:0:
212,352,20389,1,0,1:0:0:0:
193,358,20470,1,0,1:0:0:0:
175,357,20551,1,0,1:0:0:0:
158,349,20632,1,0,1:0:0:0:
145,336,20713,1,0,1:0:0:0:
138,317,20794,6,0,B|240:290|222:139|126:75,1,300,8|0,0:2|0:0,0:0:0:0:
127,75,21118,6,0,P|196:75|261:50,1,139.999995727539,14|0,0:3|0:0,0:0:0:0:
62,177,21443,1,10,0:3:0:0:
62,177,21605,1,2,0:0:0:0:
282,144,21767,6,0,P|328:116|362:74,1,110.000003356934,10|0,0:3|0:0,0:0:0:0:
301,245,22091,1,10,0:3:0:0:
301,245,22253,1,2,0:0:0:0:
437,134,22416,6,0,P|457:97|464:55,1,80,10|0,0:3|0:0,0:0:0:0:
488,211,22740,1,10,0:3:0:0:
488,211,22902,1,2,0:0:0:0:
295,64,23064,5,10,0:3:0:0:
319,185,23226,1,2,0:0:0:0:
154,239,23389,1,10,0:3:0:0:
125,384,23551,1,2,0:0:0:0:
419,290,23713,6,0,L|270:298,1,139.999995727539,10|0,0:3|0:0,0:0:0:0:
455,178,24037,1,10,0:3:0:0:
455,178,24199,1,2,0:0:0:0:
255,173,24361,6,0,L|155:239,1,110.000003356934,10|0,0:3|0:0,0:0:0:0:
236,77,24686,1,10,0:3:0:0:
236,77,24848,1,2,0:0:0:0:
55,154,25010,6,0,L|14:235,1,80,10|0,0:3|0:0,0:0:0:0:
2,87,25334,1,10,0:3:0:0:
2,87,25497,1,2,0:0:0:0:
163,197,25659,6,0,B|146:99,1,100,10|0,0:3|0:0,0:0:0:0:
19,226,25983,2,0,B|36:324,1,100,10|0,0:3|0:0,0:0:0:0:
146,99,26307,5,8,0:3:0:0:
249,116,26470,1,2,0:0:0:0:
343,293,26632,1,10,0:3:0:0:
446,276,26794,1,2,0:0:0:0:
254,238,26956,6,0,B|235:356,1,119.999996337891,10|0,0:3|0:0,0:0:0:0:
366,114,27280,1,10,0:3:0:0:
263,131,27443,1,2,0:0:0:0:
455,169,27605,6,0,B|473:50,1,119.999996337891,10|0,0:3|0:0,0:0:0:0:
244,250,27929,1,10,0:3:0:0:
347,233,28091,1,2,0:0:0:0:
141,148,28253,6,0,B|123:266,1,119.999996337891,10|0,0:3|0:0,0:0:0:0:
263,131,28578,2,0,B|244:248,1,119.999996337891,10|0,0:3|0:0,0:0:0:0:
475,366,28902,6,0,P|409:343|340:341,1,139.999995727539,10|0,0:3|0:0,0:0:0:0:
426,249,29226,1,10,0:3:0:0:
426,249,29389,1,2,0:0:0:0:
229,374,29551,6,0,P|193:332|147:303,1,110.000003356934,10|0,0:3|0:0,0:0:0:0:
260,255,29875,1,10,0:3:0:0:
260,255,30037,1,2,0:0:0:0:
58,280,30199,6,0,P|50:238|30:201,1,80,10|0,0:3|0:0,0:0:0:0:
126,215,30524,1,10,0:3:0:0:
126,215,30686,1,2,0:0:0:0:
338,381,30848,6,0,B|356:345|356:345|433:323,1,120,10|0,0:3|0:0,0:0:0:0:
433,323,31497,6,0,P|400:250|405:171,1,160,14|0,0:3|0:0,0:0:0:0:
491,77,31821,1,10,0:2:0:0:
433,323,31983,1,2,0:0:0:0:
278,202,32145,6,0,P|283:143|314:93,1,119.999996337891,10|0,0:3|0:0,0:0:0:0:
404,56,32470,1,10,0:2:0:0:
278,202,32632,1,2,0:0:0:0:
190,61,32794,6,0,P|214:26|251:7,1,80,10|0,0:3|0:0,0:0:0:0:
323,9,33118,1,10,0:2:0:0:
190,61,33280,1,2,0:0:0:0:
41,0,33443,5,10,0:3:0:0:
126,187,33605,1,2,0:0:0:0:
312,102,33767,2,0,P|362:94|411:99,1,100,10|0,0:0|0:0,0:0:0:0:
500,378,34091,6,0,L|485:218,1,160,10|0,0:3|0:0,0:0:0:0:
319,184,34416,1,10,0:0:0:0:
485,218,34578,1,2,0:0:0:0:
290,381,34740,6,0,L|277:261,1,119.999996337891,10|0,0:3|0:0,0:0:0:0:
161,229,35064,1,10,0:0:0:0:
278,262,35226,1,2,0:0:0:0:
109,384,35389,6,0,L|101:304,1,80,10|0,0:3|0:0,0:0:0:0:
19,272,35713,1,10,0:0:0:0:
101,304,35875,1,2,0:0:0:0:
249,157,36037,6,0,B|152:179,1,100,10|0,0:3|0:0,0:0:0:0:
226,51,36361,2,0,B|323:29,1,100,10|0,0:0|0:0,0:0:0:0:
14,50,36686,5,8,0:3:0:0:
31,152,36848,1,2,0:0:0:0:
223,265,37010,1,10,0:0:0:0:
206,367,37172,1,2,0:0:0:0:
141,181,37334,6,0,L|259:155,1,119.999996337891,10|0,0:3|0:0,0:0:0:0:
483,103,37659,1,10,0:0:0:0:
366,129,37821,1,2,0:0:0:0:
311,351,37983,5,10,0:3:0:0:
290,233,38145,1,2,0:0:0:0:
483,103,38307,1,10,0:0:0:0:
462,221,38470,1,2,0:0:0:0:
175,341,38632,6,0,L|155:222,1,119.999996337891,10|0,0:3|0:0,0:0:0:0:
311,351,38956,2,0,L|290:233,1,119.999996337891,10|0,0:0|0:0,0:0:0:0:
52,167,39280,6,0,P|119:125|198:115,1,160,10|0,0:3|0:0,0:0:0:0:
290,233,39605,1,8,0:0:0:0:
242,54,39767,1,0,0:0:0:0:
94,232,39929,6,0,P|144:200|203:192,1,119.999996337891,10|0,0:3|0:0,0:0:0:0:
312,314,40253,1,8,0:0:0:0:
269,153,40416,1,0,0:0:0:0:
138,297,40578,6,0,P|171:276|214:271,1,80,10|0,0:3|0:0,0:0:0:0:
312,314,40902,6,0,P|253:310|210:270,1,119.999996337891,10|0,0:0|0:0,0:0:0:0:
464,286,41226,2,0,P|421:245|362:242,1,119.999996337891,10|0,0:3|0:0,0:0:0:0:
448,364,41551,1,10,0:0:0:0:
147,298,41875,6,0,L|156:178,1,119.999996337891,6|0,0:0|0:0,0:0:0:0:
101,21,42361,2,0,B|74:47|74:47|80:130,1,119.999996337891,2|0,0:0|0:0,0:0:0:0:
219,114,42848,2,0,P|195:95|166:88,1,59.9999981689454,2|2,0:0|0:0,0:0:0:0:
52,214,43172,2,0,P|111:216|156:178,1,119.999996337891,2|2,0:0|0:0,0:0:0:0:
219,114,43659,2,0,P|291:161|373:132,1,179.999994506836,2|0,0:0|0:0,0:0:0:0:
426,265,44470,6,0,L|435:385,1,119.999996337891,2|2,0:0|0:0,0:0:0:0:
291,275,44956,2,0,L|286:215,1,59.9999981689454,2|0,0:0|0:0,0:0:0:0:
352,343,45280,2,0,P|299:368|242:354,1,119.999996337891,2|2,0:0|0:0,0:0:0:0:
175,285,45767,2,0,B|201:259|201:259|195:176,1,119.999996337891,2|2,0:0|0:0,0:0:0:0:
108,158,46253,2,0,L|103:218,1,59.9999981689454,2|0,0:0|0:0,0:0:0:0:
11,63,46578,2,0,L|21:183,1,119.999996337891,2|0,0:0|0:0,0:0:0:0:
11,63,47064,5,8,0:3:0:0:
118,233,47226,1,8,0:0:0:0:
351,89,47389,6,0,P|293:80|233:113,1,119.999996337891,14|0,0:0|0:0,0:0:0:0:
74,314,47713,2,0,P|132:323|192:290,1,119.999996337891,10|0,0:3|0:0,0:0:0:0:
304,171,48037,1,10,0:0:0:0:
102,37,48199,2,0,B|90:103|90:103|93:112|93:112|85:154,1,119.999996337891,2|8,0:0|0:3,0:0:0:0:
269,381,48524,2,0,B|280:315|280:315|278:306|278:306|285:263,1,119.999996337891,2|8,0:0|0:0,0:0:0:0:
176,104,48848,1,2,0:0:0:0:
368,309,49010,5,10,0:3:0:0:
194,204,49172,1,2,0:0:0:0:
100,365,49334,2,0,B|76:346|76:346|60:257,1,119.999996337891,8|0,0:0|0:0,0:0:0:0:
229,28,49659,2,0,B|252:46|252:46|268:135,1,119.999996337891,8|0,0:3|0:0,0:0:0:0:
420,317,49983,6,0,P|409:259|410:199,1,119.999996337891,10|0,0:0|0:0,0:0:0:0:
461,0,50307,2,0,P|416:38|363:67,1,119.999996337891,10|0,0:3|0:0,0:0:0:0:
166,123,50632,2,0,P|221:142|273:173,1,119.999996337891,10|0,0:0|0:0,0:0:0:0:
420,317,50956,5,10,0:3:0:0:
250,357,51118,1,0,1:0:0:0:
238,361,51199,1,0,1:0:0:0:
226,365,51280,2,0,L|205:246,1,119.999996337891,8|0,1:2|0:0,0:0:0:0:
358,140,51605,2,0,B|373:200|373:200|336:245,1,119.999996337891,8|0,0:3|0:0,0:0:0:0:
118,283,51929,2,0,B|103:223|103:223|139:177,1,119.999996337891,8|0,0:0|0:0,0:0:0:0:
282,7,52253,6,0,L|162:17,1,119.999996337891,14|0,0:0|0:0,0:0:0:0:
78,20,52740,2,0,P|131:44|151:99,1,119.999996337891,2|0,0:0|0:0,0:0:0:0:
117,176,53226,1,2,0:0:0:0:
117,176,53389,1,2,0:0:0:0:
45,132,53551,2,0,L|224:116,1,179.999994506836,2|0,0:0|0:0,0:0:0:0:
306,133,54199,2,0,P|306:103|297:75,1,59.9999981689454,2|0,0:0|0:0,0:0:0:0:
369,190,54524,2,0,P|384:164|390:135,1,59.9999981689454,2|0,0:0|0:0,0:0:0:0:
395,270,54848,6,0,P|322:217|189:280,1,239.999992675781,2|0,0:0|0:0,0:0:0:0:
19,213,55821,2,0,L|23:293,1,59.9999981689454,2|0,0:0|0:0,0:0:0:0:
85,149,56145,5,2,0:0:0:0:
13,105,56470,1,2,0:0:0:0:
79,41,56794,2,0,B|149:32|149:32|192:58|192:58|250:49,1,179.999994506836,2|0,0:0|0:0,0:0:0:0:
392,25,57443,5,12,0:3:0:0:
251,138,57767,2,0,P|237:174|241:214,1,80,2|0,0:0|0:0,0:0:0:0:
327,93,58091,2,0,P|371:99|426:208,1,160,2|0,0:0|0:0,0:0:0:0:
382,271,58578,2,0,P|345:285|306:280,1,80,2|0,0:0|0:0,0:0:0:0:
241,214,58902,2,0,B|203:188|203:188|90:205,1,160,2|2,0:0|0:0,0:0:0:0:
0,227,59389,1,2,0:0:0:0:
77,284,59551,2,0,L|103:127,1,160,2|0,0:0|0:0,0:0:0:0:
181,18,60037,6,0,L|174:57,3,40,10|8|8|8,0:3|0:3|0:3|0:3,0:3:0:0:
264,138,60361,2,0,L|256:88,3,50,10|8|8|8,0:3|0:3|0:3|0:3,0:3:0:0:
350,0,60686,2,0,L|340:59,3,59.9999981689454,10|8|8|8,0:3|0:3|0:3|0:3,0:3:0:0:
435,159,61010,2,0,L|423:89,3,69.9999978637696,10|8|8|8,0:3|0:3|0:3|0:3,0:3:0:0:
372,218,61334,5,10,0:3:0:0:
347,253,61416,1,8,0:3:0:0:
344,296,61497,1,8,0:3:0:0:
364,335,61578,1,8,0:3:0:0:
399,359,61659,1,8,0:3:0:0:
442,361,61740,1,8,0:3:0:0:
481,341,61821,1,8,0:3:0:0:
504,305,61902,1,8,0:3:0:0:
505,263,61983,5,10,0:3:0:0:
473,302,62064,1,8,0:3:0:0:
425,328,62145,1,8,0:3:0:0:
365,335,62226,1,8,0:3:0:0:
303,312,62307,1,8,0:3:0:0:
253,263,62389,1,8,0:3:0:0:
195,214,62470,1,8,0:3:0:0:
116,200,62551,1,8,0:3:0:0:
37,231,62632,5,12,0:3:0:0:
137,352,62794,1,8,0:3:0:0:
239,71,62956,1,8,0:0:0:0:
475,153,63118,5,8,0:3:0:0:
375,32,63280,1,8,0:3:0:0:
273,313,63443,1,8,0:0:0:0:
157,41,63605,5,8,0:3:0:0:
36,141,63767,1,8,0:3:0:0:
317,243,63929,1,8,0:0:0:0:
142,141,64091,5,8,0:3:0:0:
384,9,64253,1,8,0:0:0:0:
458,279,64416,6,0,B|495:326|495:326|436:314|436:314|424:319|424:319|363:314,1,179.999994506836,8|0,0:3|0:0,0:0:0:0:
7,352,65226,6,0,B|76:341|76:341|85:331|85:331|200:312,1,194.999991073609,14|0,0:3|0:0,0:0:0:0:
270,300,65551,1,10,0:0:0:0:
39,132,65713,2,0,P|28:205|64:253,1,129.999994049073,2|8,0:0|0:3,0:0:0:0:
346,347,66037,2,0,P|357:274|321:226,1,129.999994049073,2|8,0:0|0:0,0:0:0:0:
113,37,66361,5,2,0:0:0:0:
117,56,66443,1,2,0:0:0:0:
121,74,66524,1,10,0:3:0:0:
405,60,66686,2,0,P|430:112|376:133,1,129.999994049073,2|8,0:0|0:0,0:0:0:0:
161,226,67010,2,0,P|136:174|190:153,1,129.999994049073,2|8,0:0|0:3,0:0:0:0:
448,279,67334,1,2,0:0:0:0:
285,340,67497,2,0,B|266:325|266:325|251:221,1,129.999994049073,8|0,0:0|0:0,0:0:0:0:
319,68,67821,5,10,0:3:0:0:
357,248,67983,1,2,0:0:0:0:
98,180,68145,1,10,0:0:0:0:
287,144,68307,1,2,0:0:0:0:
191,349,68470,1,10,0:3:0:0:
14,160,68632,1,2,0:0:0:0:
182,205,68794,1,10,0:0:0:0:
32,287,68956,1,2,0:0:0:0:
0,63,69118,5,10,0:3:0:0:
200,220,69280,2,0,B|301:204|301:204|317:181,1,129.999994049073,2|8,0:0|0:0,0:0:0:0:
465,22,69605,1,2,0:0:0:0:
445,25,69686,1,2,0:0:0:0:
424,29,69767,2,0,P|394:82|428:134,1,129.999994049073,10|0,0:3|0:0,0:0:0:0:
410,370,70091,2,0,P|440:316|406:264,1,129.999994049073,8|0,0:0|0:0,0:0:0:0:
232,30,70416,6,0,B|196:5|196:5|186:91,1,129.999994049073,8|0,0:3|0:0,0:0:0:0:
136,332,70740,2,0,B|189:294|189:294|251:314,1,129.999994049073,10|0,0:0|0:0,0:0:0:0:
482,97,71064,2,0,B|429:135|429:135|368:116,1,129.999994049073,10|0,0:3|0:0,0:0:0:0:
116,31,71389,1,10,0:0:0:0:
10,216,71551,1,2,0:0:0:0:
14,234,71632,1,2,0:0:0:0:
19,252,71713,6,0,P|90:263|118:207,1,129.999994049073,10|0,0:3|0:0,0:0:0:0:
208,19,72037,2,0,B|199:86|199:86|204:100|204:100|195:165,1,129.999994049073,8|0,0:0|0:0,0:0:0:0:
466,72,72361,2,0,B|418:65|418:65|404:70|404:70|337:61,1,129.999994049073,10|0,0:3|0:0,0:0:0:0:
116,31,72686,1,10,0:0:0:0:
226,229,72848,1,2,0:0:0:0:
242,219,72929,1,2,0:0:0:0:
258,210,73010,6,0,L|393:243,1,129.999994049073,10|0,0:3|0:0,0:0:0:0:
126,384,73334,2,0,L|0:352,1,129.999994049073,8|0,0:0|0:0,0:0:0:0:
61,91,73659,2,0,P|97:144|110:207,1,129.999994049073,8|0,0:3|0:0,0:0:0:0:
336,357,73983,2,0,P|349:293|385:240,1,129.999994049073,8|0,0:0|0:0,0:0:0:0:
477,104,74307,5,8,0:3:0:0:
391,43,74470,1,2,0:0:0:0:
325,125,74632,1,10,0:0:0:0:
239,64,74794,1,2,0:0:0:0:
82,301,74956,5,10,0:3:0:0:
227,193,75118,1,2,0:0:0:0:
328,341,75280,2,0,B|359:326|377:294|377:294|398:323|431:329,1,134.999995880127,0|0,1:0|0:0,0:0:0:0:
432,330,75605,6,0,B|412:215|412:215|430:200,1,139.999995727539,12|0,1:3|0:0,0:0:0:0:
217,141,75929,2,0,B|326:181|326:181|329:204,1,139.999995727539,8|0,1:3|0:0,0:0:0:0:
488,49,76253,2,0,B|398:123|398:123|376:115,1,139.999995727539,8|0,1:3|0:0,0:0:0:0:
357,106,76497,1,0,1:0:0:0:
337,98,76578,1,8,1:3:0:0:
233,54,76740,1,0,1:0:0:0:
271,245,76902,6,0,P|206:265|151:228,1,139.999995727539,8|0,1:3|0:0,0:0:0:0:
15,79,77226,2,0,P|66:124|59:190,1,139.999995727539,8|0,1:3|0:0,0:0:0:0:
0,378,77551,2,0,P|12:312|73:282,1,139.999995727539,8|0,1:3|0:0,0:0:0:0:
93,293,77794,1,0,1:0:0:0:
110,301,77875,1,8,1:3:0:0:
211,354,78037,1,0,1:0:0:0:
440,127,78199,6,0,B|392:56|392:56|338:68,1,139.999995727539,8|0,1:3|0:0,0:0:0:0:
394,272,78524,2,0,B|478:266|478:266|495:213,1,139.999995727539,8|0,1:3|0:0,0:0:0:0:
292,159,78848,2,0,B|254:234|254:234|291:276,1,139.999995727539,8|0,1:3|0:0,0:0:0:0:
306,291,79091,1,0,1:0:0:0:
320,306,79172,1,8,1:3:0:0:
399,384,79334,1,0,1:0:0:0:
506,136,79497,6,0,B|442:120|442:120|422:132|422:132|373:118,1,139.999995727539,8|0,1:3|0:0,0:0:0:0:
185,25,79821,2,0,B|249:41|249:41|269:29|269:29|317:42,1,139.999995727539,8|0,1:3|0:0,0:0:0:0:
481,280,80145,2,0,L|462:213,1,69.9999978637696,8|0,1:3|0:0,0:0:0:0:
283,124,80307,2,0,L|302:191,1,69.9999978637696,0|0,1:0|0:0,0:0:0:0:
198,330,80470,1,8,1:3:0:0:
172,322,80551,1,0,1:0:0:0:
147,315,80632,1,0,1:0:0:0:
122,308,80713,1,0,1:0:0:0:
96,301,80794,6,0,P|80:234|122:179,1,139.999995727539,8|0,1:3|1:0,0:0:0:0:
308,3,81118,2,0,P|323:69|282:125,1,139.999995727539,8|0,1:3|1:0,0:0:0:0:
0,156,81443,2,0,P|65:140|120:180,1,139.999995727539,8|0,1:3|1:0,0:0:0:0:
404,148,81767,2,0,P|338:164|283:124,1,139.999995727539,8|0,1:3|1:0,0:0:0:0:
50,230,82091,6,0,L|85:387,1,139.999995727539,8|0,1:3|1:0,0:0:0:0:
435,284,82416,2,0,L|404:147,1,139.999995727539,8|0,1:3|1:0,0:0:0:0:
0,131,82740,2,0,L|136:161,1,139.999995727539,8|0,1:3|1:0,0:0:0:0:
490,77,83064,2,0,L|354:47,1,139.999995727539,8|0,1:3|1:0,0:0:0:0:
145,249,83389,6,0,P|192:279|228:281,3,69.9999978637696,8|0|0|0,1:3|1:0|1:0|1:0,0:0:0:0:
352,357,83713,2,0,P|358:322|351:288,3,69.9999978637696,8|0|0|0,1:3|1:0|1:0|1:0,0:0:0:0:
217,364,84037,2,0,P|250:351|276:327,3,69.9999978637696,8|0|0|0,1:3|1:0|1:0|1:0,0:0:0:0:
415,235,84361,2,0,P|367:204|331:202,3,69.9999978637696,8|0|0|0,1:3|1:0|1:0|1:0,0:0:0:0:
269,217,84686,5,8,1:3:0:0:
263,164,84767,1,0,1:0:0:0:
257,112,84848,1,0,1:0:0:0:
250,59,84929,1,0,1:0:0:0:
301,61,85010,5,8,1:3:0:0:
333,47,85091,1,0,1:0:0:0:
364,33,85172,1,0,1:0:0:0:
396,17,85253,1,0,1:0:0:0:
416,55,85334,5,8,1:3:0:0:
427,68,85416,1,0,1:0:0:0:
438,81,85497,1,0,1:0:0:0:
451,93,85578,1,0,1:0:0:0:
426,118,85659,5,8,1:2:0:0:
426,118,85983,5,12,0:3:0:0:
255,68,86145,1,8,0:3:0:0:
494,0,86307,1,8,0:2:0:0:
222,167,86470,5,8,0:3:0:0:
410,112,86632,1,8,0:3:0:0:
145,38,86794,1,8,0:0:0:0:
330,137,86956,5,8,0:3:0:0:
123,197,87118,1,8,0:3:0:0:
414,279,87280,1,8,0:0:0:0:
205,208,87443,5,8,0:3:0:0:
432,273,87605,1,8,0:3:0:0:
113,362,87767,1,8,0:0:0:0:
450,266,87929,5,8,0:3:0:0:
103,173,88091,1,8,0:0:0:0:
466,64,88253,5,8,0:3:0:0:
84,179,88416,1,8,0:0:0:0:
336,296,88578,5,12,0:3:0:0:
347,282,88659,1,8,0:3:0:0:
354,266,88740,1,8,0:3:0:0:
358,249,88821,1,8,0:3:0:0:
358,232,88902,1,8,0:2:0:0:
125,36,89064,5,8,0:3:0:0:
125,63,89145,1,8,0:3:0:0:
131,92,89226,1,8,0:3:0:0:
142,118,89307,1,8,0:3:0:0:
161,140,89389,1,8,0:2:0:0:
469,113,89551,5,8,0:3:0:0:
431,129,89632,1,8,0:3:0:0:
389,128,89713,1,8,0:3:0:0:
351,111,89794,1,8,0:3:0:0:
324,79,89875,1,8,0:2:0:0:
21,343,90037,5,8,0:3:0:0:
56,299,90118,1,8,0:3:0:0:
107,277,90199,1,8,0:3:0:0:
162,276,90280,1,8,0:3:0:0:
213,297,90361,1,8,0:2:0:0:
371,29,90524,5,8,0:3:0:0:
371,29,90605,1,8,0:3:0:0:
371,29,90686,2,0,P|343:51|324:80,1,69.9999978637696,8|0,0:2|0:0,0:0:0:0:
338,375,90848,2,0,P|333:340|318:308,1,69.9999978637696,8|0,0:3|0:0,0:0:0:0:
57,173,91010,2,0,P|92:187|135:187,1,69.9999978637696,8|0,0:2|0:0,0:0:0:0:
451,339,91172,6,0,B|473:307|524:290|524:290|473:307|427:294|427:294|371:278|311:314,1,300,12|0,0:3|0:0,0:3:0:0:
55,49,92470,6,0,L|69:107,2,59.9999981689454,10|2|2,0:3|0:0|0:0,0:0:0:0:
124,0,92956,2,0,L|152:116,1,119.999996337891,2|0,0:0|0:0,0:0:0:0:
212,223,93443,2,0,L|226:164,2,59.9999981689454,2|2|2,0:0|0:0|0:0,0:0:0:0:
281,272,93929,2,0,L|309:155,1,119.999996337891,2|2,0:0|0:0,0:0:0:0:
366,85,94416,2,0,P|386:107|397:134,1,59.9999981689454,2|0,0:0|0:0,0:0:0:0:
241,95,94740,2,0,P|264:76|293:66,1,59.9999981689454,2|0,0:0|0:0,0:0:0:0:
328,307,95064,5,2,0:0:0:0:
294,231,95226,1,2,0:0:0:0:
212,223,95389,1,2,0:0:0:0:
163,290,95551,2,0,L|7:321,1,160,2|2,0:0|0:0,0:0:0:0:
3,171,96037,5,2,0:0:0:0:
50,103,96199,1,2,0:0:0:0:
133,112,96361,1,2,0:0:0:0:
329,205,96524,1,2,0:0:0:0:
282,273,96686,1,2,0:0:0:0:
199,264,96848,1,2,0:0:0:0:
263,53,97010,6,0,P|266:28|273:4,3,50,0|0|0|0,1:0|1:0|1:0|1:0,1:0:0:0:
350,47,97334,2,0,P|372:37|397:32,3,50,0|0|0|0,1:0|1:0|1:0|1:0,1:0:0:0:
403,118,97659,5,10,1:3:0:0:
420,138,97740,1,10,1:3:0:0:
429,161,97821,1,10,1:3:0:0:
431,185,97902,1,10,1:3:0:0:
426,210,97983,1,10,1:3:0:0:
414,231,98064,1,10,1:3:0:0:
396,248,98145,1,10,1:3:0:0:
373,259,98226,1,10,1:3:0:0:
349,263,98307,5,10,1:3:0:0:
324,212,98389,1,10,1:3:0:0:
280,178,98470,1,10,1:3:0:0:
226,164,98551,1,10,1:3:0:0:
171,175,98632,1,10,1:3:0:0:
126,208,98713,1,10,1:3:0:0:
99,257,98794,1,10,1:3:0:0:
96,313,98875,1,10,1:3:0:0:
114,365,98956,1,10,1:3:0:0:
75,33,99929,5,2,0:0:0:0:
116,5,100010,1,2,0:0:0:0:
165,2,100091,1,2,0:0:0:0:
209,25,100172,1,2,0:0:0:0:
235,66,100253,6,0,B|268:212,1,150.000005722046,14|0,0:3|0:0,0:0:0:0:
248,323,100497,1,2,0:0:0:0:
260,331,100578,2,0,L|333:314,1,75.0000028610231,10|0,0:2|0:0,0:0:0:0:
168,188,100740,2,0,B|118:174|118:174|98:146|98:146|36:130,1,150.000005722046,2|8,0:0|0:3,0:0:0:0:
124,0,100983,2,0,P|184:29|165:112,1,150.000005722046,2|0,0:0|0:0,0:0:0:0:
41,214,101226,1,8,0:2:0:0:
23,227,101307,1,2,0:0:0:0:
12,247,101389,2,0,P|9:288|20:329,1,75.0000028610231,2|2,0:0|0:0,0:0:0:0:
220,351,101551,6,0,P|183:288|111:280,1,150.000005722046,10|0,0:3|0:0,0:0:0:0:
232,191,101794,1,2,0:0:0:0:
242,205,101875,2,0,P|279:213|314:201,1,75.0000028610231,10|0,0:2|0:0,0:0:0:0:
462,97,102037,2,0,P|406:145|408:217,1,150.000005722046,2|8,0:0|0:3,0:0:0:0:
494,316,102280,2,0,B|444:299|444:299|399:304|399:304|318:275,1,150.000005722046
104,268,102524,1,10,0:2:0:0:
95,257,102605,1,2,0:0:0:0:
88,245,102686,2,0,P|85:209|99:174,1,75.0000028610231,2|2,0:0|0:0,0:0:0:0:
197,137,102848,6,0,P|229:152|252:182,3,75.0000028610231,10|2|2|2,0:3|0:0|0:0|0:0,0:0:0:0:
247,260,103172,1,10,0:2:0:0:
242,273,103253,1,2,0:0:0:0:
235,285,103334,2,0,P|205:305|168:310,1,75.0000028610231,2|2,0:0|0:0,0:0:0:0:
364,171,103497,2,0,P|427:146|514:204,1,150.000005722046,10|0,0:3|0:0,0:0:0:0:
463,326,103740,1,2,0:0:0:0:
443,315,103821,2,0,L|425:218,1,75.0000028610231,10|0,0:2|0:0,0:0:0:0:
327,92,103983,2,0,L|314:19,1,75.0000028610231,2|0,0:0|0:0,0:0:0:0:
176,224,104145,6,0,B|145:241|145:241|65:229|65:229|35:245,1,150.000005722046,10|0,0:3|0:0,0:0:0:0:
69,76,104389,1,2,0:0:0:0:
91,80,104470,2,0,P|114:110|123:146,1,75.0000028610231,10|0,0:0|0:0,0:0:0:0:
232,21,104632,2,0,P|207:56|205:117,1,75.0000028610231,2|0,0:0|0:0,0:0:0:0:
350,257,104794,1,10,0:3:0:0:
359,230,104875,1,2,0:0:0:0:
359,202,104956,1,2,0:0:0:0:
348,177,105037,1,2,0:0:0:0:
328,157,105118,2,0,L|253:168,1,75.0000028610231,10|0,0:0|0:0,0:0:0:0:
198,322,105280,2,0,L|272:310,1,75.0000028610231,2|0,0:0|0:0,0:0:0:0:
512,376,105443,6,0,P|448:345|451:275,1,150.000005722046,10|0,0:3|0:0,0:0:0:0:
501,116,105686,1,2,0:0:0:0:
509,136,105767,2,0,P|485:164|453:183,1,75.0000028610231,10|0,0:0|0:0,0:0:0:0:
353,268,105929,2,0,B|370:225|370:225|338:127,1,150.000005722046,2|8,0:0|0:3,0:0:0:0:
203,5,106172,2,0,P|181:73|225:134,1,150.000005722046,2|0,0:0|0:0,0:0:0:0:
394,51,106416,1,10,0:0:0:0:
368,37,106497,1,2,0:0:0:0:
338,33,106578,2,0,P|303:38|258:76,1,75.0000028610231,2|2,0:0|0:0,0:0:0:0:
112,243,106740,6,0,L|277:212,1,150.000005722046,10|0,0:3|0:0,0:0:0:0:
88,147,106983,1,2,0:0:0:0:
73,164,107064,2,0,L|-9:148,1,75.0000028610231,10|0,0:0|0:0,0:0:0:0:
114,345,107226,2,0,P|91:271|7:264,1,150.000005722046,2|8,0:0|0:3,0:0:0:0:
38,52,107470,2,0,L|185:79,1,150.000005722046,2|0,0:0|0:0,0:0:0:0:
197,198,107713,1,10,0:0:0:0:
218,219,107794,1,2,0:0:0:0:
246,229,107875,2,0,P|283:228|318:216,1,75.0000028610231,2|2,0:0|0:0,0:0:0:0:
429,101,108037,6,0,B|421:171|421:171|407:192|407:192|401:246,1,150.000005722046,10|0,0:3|0:0,0:0:0:0:
458,330,108280,1,2,0:0:0:0:
479,324,108361,2,0,L|488:249,1,75.0000028610231,10|0,0:0|0:0,0:0:0:0:
396,14,108524,2,0,B|347:36|347:36|337:132,1,150.000005722046,2|8,0:0|0:3,0:0:0:0:
178,272,108767,2,0,P|233:224|325:236,1,150.000005722046,2|0,0:0|0:0,0:0:0:0:
191,49,109010,1,10,0:0:0:0:
189,76,109091,1,2,0:0:0:0:
178,102,109172,1,2,0:0:0:0:
158,122,109253,1,2,0:0:0:0:
131,132,109334,6,0,P|114:99|103:64,1,75.0000028610231,10|2,0:3|0:0,0:0:0:0:
95,256,109497,2,0,P|63:236|35:210,1,75.0000028610231,2|2,0:0|0:0,0:0:0:0:
125,147,109659,6,0,P|104:115|90:80,1,75.0000028610231,10|2,0:0|0:0,0:0:0:0:
98,272,109821,2,0,P|64:254|35:231,1,75.0000028610231,2|2,0:0|0:0,0:0:0:0:
195,67,109983,5,10,0:3:0:0:
231,61,110064,1,2,0:0:0:0:
268,67,110145,1,2,0:0:0:0:
301,84,110226,1,2,0:0:0:0:
326,112,110307,2,0,P|371:41|272:57,1,225.000008583069,14|0,0:0|0:0,0:0:0:0:
219,252,110632,5,14,0:3:0:0:
219,252,110794,1,8,0:3:0:0:
219,252,110956,2,0,P|251:233|288:229,1,75.0000028610231,10|0,0:0|0:0,0:0:0:0:
239,141,111118,2,0,P|313:153|383:186,1,150.000005722046,2|8,0:0|0:3,0:0:0:0:
499,60,111361,2,0,P|434:37|389:105,1,150.000005722046,2|0,0:0|0:0,0:0:0:0:
476,176,111605,2,0,P|471:213|454:246,1,75.0000028610231,10|0,0:0|0:0,0:0:0:0:
351,342,111767,1,2,0:0:0:0:
344,363,111848,1,2,0:0:0:0:
337,384,111929,6,0,B|285:367|285:367|256:369|256:369|193:348,1,150.000005722046,10|0,0:3|0:0,0:0:0:0:
68,271,112172,1,2,0:0:0:0:
89,278,112253,2,0,L|103:360,1,75.0000028610231,10|0,0:0|0:0,0:0:0:0:
264,277,112416,2,0,P|302:215|281:146,1,150.000005722046,2|8,0:0|0:3,0:0:0:0:
75,153,112659,2,0,B|108:194|108:194|204:202,1,150.000005722046,2|0,0:0|0:0,0:0:0:0:
266,40,112902,1,10,0:0:0:0:
239,26,112983,1,2,0:0:0:0:
210,36,113064,2,0,L|196:118,1,75.0000028610231,2|2,0:0|0:0,0:0:0:0:
0,101,113226,6,0,P|48:49|149:93,1,150.000005722046,10|0,0:3|0:0,0:0:0:0:
158,259,113470,1,2,0:0:0:0:
138,248,113551,2,0,P|124:208|148:152,1,75.0000028610231,10|0,0:0|0:0,0:0:0:0:
308,14,113713,2,0,B|323:116|323:116|362:141,1,150.000005722046,2|8,0:0|0:3,0:0:0:0:
324,275,113956,2,0,B|360:258|379:224|379:224|409:246|449:244,1,150.000005722046,2|0,0:0|0:0,0:0:0:0:
286,361,114199,1,10,0:0:0:0:
260,344,114280,1,2,0:0:0:0:
243,319,114361,2,0,P|230:269|243:231,1,75.0000028610231,2|2,0:0|0:0,0:0:0:0:
396,104,114524,5,10,0:3:0:0:
383,126,114605,1,2,0:0:0:0:
362,141,114686,1,2,0:0:0:0:
336,145,114767,1,2,0:0:0:0:
311,137,114848,2,0,P|279:117|242:111,1,75.0000028610231,10|0,0:0|0:0,0:0:0:0:
169,179,115010,2,0,P|137:198|100:204,1,75.0000028610231,2|0,0:0|0:0,0:0:0:0:
51,28,115172,6,0,B|81:0|81:0|104:106,1,150.000005722046,10|0,0:3|0:0,0:0:0:0:
21,271,115416,1,2,0:0:0:0:
16,250,115497,2,0,B|0:177,1,75.0000028610231,10|0,0:0|0:0,0:0:0:0:
192,299,115659,2,0,B|208:372,1,75.0000028610231,2|0,0:0|0:0,0:0:0:0:
441,164,115821,6,0,P|370:147|318:196,1,150.000005722046,10|0,1:3|1:0,0:0:0:0:
394,324,116064,1,2,0:0:0:0:
407,341,116145,2,0,L|479:322,1,75.0000028610231,10|0,1:2|0:0,0:0:0:0:
269,265,116307,2,0,L|196:283,1,75.0000028610231,2|0,1:2|0:0,0:0:0:0:
274,85,116470,1,10,1:2:0:0:
282,105,116551,2,0,L|361:125,2,75.0000028610231,2|0|0,0:0|1:0|0:0,0:0:0:0:
211,171,116794,1,10,1:2:0:0:
190,149,116875,1,2,0:0:0:0:
180,119,116956,2,0,P|181:81|195:47,1,75.0000028610231,2|2,1:2|0:0,0:0:0:0:
360,220,117118,6,0,B|382:325|382:325|343:369,1,150.000005722046,10|0,1:3|1:2,0:0:0:0:
178,251,117361,1,2,0:0:0:0:
191,268,117443,2,0,L|263:249,1,75.0000028610231,10|0,1:2|0:0,0:0:0:0:
444,117,117605,2,0,L|372:98,1,75.0000028610231,2|0,1:2|0:0,0:0:0:0:
199,84,117767,2,0,L|180:12,3,75.0000028610231,10|0|0|0,1:3|0:0|1:0|0:0,0:0:0:0:
279,87,118091,1,10,1:2:0:0:
277,110,118172,1,2,0:0:0:0:
272,132,118253,2,0,P|245:158|210:170,1,75.0000028610231,2|2,1:2|0:0,0:0:0:0:
13,215,118416,5,2,1:2:0:0:
47,200,118497,1,2,1:2:0:0:
84,198,118578,1,2,1:2:0:0:
120,209,118659,1,2,1:2:0:0:
150,231,118740,1,2,1:2:0:0:
174,247,118821,1,2,1:2:0:0:
202,256,118902,1,2,1:2:0:0:
232,254,118983,1,2,1:2:0:0:
260,243,119064,5,2,1:2:0:0:
271,287,119145,1,2,1:2:0:0:
306,318,119226,1,2,1:2:0:0:
351,325,119307,1,2,1:2:0:0:
393,305,119389,1,2,1:2:0:0:
417,266,119470,1,2,1:2:0:0:
416,220,119551,1,2,1:2:0:0:
389,182,119632,1,2,1:2:0:0:
346,165,119713,5,0,1:0:0:0:
341,189,119794,1,0,1:0:0:0:
336,214,119875,1,0,1:0:0:0:
331,238,119956,1,0,1:0:0:0:
302,260,120037,5,0,1:0:0:0:
298,278,120118,1,0,1:0:0:0:
294,296,120199,1,0,1:0:0:0:
291,315,120280,1,0,1:0:0:0:
258,333,120361,5,0,1:0:0:0:
255,345,120443,1,0,1:0:0:0:
253,357,120524,1,0,1:0:0:0:
250,369,120605,1,0,1:0:0:0:
223,384,120686,6,0,B|173:322|173:322|412:342,1,300,8|0,0:0|0:0,0:0:0:0:
392,340,121010,6,0,P|451:268|401:188,1,200,14|8,0:3|0:3,0:0:0:0:
305,258,121497,1,2,0:0:0:0:
427,109,121659,6,0,P|400:38|325:41,1,160,10|8,0:3|0:3,0:0:0:0:
335,134,122145,1,2,0:0:0:0:
247,0,122307,6,0,P|191:-8|160:43,1,119.999996337891,10|8,0:3|0:3,0:0:0:0:
229,77,122794,1,2,0:0:0:0:
205,181,122956,5,10,0:3:0:0:
205,181,123118,1,2,0:0:0:0:
289,198,123280,1,10,0:3:0:0:
289,198,123443,1,2,0:0:0:0:
321,367,123605,6,0,B|179:346|179:346|157:293,1,200,10|8,0:3|0:3,0:0:0:0:
239,270,124091,1,2,0:0:0:0:
109,384,124253,6,0,B|66:277|66:277|94:241,1,160,10|8,0:3|0:3,0:0:0:0:
158,294,124740,1,2,0:0:0:0:
3,228,124902,6,0,B|56:160|56:160|90:165,1,119.999996337891,10|8,0:3|0:3,0:0:0:0:
94,242,125389,1,2,0:0:0:0:
174,137,125551,6,0,L|253:147,1,80,10|0,0:3|0:0,0:0:0:0:
285,225,125875,2,0,L|364:235,1,80,10|0,0:3|0:0,0:0:0:0:
511,101,126199,5,8,0:3:0:0:
511,101,126361,1,2,0:0:0:0:
358,136,126524,1,10,0:3:0:0:
358,136,126686,1,2,0:0:0:0:
459,17,126848,5,10,0:3:0:0:
459,17,127010,1,2,0:0:0:0:
447,175,127172,1,10,0:3:0:0:
447,175,127334,1,2,0:0:0:0:
365,40,127497,5,10,0:3:0:0:
365,40,127659,1,2,0:0:0:0:
511,101,127821,1,10,0:3:0:0:
511,101,127983,1,2,0:0:0:0:
358,136,128145,6,0,P|311:118|276:81,1,100,10|0,0:3|0:0,0:0:0:0:
212,6,128470,2,0,P|177:41|131:59,1,100,10|0,0:3|0:0,0:0:0:0:
76,203,128794,6,0,B|132:187|149:139|149:139|192:169|245:153,1,200,10|8,0:3|0:3,0:0:0:0:
184,257,129280,1,2,0:0:0:0:
95,208,129443,6,0,B|140:195|153:157|153:157|188:180|230:168,1,160,10|8,0:3|0:3,0:0:0:0:
190,272,129929,1,2,0:0:0:0:
116,212,130091,6,0,B|149:202|159:174|159:174|185:191|216:182,1,119.999996337891,10|8,0:3|0:3,0:0:0:0:
196,287,130578,1,2,0:0:0:0:
216,182,130740,6,0,L|111:214,1,104.999996795654,10|0,0:3|0:0,0:0:0:0:
34,35,131389,5,10,0:3:0:0:
34,35,131551,1,10,0:3:0:0:
115,212,131713,2,0,P|97:294|41:363,1,160,12|0,0:0|0:0,0:0:0:0:
256,188,132037,6,0,P|255:252|238:317,1,119.999996337891,10|0,0:3|0:0,0:0:0:0:
396,164,132361,1,10,0:0:0:0:
205,51,132524,1,2,0:0:0:0:
396,164,132686,6,0,P|402:214|396:254,1,80,10|0,0:3|0:0,0:0:0:0:
505,141,133010,1,10,0:0:0:0:
355,70,133172,1,2,0:0:0:0:
472,17,133334,5,10,0:3:0:0:
277,107,133497,1,2,0:0:0:0:
431,277,133659,2,0,P|422:227|405:181,1,100,10|0,0:0|0:0,0:0:0:0:
201,64,133983,6,0,B|195:138|195:138|200:152|200:152|192:222,1,160,10|0,0:3|0:0,0:0:0:0:
183,303,134307,1,10,0:0:0:0:
348,234,134470,1,2,0:0:0:0:
121,98,134632,6,0,B|116:153|116:153|120:164|120:164|114:217,1,119.999996337891,10|0,0:3|0:0,0:0:0:0:
106,297,134956,1,10,0:0:0:0:
270,228,135118,1,2,0:0:0:0:
43,135,135280,6,0,B|40:171|40:171|42:178|42:178|38:213,1,80,10|0,0:3|0:0,0:0:0:0:
28,291,135605,1,10,0:0:0:0:
192,222,135767,1,2,0:0:0:0:
147,375,135929,6,0,P|121:333|126:284,1,100,10|0,0:3|0:0,0:0:0:0:
192,222,136253,1,10,0:0:0:0:
285,349,136416,2,0,P|297:301|276:256,1,100,2|8,0:0|0:3,0:0:0:0:
149,110,136740,5,2,0:0:0:0:
270,151,136902,1,10,0:0:0:0:
131,105,137064,1,2,0:0:0:0:
282,30,137226,2,0,L|253:146,1,119.999996337891,10|0,0:3|0:0,0:0:0:0:
113,100,137551,1,10,0:0:0:0:
234,141,137713,1,2,0:0:0:0:
418,36,137875,5,10,0:3:0:0:
374,161,138037,1,2,0:0:0:0:
460,261,138199,1,10,0:0:0:0:
504,136,138361,1,2,0:0:0:0:
330,286,138524,6,0,P|281:318|222:320,1,119.999996337891,10|0,0:3|0:0,0:0:0:0:
0,293,138848,2,0,P|59:291|108:258,1,119.999996337891,10|0,0:0|0:0,0:0:0:0:
199,0,139172,6,0,B|155:-1|155:-1|108:55|108:55|119:96,1,160,10|0,0:3|0:0,0:0:0:0:
365,104,139497,1,10,0:0:0:0:
253,238,139659,1,2,0:0:0:0:
191,12,139821,6,0,B|158:11|158:11|123:53|123:53|132:84,1,119.999996337891,10|0,0:3|0:0,0:0:0:0:
343,112,140145,1,10,0:0:0:0:
254,218,140307,1,2,0:0:0:0:
181,25,140470,6,0,B|159:24|159:24|136:52|136:52|141:73,1,80,10|0,0:3|0:0,0:0:0:0:
140,176,140794,6,0,B|171:125|171:125|141:73,1,119.999996337891,10|0,0:0|0:0,0:0:0:0:
72,334,141118,2,0,B|41:282|41:282|71:230,1,119.999996337891,10|0,0:3|0:0,0:0:0:0:
153,365,141443,1,10,0:0:0:0:
372,223,141767,6,0,P|431:232|483:262,1,119.999996337891,6|2,0:0|0:0,0:0:0:0:
401,115,142253,2,0,P|349:144|290:153,1,119.999996337891,2|0,0:0|0:0,0:0:0:0:
264,242,142740,2,0,P|239:224|211:213,1,59.9999981689454,2|2,0:0|0:0,0:0:0:0:
133,153,143064,2,0,P|128:210|80:244,1,119.999996337891,2|2,0:0|0:0,0:0:0:0:
62,93,143551,2,0,P|-13:135|0:220,1,179.999994506836,2|0,0:0|0:0,0:0:0:0:
121,37,144361,6,0,B|168:68|168:68|230:57,1,119.999996337891,2|2,0:0|0:0,0:0:0:0:
308,8,144848,2,0,P|318:35|320:65,1,59.9999981689454,2|0,0:0|0:0,0:0:0:0:
417,67,145172,2,0,P|384:115|390:174,1,119.999996337891,2|2,0:0|0:0,0:0:0:0:
512,238,145659,2,0,L|369:257,1,119.999996337891,2|2,0:0|0:0,0:0:0:0:
256,223,146145,2,0,L|315:215,1,59.9999981689454,2|0,0:0|0:0,0:0:0:0:
366,335,146470,2,0,L|247:350,1,119.999996337891,2|0,0:0|0:0,0:0:0:0:
366,335,146956,5,8,0:3:0:0:
272,145,147118,1,10,0:3:0:0:
453,269,147280,2,0,B|467:314|467:314|464:335|464:335|479:384,1,119.999996337891,12|0,0:0|0:0,0:0:0:0:
204,189,147605,2,0,B|188:139|188:139|192:118|192:118|177:73,1,119.999996337891,10|0,0:3|0:0,0:0:0:0:
2,303,147929,2,0,B|98:328|98:328|125:313|125:313|173:325,1,179.999994506836,10|0,0:0|0:0,0:0:0:0:
247,350,148253,5,8,0:3:0:0:
124,159,148416,2,0,P|67:148|22:185,2,119.999996337891,2|10|0,0:0|0:0|0:0,0:0:0:0:
362,222,148902,2,0,P|316:258|259:248,1,119.999996337891,10|0,0:3|0:0,0:0:0:0:
208,18,149226,2,0,B|240:50|240:50|255:125|208:179,1,179.999994506836,10|0,0:0|0:0,0:0:0:0:
158,236,149551,5,8,0:3:0:0:
343,134,149713,2,0,B|423:142|423:142|446:174,2,119.999996337891,0|10|0,0:0|0:0|0:0,0:0:0:0:
135,323,150199,2,0,B|215:316|215:316|238:284,1,119.999996337891,10|0,0:3|0:0,0:0:0:0:
388,60,150524,2,0,B|301:16|309:97|215:58,1,179.999994506836,10|0,0:0|0:0,0:0:0:0:
106,17,150848,6,0,B|115:54|115:54|126:67|126:67|140:130,1,119.999996337891,8|0,0:3|0:0,0:0:0:0:
376,247,151172,2,0,B|361:183|361:183|351:171|351:171|342:134,1,119.999996337891,8|0,0:0|0:0,0:0:0:0:
31,116,151497,2,0,P|87:144|145:127,1,119.999996337891,8|0,0:3|0:0,0:0:0:0:
452,120,151821,2,0,P|394:107|342:134,1,119.999996337891,8|0,0:0|0:0,0:0:0:0:
247,311,152145,6,0,L|116:285,1,119.999996337891,6|2,0:0|0:0,0:0:0:0:
73,356,152632,2,0,B|45:334|45:334|36:250,1,119.999996337891,2|0,0:0|0:0,0:0:0:0:
0,169,153118,2,0,P|28:159|57:163,1,59.9999981689454,2|2,0:0|0:0,0:0:0:0:
145,191,153443,2,0,P|217:141|305:158,1,179.999994506836,2|0,0:0|0:0,0:0:0:0:
334,238,154091,2,0,P|375:211|386:189,1,59.9999981689454,2|0,0:0|0:0,0:0:0:0:
462,219,154416,2,0,P|459:169|445:149,1,59.9999981689454,2|0,0:0|0:0,0:0:0:0:
511,87,154740,6,0,B|451:50|379:75|415:103|339:130|284:93,1,239.999992675781,2|0,0:0|0:0,0:0:0:0:
372,260,155713,2,0,P|374:210|388:190,1,59.9999981689454,2|0,0:0|0:0,0:0:0:0:
410,342,156037,5,2,0:0:0:0:
329,384,156361,1,2,0:0:0:0:
266,313,156686,2,0,L|173:298,1,89.9999972534181,2|0,0:0|0:0,0:0:0:0:
89,340,157010,6,0,P|94:262|169:287,1,179.999994506836,0|0,0:0|0:0,0:0:0:0:
174,377,157334,5,8,0:3:0:0:
402,262,157497,1,8,0:3:0:0:
226,216,157659,1,8,0:0:0:0:
475,316,157821,2,0,P|491:192|383:181,1,239.999992675781,8|8,0:3|0:3,0:0:0:0:
416,381,158307,2,0,P|372:339|318:315,1,119.999996337891,8|0,0:0|0:0,0:0:0:0:
68,254,158632,5,8,0:3:0:0:
249,136,158794,1,8,0:3:0:0:
157,271,158956,1,8,0:2:0:0:
253,48,159118,2,0,B|314:3|314:3|340:188,1,239.999992675781,8|8,0:3|0:3,0:0:0:0:
146,19,159605,2,0,B|162:137,1,119.999996337891,8|0,0:0|0:0,0:0:0:0:
303,274,159929,5,8,0:3:0:0:
442,153,160091,1,8,0:3:0:0:
503,347,160253,1,8,0:0:0:0:
511,108,160416,2,0,B|510:81|491:59|491:59|426:38|356:68|344:134,1,239.999992675781,8|8,0:3|0:3,0:0:0:0:
495,263,160902,2,0,P|436:241|375:243,1,119.999996337891,8|0,0:0|0:0,0:0:0:0:
174,348,161226,6,0,B|201:339|201:339|218:249,1,119.999996337891,8|0,1:3|0:0,0:0:0:0:
201,74,161551,2,0,B|174:83|174:83|156:172,1,119.999996337891,8|0,1:3|0:0,0:0:0:0:
65,286,161875,6,0,L|131:269,3,59.9999981689454,8|0|0|0,0:3|0:0|0:0|0:0,0:0:0:0:
310,136,162199,2,0,L|244:153,1,59.9999981689454,10|0,0:0|0:0,0:0:0:0:
65,286,162361,2,0,L|123:271,1,59.9999981689454,10|0,0:3|0:0,0:0:0:0:
385,95,162524,5,8,0:3:0:0:
445,298,162686,1,8,0:0:0:0:
448,308,162848,1,8,0:0:0:0:
285,72,163010,5,8,0:3:0:0:
233,320,163172,1,8,0:0:0:0:
231,332,163334,1,8,0:0:0:0:
68,46,163497,5,8,0:3:0:0:
115,337,163659,1,8,0:0:0:0:
119,351,163821,1,8,0:0:0:0:
285,72,163983,5,8,0:3:0:0:
233,320,164145,1,8,0:0:0:0:
231,332,164307,1,8,0:0:0:0:
385,95,164470,5,8,0:3:0:0:
445,298,164632,1,8,0:0:0:0:
394,104,164794,5,8,0:3:0:0:
456,295,164956,1,8,0:0:0:0:
404,111,165118,5,8,0:3:0:0:
305,244,165280,1,8,0:3:0:0:
201,0,165443,1,8,0:0:0:0:
108,273,165605,5,8,0:3:0:0:
207,140,165767,1,8,0:3:0:0:
311,384,165929,1,8,0:0:0:0:
175,44,166091,5,8,0:3:0:0:
308,143,166253,1,8,0:3:0:0:
38,231,166416,1,8,0:0:0:0:
337,340,166578,5,8,0:3:0:0:
204,241,166740,1,8,0:3:0:0:
474,153,166902,1,8,0:0:0:0:
244,74,167064,6,0,L|200:63,1,29.9999990844727,8|0,0:0|0:0,0:0:0:0:
239,92,167145,2,0,L|195:81,1,29.9999990844727
234,110,167226,2,0,L|190:99,1,29.9999990844727
229,128,167307,2,0,L|185:117,1,29.9999990844727
278,189,167389,6,0,L|336:174,1,50,8|0,0:0|0:0,0:0:0:0:
285,215,167470,2,0,L|343:200,1,50
292,240,167551,2,0,L|350:225,1,50
298,265,167632,2,0,L|356:250,1,50
256,335,167713,5,12,0:3:0:0:
256,335,169010,5,0,1:0:0:0:
260,317,169091,1,0,1:0:0:0:
263,303,169172,1,0,1:0:0:0:
267,289,169253,1,0,1:0:0:0:
271,275,169334,1,0,1:0:0:0:
421,135,169497,5,8,0:0:0:0:
90,60,169659,1,8,0:0:0:0:
146,270,169983,6,0,P|161:179|76:214,1,225.000008583069,8|0,0:0|0:0,0:0:0:0:
55,346,170307,6,0,B|106:346|106:346|120:352|120:352|183:352,1,129.999994049073,12|0,0:3|0:0,0:0:0:0:
490,244,170632,2,0,B|427:244|427:244|413:238|413:238|362:238,1,129.999994049073,8|0,0:3|0:0,0:0:0:0:
49,114,170956,2,0,B|100:114|100:114|114:120|114:120|177:120,1,129.999994049073,8|0,0:3|0:0,0:0:0:0:
484,12,171280,2,0,B|421:12|421:12|407:6|407:6|356:6,1,129.999994049073,8|0,0:3|0:0,0:0:0:0:
512,355,171605,6,0,P|474:305|490:244,1,129.999994049073,8|0,0:3|0:0,0:0:0:0:
355,6,171929,2,0,P|370:67|332:116,1,129.999994049073,8|0,0:3|0:0,0:0:0:0:
233,365,172253,2,0,P|195:315|211:254,1,129.999994049073,8|0,0:3|0:0,0:0:0:0:
76,16,172578,2,0,P|91:77|53:126,1,129.999994049073,8|0,0:3|0:0,0:0:0:0:
0,233,172902,6,0,B|90:241|90:241|118:212,1,129.999994049073,8|0,0:3|0:0,0:0:0:0:
117,354,173226,2,0,B|145:326|145:326|235:334,1,129.999994049073,8|0,0:3|0:0,0:0:0:0:
259,241,173551,2,0,B|349:249|349:249|377:220,1,129.999994049073,8|0,0:3|0:0,0:0:0:0:
376,362,173875,2,0,B|404:334|404:334|494:342,1,129.999994049073,8|0,0:3|0:0,0:0:0:0:
408,142,174199,6,0,P|380:83|368:20,1,129.999994049073,8|0,0:3|0:0,0:0:0:0:
259,241,174524,2,0,P|272:177|300:118,1,129.999994049073,8|0,0:3|0:0,0:0:0:0:
190,142,174848,2,0,P|162:83|150:20,1,129.999994049073,8|0,0:3|0:0,0:0:0:0:
96,233,175172,2,0,P|99:200|108:169,1,64.9999970245363,8|0,0:3|0:0,0:0:0:0:
38,118,175334,2,0,P|29:87|26:55,1,64.9999970245363,8|0,0:3|0:0,0:0:0:0:
55,319,175497,6,0,P|104:280|168:282,1,129.999994049073,8|0,0:3|0:0,0:0:0:0:
238,41,175821,2,0,P|188:80|124:78,1,129.999994049073,8|0,0:3|0:0,0:0:0:0:
295,347,176145,2,0,P|344:307|408:309,1,129.999994049073,8|0,0:3|0:0,0:0:0:0:
477,68,176470,2,0,P|427:107|363:105,1,129.999994049073,8|0,0:3|0:0,0:0:0:0:
22,31,176794,6,0,B|34:86|34:86|46:105|46:105|57:155,1,129.999994049073,8|0,0:3|0:0,0:0:0:0:
217,362,177118,2,0,B|206:312|206:312|194:293|194:293|182:238,1,129.999994049073,8|0,0:3|0:0,0:0:0:0:
243,0,177443,2,0,B|255:55|255:55|267:74|267:74|278:124,1,129.999994049073,8|0,0:3|0:0,0:0:0:0:
438,331,177767,2,0,B|427:281|427:281|415:262|415:262|403:207,1,129.999994049073,8|0,0:3|0:0,0:0:0:0:
445,12,178091,6,0,L|461:86,3,64.9999970245363,8|0|0|0,0:3|0:0|0:0|0:0,0:0:0:0:
491,214,178416,1,8,0:0:0:0:
327,75,178578,6,0,L|343:149,3,64.9999970245363,8|0|0|0,0:3|0:0|0:0|0:0,0:0:0:0:
373,277,178902,1,8,0:0:0:0:
209,138,179064,6,0,L|225:212,3,64.9999970245363,8|0|0|0,0:3|0:0|0:0|0:0,0:0:0:0:
255,340,179389,1,8,0:0:0:0:
198,132,179551,6,0,L|222:239,1,80,2|0,0:0|0:0,0:0:0:0:
316,69,179875,2,0,L|340:176,1,80,2|0,0:0|0:0,0:0:0:0:
434,6,180199,2,0,L|470:166,1,160,2|0,0:0|0:0,0:0:0:0:
490,249,180686,6,0,B|460:215|460:215|372:250,1,139.999995727539,8|0,1:3|0:0,0:0:0:0:
229,383,181010,2,0,B|273:374|273:374|287:280,1,139.999995727539,8|0,1:3|0:0,0:0:0:0:
243,89,181334,2,0,B|228:131|228:131|302:190,1,139.999995727539,8|0,1:3|0:0,0:0:0:0:
322,182,181578,1,0,1:0:0:0:
341,174,181659,1,8,1:3:0:0:
442,129,181821,1,0,1:0:0:0:
288,12,181983,6,0,P|227:45|159:57,1,139.999995727539,8|0,1:3|0:0,0:0:0:0:
18,64,182307,2,0,P|77:100|122:153,1,139.999995727539,8|0,1:3|0:0,0:0:0:0:
198,273,182632,2,0,P|199:203|223:137,1,139.999995727539,8|0,1:3|0:0,0:0:0:0:
241,128,182875,1,0,1:0:0:0:
261,121,182956,1,8,1:3:0:0:
365,86,183118,1,0,1:0:0:0:
379,290,183280,6,0,P|302:328|270:283,1,139.999995727539,8|0,1:3|0:0,0:0:0:0:
445,184,183605,2,0,P|516:231|492:281,1,139.999995727539,8|0,1:3|0:0,0:0:0:0:
320,181,183929,2,0,P|325:95|380:90,1,139.999995727539,8|0,1:3|0:0,0:0:0:0:
384,89,184172,1,0,1:0:0:0:
404,93,184253,1,8,1:3:0:0:
503,118,184416,1,0,1:0:0:0:
237,227,184578,6,0,B|220:171|220:171|228:152|228:152|210:93,1,139.999995727539,8|0,1:3|0:0,0:0:0:0:
15,22,184902,2,0,B|32:80|32:80|25:100|25:100|41:155,1,139.999995727539,8|0,1:3|0:0,0:0:0:0:
0,366,185226,2,0,L|67:346,1,69.9999978637696,8|0,1:3|0:0,0:0:0:0:
64,239,185389,1,0,1:0:0:0:
78,254,185470,2,0,L|145:234,1,69.9999978637696,8|0,1:3|0:0,0:0:0:0:
221,307,185632,1,0,1:0:0:0:
235,322,185713,2,0,L|302:302,1,69.9999978637696,8|0,1:3|0:0,0:0:0:0:
434,328,185875,6,0,P|440:260|393:210,1,139.999995727539,8|0,1:3|1:0,0:0:0:0:
195,15,186199,2,0,P|189:83|236:133,1,139.999995727539,8|0,1:3|1:0,0:0:0:0:
512,171,186524,2,0,P|444:165|394:212,1,139.999995727539,8|0,1:3|1:0,0:0:0:0:
117,172,186848,2,0,P|185:178|235:131,1,139.999995727539,8|0,1:3|1:0,0:0:0:0:
409,72,187172,6,0,L|394:211,1,139.999995727539,8|0,1:3|1:0,0:0:0:0:
103,312,187497,2,0,L|117:172,1,139.999995727539,8|0,1:3|1:0,0:0:0:0:
472,288,187821,2,0,L|332:302,1,139.999995727539,8|0,1:3|1:0,0:0:0:0:
40,96,188145,2,0,L|179:81,1,139.999995727539,8|0,1:3|1:0,0:0:0:0:
386,35,188470,6,0,L|412:104,3,69.9999978637696,8|0|0|0,1:3|1:0|1:0|1:0,0:0:0:0:
500,255,188794,2,0,L|430:243,3,69.9999978637696,8|0|0|0,1:3|1:0|1:0|1:0,0:0:0:0:
508,112,189118,2,0,L|463:166,3,69.9999978637696,8|0|0|0,1:3|1:0|1:0|1:0,0:0:0:0:
371,321,189443,2,0,L|345:256,3,69.9999978637696,8|0|0|0,1:3|1:0|1:0|1:0,0:0:0:0:
277,199,189767,5,8,1:3:0:0:
228,177,189848,1,0,1:0:0:0:
176,183,189929,1,0,1:0:0:0:
133,215,190010,1,0,1:0:0:0:
155,259,190091,5,8,1:3:0:0:
188,249,190172,1,0,1:0:0:0:
222,253,190253,1,0,1:0:0:0:
253,269,190334,1,0,1:0:0:0:
233,315,190416,5,8,1:3:0:0:
215,312,190497,1,0,1:0:0:0:
198,314,190578,1,0,1:0:0:0:
181,319,190659,1,0,1:0:0:0:
207,361,190740,5,8,1:2:0:0:
207,361,191064,5,8,0:3:0:0:
120,190,191226,1,8,0:3:0:0:
400,133,191389,1,8,0:0:0:0:
179,272,191551,5,8,0:3:0:0:
188,61,191713,1,8,0:3:0:0:
487,160,191875,1,8,0:0:0:0:
308,375,192037,5,8,0:3:0:0:
403,187,192199,1,8,0:3:0:0:
96,124,192361,1,8,0:0:0:0:
339,276,192524,5,8,0:3:0:0:
328,44,192686,1,8,0:3:0:0:
0,153,192848,1,8,0:0:0:0:
375,350,193010,5,8,0:3:0:0:
310,22,193172,1,8,0:0:0:0:
125,365,193334,5,8,0:3:0:0:
196,4,193497,1,8,0:0:0:0:
353,103,193659,5,8,0:3:0:0:
370,97,193740,1,8,0:3:0:0:
387,91,193821,1,8,0:3:0:0:
404,85,193902,1,8,0:3:0:0:
421,79,193983,1,8,0:0:0:0:
165,170,194145,5,8,0:3:0:0:
138,161,194226,1,8,0:3:0:0:
111,152,194307,1,8,0:3:0:0:
85,142,194389,1,8,0:3:0:0:
57,132,194470,1,8,0:0:0:0:
312,257,194632,5,8,0:3:0:0:
352,243,194713,1,8,0:3:0:0:
393,229,194794,1,8,0:3:0:0:
432,214,194875,1,8,0:3:0:0:
472,201,194956,1,8,0:0:0:0:
212,384,195118,5,8,0:3:0:0:
158,365,195199,1,8,0:3:0:0:
105,347,195280,1,8,0:3:0:0:
53,328,195361,1,8,0:3:0:0:
0,311,195443,1,8,0:0:0:0:
341,273,195605,6,0,L|368:345,1,69.9999978637696,8|0,0:3|0:0,0:0:0:0:
170,110,195767,2,0,L|143:38,1,69.9999978637696,8|0,0:0|0:0,0:0:0:0:
409,79,195929,2,0,L|337:106,1,69.9999978637696,8|0,0:3|0:0,0:0:0:0:
102,304,196091,2,0,L|174:277,1,69.9999978637696,8|0,0:0|0:0,0:0:0:0:
460,164,196253,6,0,B|514:209|514:209|388:179|388:179|344:191|344:191|290:178,1,300,12|0,0:3|0:0,0:0:0:0:
86,236,197551,6,0,P|112:250|132:272,2,59.9999981689454,6|2|2,0:0|0:0|0:0,0:0:0:0:
90,345,198037,2,0,P|142:317|202:319,1,119.999996337891,2|2,0:0|0:0,0:0:0:0:
304,378,198524,2,0,P|330:363|350:341,2,59.9999981689454,2|2|2,0:0|0:0|0:0,0:0:0:0:
308,269,199010,2,0,P|360:296|420:294,1,119.999996337891,2|2,0:0|0:0,0:0:0:0:
380,208,199497,6,0,L|394:147,1,59.9999981689454,2|0,0:0|0:0,0:0:0:0:
414,70,199821,2,0,L|428:9,1,59.9999981689454,2|0,0:0|0:0,0:0:0:0:
291,16,200145,6,0,P|275:51|283:90,1,69.9999978637696,8|0,0:3|0:0,0:0:0:0:
196,185,200470,2,0,P|212:150|204:111,1,69.9999978637696,8|0,0:3|0:0,0:0:0:0:
197,35,200794,6,0,L|119:52,1,80,8|0,0:3|0:0,0:0:0:0:
33,170,201118,2,0,L|112:154,1,80,8|0,0:3|0:0,0:0:0:0:
70,341,201443,6,0,P|88:300|97:256,1,89.9999972534181,8|0,0:3|0:0,0:0:0:0:
208,159,201767,2,0,P|216:203|235:243,1,89.9999972534181,8|0,0:3|0:0,0:0:0:0:
510,306,202091,6,0,P|477:341|430:336,1,100,8|0,0:3|0:0,0:0:0:0:
307,173,202416,2,0,P|339:137|386:142,1,100,8|0,0:3|0:0,0:0:0:0:
326,354,202740,5,8,1:3:0:0:
322,345,202821,1,0,1:0:0:0:
317,335,202902,2,0,L|268:321,1,50,0|0,1:0|1:0,1:0:0:0:
83,267,203064,5,8,1:3:0:0:
98,260,203145,1,0,1:0:0:0:
113,253,203226,2,0,L|129:195,1,59.9999981689454,0|0,1:0|1:0,1:0:0:0:
181,3,203389,5,8,1:3:0:0:
187,26,203470,1,0,1:0:0:0:
195,49,203551,2,0,L|262:68,1,69.9999978637696,0|0,1:0|1:0,1:0:0:0:
470,117,203713,5,8,1:3:0:0:
434,122,203794,1,0,1:0:0:0:
399,131,203875,2,0,L|377:207,1,80,0|0,1:0|1:0,1:0:0:0:
335,374,204037,5,12,1:3:0:0:
256,192,204199,12,0,206307,0:0:0:0:
62,290,206632,6,0,B|50:333|4:382|4:382|51:335|120:305|120:305|140:312|140:312|201:285|266:305,1,400,14|0,0:3|0:0,0:0:0:0:
341,336,207118,1,8,0:3:0:0:
329,66,207280,6,0,B|284:32|277:-9|277:-9|251:27|207:41,1,179.999994506836,10|0,0:0|0:0,0:0:0:0:
52,167,207524,1,2,0:0:0:0:
69,169,207605,2,0,B|112:183|138:219|138:219|146:177|190:144,1,179.999994506836,2|0,0:0|0:0,0:0:0:0:
370,163,207848,1,2,0:0:0:0:
352,158,207929,2,0,P|308:168|274:201,1,89.9999972534181,2|0,0:0|0:0,0:0:0:0:
416,335,208091,6,0,B|447:288|504:254|504:254|429:282|357:264|357:264|340:285|319:299|319:299|258:282|193:315,1,449.99998626709,10|0,0:3|0:0,0:0:0:0:
132,368,208578,2,0,B|107:364|81:368|81:368|104:353|116:334,1,100,8|0,0:0|0:0,0:0:0:0:
111,105,208740,6,0,P|112:129|107:154,1,50,2|0,0:0|0:0,0:0:0:0:
139,84,208902,2,0,P|152:103|162:126,1,50,2|0,0:0|0:0,0:0:0:0:
152,51,209064,2,0,P|173:61|193:76,1,50,2|0,0:0|0:0,0:0:0:0:
299,372,209226,6,0,B|283:272|283:272|386:311|386:311|487:248|487:248|492:178,1,400,8|0,0:3|0:0,0:0:0:0:
498,96,209713,1,8,0:3:0:0:
377,3,209875,6,2,B|364:52|364:52|439:119|439:119|488:101,1,200,10|0,0:0|0:0,0:1:0:0:
256,78,210118,6,2,B|295:122|295:122|246:188|246:188|191:165,1,200,2|0,0:0|0:0,0:1:0:0:
73,90,210361,6,2,B|64:66|64:66|111:49|111:49|119:73,1,100,2|0,0:0|0:0,0:1:0:0:
58,201,210524,6,0,P|56:225|48:249,1,50,2|2,0:0|0:0,0:0:0:0:
15,330,210686,5,10,0:3:0:0:
26,317,210767,1,2,0:0:0:0:
42,307,210848,1,2,0:0:0:0:
59,303,210929,1,2,0:0:0:0:
75,303,211010,1,2,0:0:0:0:
93,306,211091,1,2,0:0:0:0:
142,360,211172,6,0,P|152:253|223:335,1,269.999991760254,8|0,0:0|0:0,0:0:0:0:
142,360,211497,6,2,B|268:317|268:317|359:358|359:358|450:327,1,330.000010070801,8|0,0:3|0:0,0:1:0:0:
457,86,211821,6,0,B|388:3|388:3|398:99|398:99|392:110|392:110|405:213|405:213|347:153,1,400,14|0,0:3|0:0,0:0:0:0:
288,102,212307,1,8,0:3:0:0:
76,107,212470,6,0,B|34:78|34:78|197:39|197:39|170:83,1,269.999991760254,10|0,0:0|0:0,0:0:0:0:
126,264,212794,2,0,B|26:239|26:239|14:204,2,139.999995727539,2|2|2,0:0|0:0|0:0,0:0:0:0:
255,293,213280,6,0,B|246:233|296:193|296:193|186:237|206:364|301:441|445:329,1,449.99998626709,10|0,0:3|0:0,0:0:0:0:
464,330,213767,2,0,P|480:292|440:300,1,100,10|0,0:0|0:0,0:0:0:0:
401,105,213929,6,0,P|400:129|405:154,1,50,2|0,0:0|0:0,0:0:0:0:
373,84,214091,2,0,P|360:103|350:126,1,50,2|0,0:0|0:0,0:0:0:0:
360,51,214253,2,0,P|338:61|318:76,1,50,2|0,0:0|0:0,0:0:0:0:
141,223,214416,5,8,1:3:0:0:
151,213,214497,1,0,1:0:0:0:
159,200,214578,1,0,1:0:0:0:
164,186,214659,1,0,1:0:0:0:
165,171,214740,1,0,1:0:0:0:
163,156,214821,1,0,1:0:0:0:
154,142,214902,2,0,L|74:135,1,80,10|0,0:3|0:0,0:0:0:0:
148,341,215064,6,0,B|96:311|96:311|179:304|179:304|210:279|210:279|349:261,1,300,8|0,0:0|0:0,0:0:0:0:
502,140,215389,6,0,B|510:124|503:101|503:101|493:130|468:148,1,100,2|0,0:0|0:0,0:0:0:0:
342,157,215551,2,0,B|324:159|307:176|307:176|337:171|366:184,1,100,2|0,0:0|0:0,0:0:0:0:
438,287,215713,2,0,B|448:302|471:308|471:308|452:284|449:254,1,100,2|0,0:0|0:0,0:0:0:0:
453,28,215875,6,2,B|395:71|395:71|342:53|342:53|333:42|333:42|251:13|251:13|236:16|236:16|201:3,1,279.999991455078,10|0,0:3|0:0,0:1:0:0:
20,210,216361,6,0,P|38:87|162:88,1,269.999991760254,8|0,0:0|0:0,0:0:0:0:
161,87,216686,2,0,B|148:163|148:163|151:173|151:173|140:234,1,150,0|0,0:0|0:0,0:0:0:0:
87,361,217010,5,10,1:3:0:0:
95,371,217091,1,2,0:0:0:0:
104,381,217172,2,0,P|131:380|153:386,2,46.6666652425131,2|2|2,0:0|0:0|0:0,0:0:0:0:
226,341,217334,2,0,P|253:341|316:316,1,69.9999978637696,10|0,1:3|0:0,0:0:0:0:
404,384,217497,1,2,0:0:0:0:
497,279,217659,2,0,P|424:262|399:379,1,209.999993591309,8|0,1:3|1:0,0:0:0:0:
316,250,217983,5,10,1:3:0:0:
306,242,218064,1,2,0:0:0:0:
296,233,218145,2,0,P|300:205|305:175,2,46.6666652425131,2|2|2,1:2|0:0|0:0,0:0:0:0:
225,139,218307,2,0,P|214:105|218:48,1,69.9999978637696,10|0,1:3|0:0,0:0:0:0:
283,21,218470,1,0,0:0:0:0:
129,74,218632,2,0,P|175:-12|272:7,1,209.999993591309,8|0,1:3|0:0,0:0:0:0:
317,103,218956,5,10,1:3:0:0:
333,96,219037,1,2,0:0:0:0:
347,86,219118,1,2,0:0:0:0:
359,73,219199,1,2,1:2:0:0:
368,58,219280,5,10,1:3:0:0:
369,92,219361,1,2,0:0:0:0:
380,125,219443,1,2,1:2:0:0:
398,154,219524,1,2,0:0:0:0:
432,176,219605,5,10,1:3:0:0:
442,184,219686,1,2,0:0:0:0:
452,193,219767,2,0,L|458:246,2,46.6666652425131,2|2|2,0:0|0:0|0:0,0:0:0:0:
386,281,219929,2,0,L|393:349,1,69.9999978637696,10|2,1:3|0:0,0:0:0:0:
307,248,220091,1,2,0:0:0:0:
255,384,220253,2,0,B|246:313|246:313|226:281|226:281|210:166,1,209.999993591309,8|0,1:3|1:0,0:0:0:0:
153,112,220578,5,10,1:3:0:0:
143,104,220659,1,2,0:0:0:0:
133,95,220740,2,0,L|127:42,2,46.6666652425131,2|2|2,1:2|0:0|0:0,0:0:0:0:
71,150,220902,2,0,L|2:157,1,69.9999978637696,10|2,1:3|0:0,0:0:0:0:
130,217,221064,1,2,0:0:0:0:
11,297,221226,2,0,B|82:289|82:289|117:302|117:302|233:291,1,209.999993591309,8|0,1:3|1:0,0:0:0:0:
305,316,221551,5,10,1:3:0:0:
311,293,221632,1,2,0:0:0:0:
310,270,221713,1,2,1:2:0:0:
300,248,221794,1,2,0:0:0:0:
281,227,221875,1,10,1:3:0:0:
255,202,221956,1,2,1:2:0:0:
238,163,222037,1,2,1:2:0:0:
243,113,222118,1,2,1:2:0:0:
283,74,222199,6,0,L|466:51,1,139.999995727539,10|0,1:3|1:0,0:0:0:0:
166,230,222524,2,0,L|27:247,1,139.999995727539,8|0,1:3|1:0,0:0:0:0:
0,46,222848,5,10,1:3:0:0:
40,36,222929,1,2,0:0:0:0:
81,49,223010,1,2,1:2:0:0:
108,81,223091,1,2,0:0:0:0:
116,124,223172,2,0,P|155:107|206:98,1,69.9999978637696,10|0,1:3|0:0,0:0:0:0:
223,12,223334,2,0,B|246:45|246:45|346:56,1,139.999995727539,2|8,1:2|1:3,0:0:0:0:
467,101,223659,5,2,1:2:0:0:
465,114,223740,1,2,0:0:0:0:
443,139,223821,5,10,1:3:0:0:
447,155,223902,1,2,0:0:0:0:
451,172,223983,1,2,1:2:0:0:
455,189,224064,1,2,0:0:0:0:
459,205,224145,1,8,1:3:0:0:
377,309,224307,5,2,1:2:0:0:
364,316,224389,1,2,0:0:0:0:
351,321,224470,5,10,1:3:0:0:
324,301,224551,1,2,0:0:0:0:
290,294,224632,1,2,1:2:0:0:
257,302,224713,1,2,0:0:0:0:
228,322,224794,5,10,1:3:0:0:
195,309,224875,1,2,1:2:0:0:
175,281,224956,1,2,1:2:0:0:
171,247,225037,1,2,1:2:0:0:
184,216,225118,2,0,P|206:188|214:152,3,69.9999978637696,10|2|2|2,1:3|1:2|1:2|1:2,0:0:0:0:
202,55,225443,5,10,1:3:0:0:
180,27,225524,1,2,1:2:0:0:
150,10,225605,1,2,1:2:0:0:
115,6,225686,1,2,1:2:0:0:
82,16,225767,1,10,1:3:0:0:
54,37,225848,1,2,1:2:0:0:
37,67,225929,1,2,1:2:0:0:
33,102,226010,1,2,1:2:0:0:
43,135,226091,5,10,1:3:0:0:
74,123,226172,1,2,1:2:0:0:
108,119,226253,1,2,1:2:0:0:
141,119,226334,1,2,1:2:0:0:
175,126,226416,1,2,1:2:0:0:
207,137,226497,1,2,1:2:0:0:
239,148,226578,1,2,1:2:0:0:
278,152,226659,1,2,1:2:0:0:
323,152,226740,6,0,L|343:51,1,69.9999978637696,2|0,1:2|1:0,0:0:0:0:
511,83,226902,2,0,L|497:152,1,69.9999978637696,2|0,1:2|1:0,0:0:0:0:
405,314,227064,2,0,B|424:204|424:204|408:156|408:156|431:40,1,279.999991455078,2|4,1:2|0:1,0:0:0:0:
256,192,227551,12,0,229983,0:0:0:0:
101,114,245551,6,0,L|115:193,1,80,2|0,0:0|0:0,0:0:0:0:
129,272,246037,2,0,L|115:193,1,80,2|0,0:0|0:0,0:0:0:0:
193,179,246524,2,0,L|114:193,1,80,2|0,0:0|0:0,0:0:0:0:
36,207,247010,2,0,L|115:193,1,80,2|0,0:0|0:0,0:0:0:0:
193,179,247497,2,0,L|232:171,1,40,2|0,0:0|0:0,0:0:0:0:
310,157,247821,2,0,L|349:149,1,40,2|0,0:0|0:0,0:0:0:0:
481,335,248145,6,0,P|446:316|423:283,1,80,2|0,0:0|0:0,0:0:0:0:
366,232,248632,2,0,P|400:250|423:283,1,80,2|0,0:0|0:0,0:0:0:0:
372,341,249118,2,0,P|390:306|423:283,1,80,2|0,0:0|0:0,0:0:0:0:
475,226,249605,2,0,P|456:260|423:283,1,80,2|0,0:0|0:0,0:0:0:0:
338,263,250091,2,0,P|319:254|306:240,1,40,2|0,0:0|0:0,0:0:0:0:
286,158,250416,2,0,P|294:139|308:126,1,40,2|0,0:0|0:0,0:0:0:0:
221,277,250740,6,0,P|164:261|104:254,1,119.999996337891,2|0,0:0|0:0,0:0:0:0:
31,156,251226,2,0,P|90:149|148:132,1,119.999996337891,2|0,0:0|0:0,0:0:0:0:
236,42,251713,6,0,P|287:85|274:150,1,139.999995727539,2|0,0:0|0:0,0:0:0:0:
430,155,252199,2,0,P|379:198|393:264,1,139.999995727539,2|0,0:0|0:0,0:0:0:0:
464,346,252686,6,0,P|428:364|389:372,1,80,2|0,0:0|0:0,0:0:0:0:
303,307,253010,2,0,P|263:299|228:280,1,80,2|0,0:0|0:0,0:0:0:0:
75,125,253334,6,0,L|71:81,2,44.999998626709,10|8|8,1:3|1:3|1:3,0:0:0:0:
124,189,253578,2,0,L|128:233,2,44.999998626709,10|8|8,1:3|1:3|1:3,0:0:0:0:
161,98,253821,6,0,L|157:54,2,44.999998626709,10|8|8,1:3|1:3|1:3,0:0:0:0:
210,162,254064,2,0,L|214:206,2,44.999998626709,10|8|8,1:3|1:3|1:3,0:0:0:0:
313,83,254307,6,0,L|308:127,1,44.999998626709,10|8,1:3|1:3,0:0:0:0:
397,98,254470,2,0,L|393:142,1,44.999998626709,10|8,1:3|1:3,0:0:0:0:
438,262,254632,5,10,1:3:0:0:
418,277,254713,1,8,1:3:0:0:
396,288,254794,1,8,1:3:0:0:
372,296,254875,2,0,P|357:276|351:251,2,50,10|8|8,1:3|1:3|1:3,0:0:0:0:
273,187,255118,5,10,1:3:0:0:
247,166,255199,1,8,1:3:0:0:
219,152,255280,1,8,1:3:0:0:
190,143,255361,2,0,P|171:167|163:197,2,55.0000016784668,10|8|8,1:3|1:3|1:3,0:0:0:0:
113,262,255605,6,0,P|138:277|168:280,1,59.9999981689454,10|8,1:3|1:3,0:0:0:0:
97,120,255767,2,0,P|67:122|41:138,1,59.9999981689454,10|8,1:3|1:3,0:0:0:0:
178,383,255929,5,10,1:3:0:0:
214,369,256010,1,8,1:3:0:0:
244,345,256091,1,8,1:3:0:0:
263,312,256172,1,8,1:3:0:0:
269,273,256253,1,8,1:3:0:0:
260,235,256334,1,8,1:3:0:0:
239,202,256416,5,10,1:3:0:0:
211,151,256497,1,8,1:3:0:0:
211,93,256578,1,8,1:3:0:0:
238,41,256659,1,8,1:3:0:0:
286,9,256740,1,8,1:3:0:0:
344,3,256821,1,8,1:3:0:0:
397,26,256902,5,10,1:3:0:0:
336,63,256983,1,10,1:3:0:0:
265,75,257064,1,10,1:3:0:0:
194,60,257145,1,10,1:3:0:0:
133,20,257226,1,14,1:3:0:0:
256,192,258524,12,8,260794,0:0:0:0:
114,16,261118,6,0,B|129:90|129:90|158:109|158:109|179:230,1,194.999991073609,14|0,0:3|0:0,0:0:0:0:
185,271,261443,1,10,0:0:0:0:
332,48,261605,2,0,P|274:18|207:36,1,129.999994049073,2|8,0:0|0:3,0:0:0:0:
139,346,261929,2,0,P|202:355|256:322,1,129.999994049073,2|8,0:0|0:0,0:0:0:0:
459,63,262253,5,2,0:0:0:0:
453,81,262334,1,2,0:0:0:0:
448,101,262416,1,10,0:3:0:0:
267,225,262578,2,0,B|240:191|240:191|265:105,1,129.999994049073,2|8,0:0|0:0,0:0:0:0:
510,251,262902,2,0,B|537:285|537:285|512:371,1,129.999994049073,2|8,0:0|0:3,0:0:0:0:
342,168,263226,1,2,0:0:0:0:
165,334,263389,2,0,B|113:317|113:317|107:304|107:304|49:282,1,129.999994049073,8|0,0:0|0:0,0:0:0:0:
93,63,263713,5,10,0:3:0:0:
181,233,263875,1,2,0:0:0:0:
315,11,264037,1,10,0:0:0:0:
163,118,264199,1,2,0:0:0:0:
419,194,264361,1,10,0:3:0:0:
240,65,264524,1,2,0:0:0:0:
151,314,264686,1,10,0:0:0:0:
340,226,264848,1,2,0:0:0:0:
94,168,265010,5,10,0:3:0:0:
235,373,265172,2,0,P|253:311|229:252,1,129.999994049073,2|8,0:0|0:0,0:0:0:0:
11,139,265497,1,2,0:0:0:0:
6,121,265578,1,2,0:0:0:0:
1,103,265659,2,0,L|144:58,1,129.999994049073,10|0,0:3|0:0,0:0:0:0:
452,178,265983,2,0,L|327:217,1,129.999994049073,8|0,0:0|0:0,0:0:0:0:
44,280,266307,6,0,B|110:267|110:267|164:329,1,129.999994049073,8|0,0:3|0:0,0:0:0:0:
450,382,266632,2,0,P|405:331|432:253,1,129.999994049073,10|0,0:0|0:0,0:0:0:0:
478,0,266956,2,0,P|522:50|495:128,1,129.999994049073,10|0,0:3|0:0,0:0:0:0:
286,218,267280,1,10,0:0:0:0:
112,72,267443,1,2,0:0:0:0:
116,53,267524,1,2,0:0:0:0:
130,39,267605,6,0,P|191:53|275:106,1,129.999994049073,10|0,0:3|0:0,0:0:0:0:
392,297,267929,2,0,P|329:311|273:343,1,129.999994049073,8|0,0:0|0:0,0:0:0:0:
54,177,268253,2,0,P|111:156|119:233,1,129.999994049073,10|0,0:3|0:0,0:0:0:0:
59,291,268578,1,10,0:0:0:0:
252,231,268740,1,2,0:0:0:0:
270,226,268821,1,2,0:0:0:0:
288,221,268902,6,0,L|309:71,1,129.999994049073,10|0,0:3|0:0,0:0:0:0:
39,170,269226,2,0,L|18:320,1,129.999994049073,8|0,0:0|0:0,0:0:0:0:
7,51,269551,2,0,P|65:30|112:72,1,129.999994049073,8|0,0:3|0:0,0:0:0:0:
359,303,269875,2,0,P|314:345|255:326,1,129.999994049073,8|0,0:0|0:0,0:0:0:0:
183,138,270199,5,8,0:3:0:0:
300,49,270361,1,2,0:0:0:0:
284,151,270524,1,10,0:0:0:0:
196,34,270686,1,2,0:0:0:0:
300,318,270848,5,10,0:3:0:0:
396,165,271010,1,2,0:0:0:0:
410,348,271172,2,0,P|347:362|300:318,1,134.999995880127,0|0,1:0|0:0,0:0:0:0:
300,318,271497,6,0,B|281:273|281:273|192:246,1,139.999995727539,12|0,1:3|0:0,0:0:0:0:
0,384,271821,2,0,B|45:389|45:389|114:326,1,139.999995727539,8|0,1:3|0:0,0:0:0:0:
89,89,272145,2,0,B|60:125|60:125|81:216,1,139.999995727539,8|0,1:3|0:0,0:0:0:0:
102,224,272389,1,0,1:0:0:0:
120,230,272470,1,8,1:3:0:0:
251,191,272632,1,0,1:0:0:0:
441,331,272794,6,0,B|390:353|345:327|345:327|330:289,1,139.999995727539,8|0,1:3|0:0,0:0:0:0:
468,96,273118,2,0,B|512:129|512:181|512:181|487:212,1,139.999995727539,8|0,1:3|0:0,0:0:0:0:
251,191,273443,2,0,B|257:135|302:109|302:109|342:115,1,139.999995727539,8|0,1:3|0:0,0:0:0:0:
359,127,273686,1,0,1:0:0:0:
375,139,273767,1,8,1:3:0:0:
406,252,273929,1,0,1:0:0:0:
177,312,274091,6,0,B|122:297|122:297|104:282|104:282|46:266,1,139.999995727539,8|0,1:3|0:0,0:0:0:0:
228,78,274416,2,0,B|242:132|242:132|238:155|238:155|253:213,1,139.999995727539,8|0,1:3|0:0,0:0:0:0:
0,151,274740,2,0,B|39:111|39:111|61:103|61:103|104:61,1,139.999995727539,8|0,1:3|0:0,0:0:0:0:
120,47,274983,1,0,1:0:0:0:
136,34,275064,1,8,1:3:0:0:
244,86,275226,1,0,1:0:0:0:
459,0,275389,6,0,P|409:46|410:114,1,139.999995727539,8|0,1:3|0:0,0:0:0:0:
425,317,275713,2,0,P|474:270|473:202,1,139.999995727539,8|0,1:3|0:0,0:0:0:0:
312,70,276037,2,0,L|189:98,1,69.9999978637696,8|0,1:3|0:0,0:0:0:0:
320,250,276199,2,0,L|388:234,1,69.9999978637696,0|0,1:0|0:0,0:0:0:0:
149,42,276361,1,8,1:3:0:0:
142,69,276443,1,0,1:0:0:0:
136,96,276524,1,0,1:0:0:0:
130,123,276605,1,0,1:0:0:0:
123,150,276686,6,0,P|172:198|239:188,1,139.999995727539,8|0,1:3|1:0,0:0:0:0:
512,154,277010,2,0,P|463:106|396:116,1,139.999995727539,8|0,1:3|1:0,0:0:0:0:
201,304,277334,2,0,P|248:255|238:188,1,139.999995727539,8|0,1:3|1:0,0:0:0:0:
435,1,277659,2,0,P|387:49|397:116,1,139.999995727539,8|0,1:3|1:0,0:0:0:0:
473,303,277983,6,0,L|336:271,1,139.999995727539,8|0,1:3|1:0,0:0:0:0:
40,82,278307,2,0,L|176:113,1,139.999995727539,8|0,1:3|1:0,0:0:0:0:
414,193,278632,2,0,L|382:56,1,139.999995727539,8|0,1:3|1:0,0:0:0:0:
99,192,278956,2,0,L|130:328,1,139.999995727539,8|0,1:3|1:0,0:0:0:0:
482,248,279280,6,0,P|435:278|399:280,3,69.9999978637696,8|0|0|0,1:3|1:0|1:0|1:0,1:0:0:0:
274,356,279605,2,0,P|268:321|275:287,3,69.9999978637696,8|0|0|0,1:3|1:0|1:0|1:0,1:0:0:0:
409,363,279929,2,0,P|376:350|350:326,3,69.9999978637696,8|0|0|0,1:3|1:0|1:0|1:0,1:0:0:0:
212,234,280253,2,0,P|260:203|296:201,3,69.9999978637696,8|0|0|0,1:3|1:0|1:0|1:0,1:0:0:0:
359,200,280578,5,8,1:3:0:0:
365,147,280659,1,0,1:0:0:0:
371,95,280740,1,0,1:0:0:0:
378,42,280821,1,0,1:0:0:0:
327,44,280902,5,8,1:3:0:0:
295,30,280983,1,0,1:0:0:0:
264,16,281064,1,0,1:0:0:0:
232,0,281145,1,0,1:0:0:0:
212,38,281226,5,8,1:3:0:0:
201,51,281307,1,0,1:0:0:0:
190,64,281389,1,0,1:0:0:0:
177,76,281470,1,0,1:0:0:0:
202,101,281551,5,8,1:2:0:0:
202,101,281875,5,12,0:3:0:0:
152,272,282037,1,8,0:3:0:0:
84,33,282199,1,8,0:2:0:0:
253,307,282361,5,8,0:3:0:0:
198,119,282524,1,8,0:3:0:0:
124,384,282686,1,8,0:0:0:0:
276,138,282848,5,8,0:3:0:0:
336,345,283010,1,8,0:3:0:0:
418,54,283172,1,8,0:0:0:0:
358,263,283334,5,8,0:3:0:0:
423,36,283497,1,8,0:3:0:0:
512,355,283659,1,8,0:0:0:0:
428,18,283821,5,8,0:3:0:0:
330,366,283983,1,8,0:0:0:0:
219,0,284145,5,8,0:3:0:0:
111,383,284307,1,8,0:0:0:0:
126,115,284470,5,12,0:3:0:0:
140,104,284551,1,8,0:3:0:0:
156,97,284632,1,8,0:3:0:0:
173,93,284713,1,8,0:3:0:0:
190,93,284794,1,8,0:2:0:0:
430,306,284956,5,8,0:3:0:0:
403,306,285037,1,8,0:3:0:0:
374,300,285118,1,8,0:3:0:0:
348,289,285199,1,8,0:3:0:0:
326,270,285280,1,8,0:2:0:0:
360,28,285443,5,8,0:3:0:0:
344,66,285524,1,8,0:3:0:0:
345,108,285605,1,8,0:3:0:0:
362,146,285686,1,8,0:3:0:0:
394,173,285767,1,8,0:2:0:0:
60,384,285929,5,8,0:3:0:0:
104,349,286010,1,8,0:3:0:0:
126,298,286091,1,8,0:3:0:0:
127,243,286172,1,8,0:3:0:0:
106,192,286253,1,8,0:2:0:0:
444,126,286416,5,8,0:3:0:0:
444,126,286497,1,8,0:3:0:0:
444,126,286578,2,0,P|423:154|393:173,1,69.9999978637696,8|0,0:2|0:0,0:0:0:0:
105,61,286740,2,0,P|140:65|171:82,1,69.9999978637696,8|0,0:3|0:0,0:0:0:0:
219,387,286902,2,0,P|205:355|203:320,1,69.9999978637696,8|0,0:2|0:0,0:0:0:0:
296,0,287064,6,0,B|355:-16|403:34|392:107|336:144|273:119|262:79|262:79|263:122|226:155,1,350,12|0,0:3|0:0,0:0:0:0:
289,384,288361,6,0,L|358:367,2,59.9999981689454,10|2|2,0:3|0:0|0:0,0:0:0:0:
300,298,288848,2,0,L|416:270,1,119.999996337891,2|0,0:0|0:0,0:0:0:0:
463,202,289334,2,0,L|394:185,2,59.9999981689454,2|2|2,0:0|0:0|0:0,0:0:0:0:
452,116,289821,2,0,L|335:88,1,119.999996337891,2|2,0:0|0:0,0:0:0:0:
246,104,290307,2,0,P|255:132|275:156,1,59.9999981689454,2|0,0:0|0:0,0:0:0:0:
314,0,290632,2,0,P|287:10|265:31,1,59.9999981689454,2|0,0:0|0:0,0:0:0:0:
157,191,290956,5,2,0:0:0:0:
102,132,291118,1,2,0:0:0:0:
24,152,291280,1,2,0:0:0:0:
1,230,291443,2,0,L|41:384,1,160,2|2,0:0|0:0,0:0:0:0:
220,258,291929,5,2,0:0:0:0:
297,237,292091,1,2,0:0:0:0:
353,295,292253,1,2,0:0:0:0:
486,114,292416,1,2,0:0:0:0:
409,93,292578,1,2,0:0:0:0:
353,151,292740,1,2,0:0:0:0:
129,164,292902,6,0,P|104:161|80:154,3,50,0|0|0|0,1:0|1:0|1:0|1:0,1:0:0:0:
123,77,293226,2,0,P|113:55|108:30,3,50,0|0|0|0,1:0|1:0|1:0|1:0,1:0:0:0:
199,28,293551,5,10,1:3:0:0:
219,11,293632,1,10,1:3:0:0:
242,2,293713,1,10,1:3:0:0:
266,0,293794,1,10,1:3:0:0:
291,5,293875,1,10,1:3:0:0:
312,17,293956,1,10,1:3:0:0:
329,35,294037,1,10,1:3:0:0:
340,58,294118,1,10,1:3:0:0:
344,82,294199,5,10,1:3:0:0:
293,107,294280,1,10,1:3:0:0:
259,151,294361,1,10,1:3:0:0:
245,205,294443,1,10,1:3:0:0:
256,260,294524,1,10,1:3:0:0:
289,305,294605,1,10,1:3:0:0:
338,332,294686,1,10,1:3:0:0:
394,335,294767,1,10,1:3:0:0:
446,317,294848,1,10,1:3:0:0:
31,384,295821,5,2,0:0:0:0:
3,343,295902,1,2,0:0:0:0:
0,294,295983,1,2,0:0:0:0:
23,250,296064,1,2,0:0:0:0:
64,224,296145,6,0,B|134:207|134:207|159:215|159:215|229:201,1,150.000005722046,14|0,0:3|0:0,0:0:0:0:
197,33,296389,1,2,0:0:0:0:
184,38,296470,2,0,L|174:119,1,75.0000028610231,10|0,0:2|0:0,0:0:0:0:
299,249,296632,2,0,P|314:175|257:120,1,150.000005722046,2|8,0:0|0:3,0:0:0:0:
433,0,296875,2,0,P|385:54|401:125,1,150.000005722046,2|0,0:0|0:0,0:0:0:0:
407,245,297118,1,8,0:2:0:0:
420,227,297199,1,2,0:0:0:0:
440,216,297280,2,0,P|477:212|512:223,1,75.0000028610231,2|2,0:0|0:0,0:0:0:0:
328,330,297443,6,0,B|307:221|307:221|327:187,1,150.000005722046,10|0,0:3|0:0,0:0:0:0:
307,77,297686,1,2,0:0:0:0:
293,95,297767,2,0,P|260:112|223:116,1,75.0000028610231,10|0,0:2|0:0,0:0:0:0:
123,70,297929,2,0,B|144:179|144:179|124:213,1,150.000005722046,2|8,0:0|0:3,0:0:0:0:
49,370,298172,2,0,P|89:311|161:311,1,150.000005722046,2|0,0:0|0:0,0:0:0:0:
359,322,298416,1,10,0:2:0:0:
348,331,298497,1,2,0:0:0:0:
336,338,298578,2,0,P|300:341|265:327,1,75.0000028610231,2|2,0:0|0:0,0:0:0:0:
228,229,298740,6,0,P|243:197|273:174,3,75.0000028610231,10|2|2|2,0:3|0:0|0:0|0:0,0:0:0:0:
351,179,299064,1,10,0:2:0:0:
364,184,299145,1,2,0:0:0:0:
376,191,299226,2,0,P|396:221|401:258,1,75.0000028610231,2|2,0:0|0:0,0:0:0:0:
165,149,299389,2,0,B|132:178|132:178|27:161,1,150.000005722046,10|0,0:3|0:0,0:0:0:0:
71,0,299632,1,2,0:0:0:0:
91,8,299713,2,0,B|108:113,1,75.0000028610231,10|0,0:2|0:0,0:0:0:0:
57,251,299875,2,0,B|74:356,1,75.0000028610231,2|0,0:0|0:0,0:0:0:0:
298,292,300037,6,0,P|301:221|237:192,1,150.000005722046,10|0,0:3|0:0,0:0:0:0:
229,352,300280,1,2,0:0:0:0:
243,368,300361,2,0,P|277:382|314:384,1,75.0000028610231,10|0,0:0|0:0,0:0:0:0:
466,233,300524,2,0,P|431:248|394:249,1,75.0000028610231,2|0,0:0|0:0,0:0:0:0:
271,69,300686,1,10,0:3:0:0:
297,54,300767,1,2,0:0:0:0:
326,52,300848,1,2,0:0:0:0:
352,65,300929,1,2,0:0:0:0:
369,89,301010,2,0,L|358:164,1,75.0000028610231,10|0,0:0|0:0,0:0:0:0:
184,94,301172,2,0,L|195:19,1,75.0000028610231,2|0,0:0|0:0,0:0:0:0:
274,190,301334,6,0,B|226:178|226:178|194:188|194:188|129:171,1,150.000005722046,10|0,0:3|0:0,0:0:0:0:
13,107,301578,1,2,0:0:0:0:
32,118,301659,2,0,L|43:193,1,75.0000028610231,10|0,0:0|0:0,0:0:0:0:
2,327,301821,2,0,B|13:281|13:281|116:266,1,150.000005722046,2|8,0:0|0:3,0:0:0:0:
285,338,302064,2,0,P|224:385|155:362,1,150.000005722046,2|0,0:0|0:0,0:0:0:0:
155,179,302307,1,10,0:0:0:0:
180,194,302389,1,2,0:0:0:0:
198,218,302470,2,0,P|211:250|200:308,1,75.0000028610231,2|2,0:0|0:0,0:0:0:0:
110,99,302632,6,0,B|167:90|167:90|193:100|193:100|258:91,1,150.000005722046,10|0,0:3|0:0,0:0:0:0:
434,186,302875,1,2,0:0:0:0:
452,171,302956,2,0,L|436:89,1,75.0000028610231,10|0,0:0|0:0,0:0:0:0:
361,0,303118,2,0,L|343:149,1,150.000005722046,2|8,0:0|0:3,0:0:0:0:
390,307,303361,2,0,P|360:242|289:243,1,150.000005722046,2|0,0:0|0:0,0:0:0:0:
103,289,303605,1,10,0:0:0:0:
124,310,303686,1,2,0:0:0:0:
152,320,303767,2,0,P|189:319|225:302,1,75.0000028610231,2|2,0:0|0:0,0:0:0:0:
220,97,303929,6,0,B|183:119|183:119|170:225,1,150.000005722046,10|0,0:3|0:0,0:0:0:0:
83,200,304172,1,2,0:0:0:0:
86,177,304253,2,0,B|95:102,1,75.0000028610231,10|0,0:0|0:0,0:0:0:0:
299,45,304416,2,0,P|316:115|273:174,1,150.000005722046,2|8,0:0|0:3,0:0:0:0:
46,28,304659,2,0,B|90:11|90:11|147:25|147:25|189:12,1,150.000005722046,2|0,0:0|0:0,0:0:0:0:
512,32,304902,1,10,0:0:0:0:
510,59,304983,1,2,0:0:0:0:
499,85,305064,1,2,0:0:0:0:
479,105,305145,1,2,0:0:0:0:
452,115,305226,6,0,P|420:95|383:86,1,75.0000028610231,10|2,0:3|0:0,0:0:0:0:
383,199,305389,2,0,P|347:188|309:189,1,75.0000028610231,2|2,0:0|0:0,0:0:0:0:
439,125,305551,6,0,P|405:108|368:102,1,75.0000028610231,10|2,0:0|0:0,0:0:0:0:
377,213,305713,2,0,P|340:205|303:209,1,75.0000028610231,2|2,0:0|0:0,0:0:0:0:
94,25,305875,5,10,0:3:0:0:
130,20,305956,1,2,0:0:0:0:
165,33,306037,1,2,0:0:0:0:
190,61,306118,1,2,0:0:0:0:
199,97,306199,2,0,L|187:171,1,75.0000028610231,14|0,0:0|0:0,0:0:0:0:
76,243,306361,2,0,L|64:317,1,75.0000028610231,10|0,0:3|0:0,0:0:0:0:
248,356,306524,6,0,B|190:317|229:242|307:265|296:336,1,187.500007152558,8|0,0:3|0:0,0:0:0:0:
279,360,307010,1,8,0:3:0:0:
454,384,307172,5,14,0:3:0:0:
472,373,307253,2,0,P|513:313|479:251,1,150.000005722046,2|0,0:0|0:0,0:0:0:0:
331,146,307497,2,0,L|342:229,1,75.0000028610231,10|0,0:0|0:0,0:0:0:0:
502,164,307659,1,2,0:0:0:0:
507,142,307740,1,2,0:0:0:0:
512,120,307821,6,0,P|464:65|393:76,1,150.000005722046,10|0,0:3|0:0,0:0:0:0:
248,95,308064,1,2,0:0:0:0:
239,116,308145,2,0,L|250:199,1,75.0000028610231,10|0,0:0|0:0,0:0:0:0:
403,308,308307,2,0,B|438:272|438:272|424:173,1,150.000005722046,2|8,0:0|0:3,0:0:0:0:
277,15,308551,2,0,P|229:69|158:58,1,150.000005722046,2|0,0:0|0:0,0:0:0:0:
0,15,308794,1,10,0:0:0:0:
27,1,308875,1,2,0:0:0:0:
56,11,308956,2,0,L|70:93,1,75.0000028610231,2|2,0:0|0:0,0:0:0:0:
27,220,309118,6,0,B|64:201|82:171|82:171|111:197|153:198,1,150.000005722046,10|0,0:3|0:0,0:0:0:0:
136,355,309361,1,2,0:0:0:0:
114,348,309443,2,0,L|101:274,1,75.0000028610231,10|0,0:0|0:0,0:0:0:0:
225,97,309605,2,0,L|250:244,1,150.000005722046,2|8,0:0|0:3,0:0:0:0:
347,384,309848,2,0,P|295:332|223:341,1,150.000005722046,2|0,0:0|0:0,0:0:0:0:
340,156,310091,1,10,0:0:0:0:
357,182,310172,1,2,0:0:0:0:
382,199,310253,2,0,P|432:212|470:199,1,75.0000028610231,2|2,0:0|0:0,0:0:0:0:
258,12,310416,5,10,0:3:0:0:
236,25,310497,1,2,0:0:0:0:
221,46,310578,1,2,0:0:0:0:
217,72,310659,1,2,0:0:0:0:
225,97,310740,2,0,P|245:129|251:166,1,75.0000028610231,10|0,0:0|0:0,0:0:0:0:
152,267,310902,2,0,P|115:260|83:240,1,75.0000028610231,2|0,0:0|0:0,0:0:0:0:
88,48,311064,2,0,B|132:62|132:62|151:165,1,150.000005722046,10|0,0:3|0:0,0:0:0:0:
255,267,311307,1,2,0:0:0:0:
270,283,311389,2,0,B|343:269,1,75.0000028610231,10|0,0:0|0:0,0:0:0:0:
393,95,311551,2,0,B|319:108,1,75.0000028610231,2|0,0:0|0:0,0:0:0:0:
439,310,311713,6,0,P|460:241|413:187,1,150.000005722046,10|0,1:3|1:0,0:0:0:0:
254,46,311956,1,2,0:0:0:0:
241,64,312037,2,0,P|232:105|250:171,1,75.0000028610231,10|0,1:2|0:0,0:0:0:0:
478,123,312199,2,0,P|481:85|472:49,1,75.0000028610231,2|0,1:2|0:0,0:0:0:0:
309,210,312361,1,10,1:2:0:0:
287,215,312443,2,0,B|205:233,2,75.0000028610231,2|0|0,0:0|1:0|0:0,0:0:0:0:
59,40,312686,1,10,1:2:0:0:
88,48,312767,1,2,0:0:0:0:
111,69,312848,2,0,P|129:102|134:138,1,75.0000028610231,2|2,1:2|0:0,0:0:0:0:
21,320,313010,6,0,B|64:289|64:289|166:308,1,150.000005722046,10|0,1:3|1:2,0:0:0:0:
326,291,313253,1,2,0:0:0:0:
348,311,313334,2,0,P|348:344|333:384,1,75.0000028610231,10|0,1:2|0:0,0:0:0:0:
217,193,313497,2,0,P|216:159|232:120,1,75.0000028610231,2|0,1:2|0:0,0:0:0:0:
424,35,313659,2,0,L|497:48,3,75.0000028610231,10|0|0|0,1:3|0:0|1:0|0:0,0:0:0:0:
396,116,313983,1,10,1:2:0:0:
388,137,314064,1,2,0:0:0:0:
381,158,314145,2,0,L|308:171,1,75.0000028610231,2|2,1:2|0:0,0:0:0:0:
0,149,314307,5,2,1:2:0:0:
8,112,314389,1,2,1:2:0:0:
35,86,314470,1,2,1:2:0:0:
72,79,314551,1,2,1:2:0:0:
106,92,314632,1,2,1:2:0:0:
130,120,314713,1,2,1:2:0:0:
134,157,314794,1,2,1:2:0:0:
119,190,314875,1,2,1:2:0:0:
88,211,314956,5,2,1:2:0:0:
128,193,315037,1,2,1:2:0:0:
173,190,315118,1,2,1:2:0:0:
216,203,315199,1,2,1:2:0:0:
252,230,315280,1,2,1:2:0:0:
288,257,315361,1,2,1:2:0:0:
331,270,315443,1,2,1:2:0:0:
376,268,315524,1,2,1:2:0:0:
416,250,315605,5,0,1:0:0:0:
412,225,315686,1,0,1:0:0:0:
408,200,315767,1,0,1:0:0:0:
405,176,315848,1,0,1:0:0:0:
424,145,315929,5,0,1:0:0:0:
422,127,316010,1,0,1:0:0:0:
420,109,316091,1,0,1:0:0:0:
416,90,316172,1,0,1:0:0:0:
441,62,316253,5,0,1:0:0:0:
439,49,316334,1,0,1:0:0:0:
437,37,316416,1,0,1:0:0:0:
436,25,316497,1,0,1:0:0:0:
454,0,316578,6,0,B|510:56|510:56|294:11,1,300,8|0,0:0|0:0,0:0:0:0:
93,66,316902,5,14,0:3:0:0:
152,141,317064,2,0,L|230:155,1,80,2|8,0:0|0:3,0:0:0:0:
93,66,317389,2,0,L|14:53,2,80,2|8|2,0:0|0:3|0:0,0:0:0:0:
152,141,317875,1,10,0:3:0:0:
152,141,318037,1,2,0:0:0:0:
78,277,318199,5,10,0:3:0:0:
135,354,318361,2,0,P|159:323|172:285,1,80,2|8,0:0|0:3,0:0:0:0:
240,217,318686,2,0,P|252:255|277:287,2,80,2|8|2,0:0|0:3|0:0,0:0:0:0:
334,210,319172,1,10,0:3:0:0:
334,210,319334,1,2,0:0:0:0:
414,54,319497,5,10,0:3:0:0:
485,96,319659,2,0,L|477:176,1,80,2|8,0:0|0:3,0:0:0:0:
340,99,319983,2,0,L|332:19,2,80,2|8|2,0:0|0:3|0:0,0:0:0:0:
348,195,320470,1,10,0:3:0:0:
348,195,320632,1,2,0:0:0:0:
439,367,320794,5,10,0:3:0:0:
493,288,320956,2,0,P|457:271|418:272,1,80,2|8,0:0|0:3,0:0:0:0:
339,382,321280,2,0,P|299:384|264:366,2,80,2|8|2,0:0|0:3|0:0,0:0:0:0:
318,287,321767,1,10,0:3:0:0:
318,287,321929,1,2,0:0:0:0:
120,367,322091,5,10,0:3:0:0:
63,290,322253,2,0,L|152:272,1,80,2|8,0:0|0:3,0:0:0:0:
214,160,322578,2,0,L|292:176,2,80,2|8|2,0:0|0:3|0:0,0:0:0:0:
235,255,323064,1,10,0:3:0:0:
235,255,323226,1,2,0:0:0:0:
82,100,323389,5,10,0:3:0:0:
155,39,323551,2,0,P|191:56|229:67,1,80,2|8,0:0|0:3,0:0:0:0:
381,49,323875,2,0,P|418:32|456:21,2,80,2|8|2,0:0|0:3|0:0,0:0:0:0:
319,124,324361,1,10,0:3:0:0:
319,124,324524,1,2,0:0:0:0:
154,310,324686,5,10,0:3:0:0:
81,248,324848,2,0,L|61:171,1,80,2|8,0:0|0:3,0:0:0:0:
233,261,325172,2,0,L|213:184,2,80,2|8|2,0:0|0:3|0:0,0:0:0:0:
306,324,325659,1,10,0:3:0:0:
306,324,325821,1,2,0:0:0:0:
420,138,325983,5,10,0:3:0:0:
480,198,326145,2,0,P|447:219|408:222,1,80,2|0,0:0|0:0,0:0:0:0:
473,71,326470,2,0,P|398:54|342:107,1,160,2|0,0:0|0:0,0:0:0:0:
420,138,326956,1,2,0:0:0:0:
420,138,327118,1,2,0:0:0:0:
283,172,327280,5,10,0:3:0:0:
221,99,327443,2,0,L|144:79,1,80,2|8,0:0|0:3,0:0:0:0:
234,251,327767,2,0,L|157:231,2,80,2|8|2,0:0|0:3|0:0,0:0:0:0:
297,324,328253,1,10,0:3:0:0:
297,324,328416,1,2,0:0:0:0:
455,376,328578,5,10,0:3:0:0:
394,303,328740,2,0,P|411:267|422:229,1,80,2|8,0:0|0:3,0:0:0:0:
404,77,329064,2,0,P|387:40|376:2,2,80,2|8|2,0:0|0:3|0:0,0:0:0:0:
479,139,329551,1,10,0:3:0:0:
479,139,329713,1,2,0:0:0:0:
334,212,329875,5,10,0:3:0:0:
256,154,330037,2,0,L|240:232,1,80,2|8,0:0|0:3,0:0:0:0:
127,306,330361,2,0,L|143:384,2,80,2|8|2,0:0|0:3|0:0,0:0:0:0:
222,327,330848,1,10,0:3:0:0:
222,327,331010,1,2,0:0:0:0:
108,212,331172,5,10,0:3:0:0:
29,266,331334,2,0,P|12:230|13:191,1,80,2|8,0:0|0:3,0:0:0:0:
123,112,331659,2,0,P|125:72|107:37,2,80,2|8|2,0:0|0:3|0:0,0:0:0:0:
28,91,332145,1,10,0:3:0:0:
28,91,332307,1,2,0:0:0:0:
214,133,332470,5,10,0:3:0:0:
256,62,332632,2,0,L|336:70,1,80,2|8,0:0|0:3,0:0:0:0:
259,207,332956,2,0,L|179:215,2,80,2|8|2,0:0|0:3|0:0,0:0:0:0:
355,199,333443,1,10,0:3:0:0:
355,199,333605,1,2,0:0:0:0:
445,40,333767,5,10,0:3:0:0:
368,97,333929,2,0,P|399:121|437:134,1,80,2|8,0:0|0:3,0:0:0:0:
505,202,334253,2,0,P|467:214|435:239,2,80,2|8|2,0:0|0:3|0:0,0:0:0:0:
512,296,334740,1,10,0:3:0:0:
512,296,334902,1,2,0:0:0:0:
338,245,335064,5,10,0:3:0:0:
263,304,335226,2,0,L|249:382,1,80,2|8,0:0|0:3,0:0:0:0:
338,245,335551,2,0,L|351:166,2,80,2|8|2,0:0|0:3|0:0,0:0:0:0:
263,304,336037,1,10,0:3:0:0:
263,304,336199,1,2,0:0:0:0:
166,153,336361,5,10,0:3:0:0:
139,242,336524,2,0,L|253:222,1,80,2|0,0:0|0:0,0:0:0:0:
231,63,336848,2,0,L|73:90,1,160,2|2,0:0|0:0,0:0:0:0:
166,153,337334,1,2,0:0:0:0:
166,153,337497,1,2,0:0:0:0:
353,114,337659,6,0,B|376:37|376:37|368:117,1,160,8|0,0:3|0:0,0:0:0:0:
