osu file format v14

[General]
AudioFilename: redo.mp3
AudioLeadIn: 0
PreviewTime: 142107
Countdown: 0
SampleSet: Soft
StackLeniency: 0.5
Mode: 0
LetterboxInBreaks: 0
WidescreenStoryboard: 0

[Editor]
Bookmarks: 247980
DistanceSpacing: 1.1
BeatDivisor: 4
GridSize: 4
TimelineZoom: 2.7

[Metadata]
Title:Redo
TitleUnicode:Redo
Artist:Suzuki Konomi
ArtistUnicode:鈴木このみ
Creator:Kalibe
Version:Mk's Easy
Source:Re:ゼロから始める異世界生活
Tags:op Re:Zero kara Hajimeru Isekai Seikatsu Re: Life in a different world from zero opening Mkguh Doormat FCL Linada full version
BeatmapID:987437
BeatmapSetID:456524

[Difficulty]
HPDrainRate:2
CircleSize:3
OverallDifficulty:2
ApproachRate:3
SliderMultiplier:0.8
SliderTickRate:1

[Events]
//Background and Video events
0,0,"BGGBBBG.jpg",0,0
//Break Periods
2,32212,35509
2,42518,45930
2,89055,92667
2,114318,117930
2,124423,128036
2,139580,140667
2,187580,191193
2,202737,206349
2,215351,216457
//Storyboard Layer 0 (Background)
//Storyboard Layer 1 (Fail)
//Storyboard Layer 2 (Pass)
//Storyboard Layer 3 (Foreground)
//Storyboard Sound Samples

[TimingPoints]
634,315.789473684211,4,2,2,25,1,0
791,-100,4,2,1,20,0,0
949,-100,4,2,2,30,0,0
1107,-100,4,2,1,40,0,0
1265,-100,4,2,2,50,0,0
1897,-100,4,2,2,50,0,0
6949,-100,4,1,2,55,0,0
12002,-100,4,2,2,55,0,0
32212,-100,4,2,2,40,0,0
37265,-100,4,1,2,55,0,0
42318,-100,4,2,2,40,0,0
47370,-100,4,1,2,55,0,0
51160,-100,4,1,2,55,0,0
52423,-100,4,1,2,65,0,0
54949,-100,4,1,2,80,0,1
70107,-100,4,1,2,50,0,0
80212,-100,4,1,2,70,0,1
86528,-100,4,1,2,70,0,1
87791,-100,4,1,2,70,0,1
89055,-100,4,1,2,50,0,0
94107,-100,4,2,2,50,0,0
114318,-100,4,2,2,40,0,0
119370,-100,4,1,2,55,0,0
124423,-100,4,2,2,40,0,0
129476,-100,4,1,2,55,0,0
131967,315.789473684211,4,1,2,55,1,0
132467,315.789473684211,4,1,2,55,1,0
132634,315.789473684211,4,1,2,55,1,0
133265,315.789473684211,4,1,2,55,1,0
139581,-100,4,1,2,55,0,0
142107,-100,4,1,2,80,0,1
157265,-100,4,1,2,50,0,0
167370,-100,4,1,2,70,0,1
173686,-100,4,1,2,70,0,1
174949,-100,4,1,2,70,0,1
175739,-100,4,1,2,70,0,1
176212,-100,4,1,2,60,0,0
177476,-100,4,1,2,75,0,0
187265,-100,4,1,2,75,0,0
187581,-100,4,2,2,40,0,0
192634,-100,4,1,2,60,0,0
200195,315.789473684211,4,1,2,60,1,0
201765,315.789473684211,4,1,2,60,1,0
202737,315.789473684211,4,1,2,60,1,0
202739,-100,4,2,2,30,0,0
207789,-100,4,1,2,60,0,0
209052,-100,4,1,2,60,0,0
210315,-100,4,1,2,60,0,0
212825,315.789473684211,4,1,2,60,1,0
215351,-100,4,1,2,60,0,0
217897,315.789473684211,4,1,2,80,1,1
217897,-100,4,1,2,80,0,1
233054,-100,4,1,2,50,0,0
243160,-100,4,1,2,70,0,1
249476,-100,4,1,2,80,0,1
250739,-100,4,1,2,80,0,1
252002,-100,4,2,2,50,0,0
254528,-100,4,2,2,25,0,0

[Colours]
Combo1 : 143,143,143
Combo2 : 71,138,141
Combo3 : 102,102,255
Combo4 : 0,164,164

[HitObjects]
23,85,634,6,2,B|59:98|90:84|90:84|113:98|113:98|131:47|187:30|243:66,1,240,2|2,0:0|0:0,2:1:0:0:
274,137,1897,6,0,P|250:197|242:260,2,120,2|2|2,0:0|0:0|0:0,0:0:0:0:
345,84,3160,2,0,B|421:74|421:74|469:90,2,120,2|2|2,0:0|0:0|0:0,0:0:0:0:
264,48,4423,6,0,B|188:58|188:58|140:42,2,120,2|2|2,0:0|0:0|0:0,0:0:0:0:
345,84,5686,1,2,0:0:0:0:
270,193,6160,2,0,L|277:324,1,120,2|2,0:0|0:0,0:0:0:0:
199,355,6949,6,0,P|158:350|119:355,1,80,0|0,0:0|0:0,0:0:0:0:
55,293,7581,2,0,P|65:256|62:212,1,80,0|2,0:0|0:0,0:0:0:0:
83,129,8212,2,0,P|45:127|7:142,2,80,2|0|8,0:0|0:0|0:0,0:0:0:0:
166,157,9160,1,2,0:0:0:0:
240,110,9476,6,0,L|326:116,1,80,2|0,0:0|0:0,0:0:0:0:
389,169,10107,2,0,P|389:224|400:259,1,80,0|2,0:0|0:0,0:0:0:0:
346,321,10739,2,0,P|300:328|264:344,2,80,2|0|8,0:0|0:0|0:0,0:0:0:0:
433,330,11686,1,2,0:0:0:0:
498,271,12002,6,0,B|517:174|517:174|490:108,1,160,2|0,0:0|0:0,0:0:0:0:
426,60,12949,1,0,0:0:0:0:
340,79,13265,2,0,B|255:66|266:104|181:86,1,160,2|2,0:0|0:0,0:0:0:0:
94,96,14212,1,2,0:0:0:0:
38,164,14528,6,0,P|41:209|65:250,1,80,2|0,0:0|0:0,0:0:0:0:
141,265,15160,2,0,P|118:302|73:328,2,80,2|0|2,0:0|0:0|0:0,0:0:0:0:
184,188,16107,1,0,0:0:0:0:
271,177,16423,2,0,L|362:182,1,80,2|2,0:0|0:0,0:0:0:0:
365,94,17055,6,0,B|272:89|272:89|219:34,1,160,0|2,0:0|0:0,0:0:0:0:
141,15,18002,1,2,0:0:0:0:
64,58,18318,2,0,P|46:120|72:217,1,160,2|2,0:0|0:0,0:0:0:0:
125,277,19265,1,2,0:0:0:0:
208,250,19581,6,0,B|257:239|288:255|288:255|314:238|371:246,2,160,2|2|2,0:0|0:0|0:0,0:0:0:0:
125,277,21160,1,0,0:0:0:0:
50,229,21476,2,0,P|28:150|29:145,1,80,2|2,0:0|0:0,0:0:0:0:
67,76,22107,6,0,L|151:69,1,80,2|0,0:0|0:0,0:0:0:0:
227,34,22739,2,0,L|395:41,2,160,2|2|2,0:0|0:0|0:0,0:0:0:0:
146,69,24318,1,2,0:0:0:0:
131,155,24634,6,0,P|174:199|205:208,1,80,2|0,0:0|0:0,0:0:0:0:
278,199,25265,2,0,P|269:248|251:275,1,80,2|0,0:0|0:0,0:0:0:0:
206,348,25897,2,0,P|265:322|371:336,1,160,2|2,0:0|0:0,0:0:0:0:
442,354,26844,1,2,0:0:0:0:
493,282,27160,6,0,B|484:233|484:233|487:186,1,80,2|2,0:0|0:0,0:0:0:0:
460,118,27791,2,0,B|420:125|420:125|365:125,1,80,2|2,0:0|0:0,0:0:0:0:
303,83,28423,2,0,L|216:79,1,80,2|2,0:0|0:0,0:0:0:0:
146,124,29055,6,0,P|86:131|83:221,2,160,2|2|2,0:0|0:0|0:0,0:0:0:0:
230,151,30634,1,0,0:0:0:0:
311,119,30949,2,0,B|352:111|352:111|397:120,2,80,2|2|2,0:0|0:0|0:0,0:0:0:0:
230,151,31897,1,0,0:0:0:0:
487,267,36949,5,12,1:1:0:0:
434,195,37265,2,0,B|409:154|409:154|402:121,1,80,4|8,0:0|0:0,0:0:0:0:
350,51,37897,2,0,B|296:53|296:53|265:41,1,80,2|8,0:0|0:0,0:0:0:0:
185,25,38528,1,2,0:0:0:0:
98,41,38844,2,0,P|72:120|88:211,1,160,8|8,0:0|0:0,0:0:0:0:
138,261,39791,6,0,P|171:280|225:288,1,80,2|8,0:0|0:0,0:0:0:0:
300,289,40423,2,0,P|339:281|373:261,1,80,2|8,0:0|0:0,0:0:0:0:
329,183,41055,2,0,P|257:154|177:187,2,160,4|8|2,0:0|0:0|0:0,0:0:0:0:
39,251,47370,5,4,0:0:0:0:
111,300,47686,2,0,P|159:303|203:298,1,80,8|2,0:0|0:0,0:0:0:0:
265,252,48318,1,8,0:0:0:0:
248,165,48634,2,0,P|243:125|251:70,1,80,0|8,0:0|0:0,0:0:0:0:
322,40,49265,2,0,L|416:49,1,80,2|8,0:0|0:0,0:0:0:0:
487,69,49897,6,0,B|474:108|437:130|437:130|438:175|475:206,1,160,2|4,0:0|0:0,0:0:0:0:
491,285,50844,1,8,0:0:0:0:
406,260,51160,2,0,P|369:210|354:105,1,160,4|8,0:0|0:0,0:0:0:0:
182,161,52423,6,0,B|122:174|122:174|57:159,2,120,8|8|8,0:0|0:0|0:0,0:0:0:0:
261,122,53686,2,0,B|321:109|321:109|386:124,2,120,2|8|8,0:0|0:0|0:0,0:0:0:0:
182,161,54949,6,0,P|172:216|187:283,1,120,4|0,0:2|0:0,0:0:0:0:
257,328,55739,1,0,0:0:0:0:
342,305,56055,2,0,P|399:298|432:303,2,80,4|0|0,0:0|0:0|0:0,0:0:0:0:
279,243,57002,2,0,B|265:187|297:181|275:116,1,120,0|2,0:0|0:0,0:0:0:0:
227,52,57791,5,8,0:0:0:0:
141,74,58107,2,0,B|98:85|98:85|62:81,1,80,2|8,0:0|0:0,0:0:0:0:
15,155,58739,2,0,P|24:212|13:278,2,120,2|2|8,0:0|0:0|0:0,0:0:0:0:
62,81,60002,6,0,L|192:92,1,120,12|8,0:0|0:0,0:0:0:0:
263,123,60791,1,8,0:0:0:0:
334,71,61107,2,0,P|397:59|465:74,1,120,4|8,0:2|0:0,0:0:0:0:
507,136,61897,2,0,P|512:182|507:223,1,80,2|8,0:0|0:0,0:0:0:0:
438,269,62528,6,0,B|376:282|376:282|319:273,1,120,4|4,0:2|0:0,0:0:0:0:
237,243,63318,1,8,0:0:0:0:
154,211,63634,2,0,P|97:199|35:210,1,120,4|8,0:2|0:0,0:0:0:0:
53,295,64423,2,0,P|91:300|141:293,1,80,2|8,0:0|0:0,0:0:0:0:
218,316,65055,6,0,L|353:308,1,120,6|2,0:2|0:0,0:0:0:0:
414,265,65844,1,2,0:0:0:0:
378,184,66160,2,0,P|373:142|383:91,1,80,8|2,0:0|0:0,0:0:0:0:
417,26,66791,2,0,P|357:21|330:30,1,80,2|2,0:0|0:0,0:0:0:0:
223,89,67581,6,0,B|144:83|144:83|118:105|61:113,1,160,10|8,0:0|0:0,0:0:0:0:
8,175,68528,1,8,0:0:0:0:
46,254,68844,2,0,B|103:283|161:256,2,120,4|8|8,0:0|0:0|0:0,0:0:0:0:
8,175,70107,6,0,B|30:118|30:118|20:79|20:79|40:20,1,160,4|8,0:0|0:0,0:0:0:0:
125,7,71055,1,0,0:0:0:0:
192,64,71370,2,0,P|268:44|352:68,1,160,4|12,0:0|0:0,0:0:0:0:
436,72,72318,1,0,0:0:0:0:
436,160,72634,6,0,P|385:222|376:315,1,160,2|8,0:0|0:0,0:0:0:0:
300,352,73581,1,6,0:0:0:0:
212,340,73897,2,0,P|136:340|84:276,1,160,6|8,0:0|0:0,0:0:0:0:
104,192,74844,1,12,0:0:0:0:
128,108,75160,6,0,P|116:40|36:49,2,160,4|12|2,0:0|0:0|0:0,0:0:0:0:
104,192,76739,1,0,0:0:0:0:
144,268,77055,2,0,B|184:292|228:280,1,80,12|2,0:0|0:0,0:0:0:0:
292,228,77686,6,0,L|284:100,2,120,4|2|2,0:0|0:0|0:0,0:0:0:0:
344,300,78949,2,0,P|288:320|208:256,1,160,4|8,0:0|0:0,0:0:0:0:
184,180,79897,1,12,0:0:0:0:
144,104,80212,6,0,B|100:104|100:104|68:112|68:112|16:112,2,120,4|8|8,0:0|0:0|0:0,0:0:0:0:
212,48,81476,2,0,P|272:64|332:44,1,120,4|8,0:0|0:0,0:0:0:0:
444,104,82423,2,0,P|460:164|436:224,2,120,8|8|8,0:0|0:0|0:0,0:0:0:0:
412,24,83686,1,8,0:0:0:0:
332,64,84002,6,0,B|256:80|256:80|200:64,1,120,12|8,0:0|0:0,0:0:0:0:
204,200,84949,2,0,B|163:188|163:188|87:204,2,120,12|8|14,0:0|0:0|0:0,0:0:0:0:
284,232,86212,1,0,0:0:0:0:
368,200,86528,6,0,P|392:156|352:44,1,160,4|2,2:0|2:0,0:0:0:0:
204,128,87791,2,0,B|124:128|124:128|56:172,1,160,8|8,0:0|0:0,0:0:0:0:
60,260,88739,1,0,0:0:0:0:
84,220,94107,6,0,B|84:152|84:152|72:132|72:132|72:52,2,160,4|2|2,0:0|0:0|0:0,0:0:0:0:
240,300,96002,2,0,P|288:288|328:288,1,80,2|2,0:0|0:0,0:0:0:0:
396,332,96634,6,0,P|400:256|328:196,1,160,2|2,0:0|0:0,0:0:0:0:
168,192,97897,2,0,P|164:268|236:328,1,160,2|2,0:0|0:0,0:0:0:0:
300,360,98844,1,2,0:0:0:0:
384,328,99160,6,0,B|424:316|424:316|472:332,2,80,2|2|2,0:0|0:0|0:0,0:0:0:0:
300,360,100107,1,2,0:0:0:0:
220,323,100423,2,0,P|220:259|228:235,1,80,2|2,0:0|0:0,0:0:0:0:
265,166,101055,2,0,P|225:158|186:161,1,80,2|2,0:0|0:0,0:0:0:0:
129,93,101686,6,0,P|202:73|290:85,1,160,2|2,0:0|0:0,0:0:0:0:
379,231,102949,2,0,P|304:254|215:240,1,160,2|2,0:0|0:0,0:0:0:0:
139,219,103897,1,2,0:0:0:0:
51,218,104212,6,0,P|43:168|91:61,2,160,2|2|2,0:0|0:0|0:0,0:0:0:0:
198,313,106107,2,0,L|291:315,1,80,2|2,0:0|0:0,0:0:0:0:
343,373,106739,6,0,P|360:310|352:284,1,80,2|2,0:0|0:0,0:0:0:0:
293,236,107370,2,0,P|376:210|438:264,2,160,2|2|2,0:0|0:0|0:0,0:0:0:0:
205,229,108949,1,2,0:0:0:0:
126,188,109265,6,0,L|41:194,1,80,2|2,0:0|0:0,0:0:0:0:
28,101,109897,2,0,L|113:95,1,80,2|2,0:0|0:0,0:0:0:0:
193,115,110528,2,0,P|228:93|246:51,2,80,2|2|2,0:0|0:0|0:0,0:0:0:0:
107,95,111476,1,2,0:0:0:0:
55,166,111791,6,0,P|102:257|156:256,1,160,2|2,0:0|0:0,0:0:0:0:
287,149,113055,2,0,P|347:119|364:118,1,80,0|2,0:0|0:0,0:0:0:0:
432,166,113686,2,0,P|446:108|431:74,1,80,0|2,0:0|0:0,0:0:0:0:
152,323,119370,5,4,0:0:0:0:
86,264,119686,2,0,P|56:193|89:123,1,160,8|8,0:0|0:0,0:0:0:0:
154,62,120634,1,4,0:0:0:0:
192,141,120949,2,0,P|256:183|321:145,1,160,8|8,0:0|0:0,0:0:0:0:
360,61,121897,5,4,0:0:0:0:
426,120,122213,2,0,P|455:191|422:261,1,160,8|0,0:0|0:0,0:0:0:0:
349,311,123160,2,0,P|304:306|263:313,1,80,4|8,0:0|0:0,0:0:0:0:
189,347,123791,1,0,0:0:0:0:
51,46,129476,5,4,0:0:0:0:
124,94,129791,2,0,P|204:102|296:93,1,160,8|8,0:0|0:0,0:0:0:0:
368,64,130739,1,2,0:0:0:0:
428,128,131055,2,0,P|440:203|417:302,1,160,8|8,0:0|0:0,0:0:0:0:
356,340,131967,6,0,L|264:346,1,80,4|0,0:0|0:0,0:0:0:0:
244,252,132634,2,0,L|336:250,1,80,4|2,0:0|0:0,0:0:0:0:
412,256,133265,2,0,P|421:217|416:163,1,80,6|10,0:0|0:0,0:0:0:0:
500,140,133896,2,0,P|502:99|492:51,1,80,10|10,0:0|0:0,0:0:0:0:
420,16,134528,6,0,B|348:5|348:5|297:27,1,120,12|12,0:0|0:0,0:0:0:0:
224,128,135475,2,0,B|296:139|296:139|347:117,2,120,12|12|12,0:0|0:0|0:0,0:0:0:0:
140,104,136738,1,12,0:0:0:0:
60,140,137054,6,0,L|72:318,1,160,12|8,0:0|0:0,0:0:0:0:
156,328,138001,1,8,0:0:0:0:
236,288,138317,2,0,L|224:110,1,160,2|8,0:0|0:0,0:0:0:0:
216,40,139265,1,12,0:0:0:0:
363,302,142107,6,0,P|426:297|460:253,1,120,4|0,0:0|0:0,0:0:0:0:
496,176,142896,1,0,0:0:0:0:
416,140,143212,2,0,P|408:100|420:56,1,80,4|0,0:0|0:0,0:0:0:0:
344,12,143843,1,0,0:0:0:0:
264,48,144159,2,0,P|207:30|150:48,1,120,0|2,0:0|0:0,0:0:0:0:
152,136,144949,6,0,P|109:130|75:96,2,80,8|2|8,0:0|0:0|0:0,0:0:0:0:
212,200,145896,2,0,L|205:326,2,120,2|10|12,0:0|0:0|0:0,0:0:0:0:
292,164,147159,6,0,P|347:144|408:166,1,120,2|8,0:0|0:0,0:0:0:0:
440,244,147949,1,8,0:0:0:0:
352,228,148265,2,0,B|336:166|374:174|352:100,1,120,4|8,0:0|0:0,0:0:0:0:
312,32,149054,2,0,L|232:38,1,80,2|8,0:0|0:0,0:0:0:0:
160,88,149686,6,0,P|102:73|46:91,1,120,4|0,0:0|3:0,0:0:0:0:
4,168,150475,1,8,0:0:0:0:
44,244,150791,2,0,P|101:258|157:240,1,120,4|8,0:0|0:0,0:0:0:0:
240,208,151580,2,0,L|319:203,1,80,8|8,0:0|0:0,0:0:0:0:
392,252,152212,6,0,B|371:195|371:195|388:122,1,120,4|2,0:0|0:0,0:0:0:0:
436,60,153001,1,0,0:0:0:0:
348,44,153317,2,0,P|308:51|269:44,2,80,8|2|2,0:0|0:0|0:0,0:0:0:0:
436,60,154265,1,2,0:0:0:0:
417,190,154738,6,0,P|339:183|261:217,1,160,8|8,0:0|0:0,0:0:0:0:
194,266,155686,1,8,0:0:0:0:
120,216,156001,2,0,P|85:164|85:92,2,120,4|8|8,0:0|0:0|0:0,0:0:0:0:
194,266,157265,6,0,B|232:245|271:255|271:255|306:230|347:235,1,160,4|12,0:0|0:0,0:0:0:0:
498,145,158528,2,0,P|470:54|410:28,1,160,4|12,0:0|0:0,0:0:0:0:
329,46,159475,1,2,0:0:0:0:
243,64,159791,6,0,B|181:102|152:31|81:73,1,160,2|12,0:0|0:0,0:0:0:0:
40,238,161054,2,0,B|102:276|131:205|202:247,1,160,0|12,3:0|0:0,0:0:0:0:
268,289,162001,1,8,0:0:0:0:
351,261,162317,6,0,L|358:92,1,160,4|8,0:0|0:0,0:0:0:0:
201,19,163580,2,0,L|194:188,1,160,8|8,0:0|0:0,0:0:0:0:
221,262,164528,1,2,0:0:0:0:
297,305,164843,6,0,P|363:297|424:308,2,120,4|8|8,0:0|0:0|0:0,0:0:0:0:
221,262,166107,2,0,L|142:258,1,80,2|8,0:0|0:0,0:0:0:0:
53,264,166738,2,0,P|63:212|81:193,1,80,8|12,0:0|0:0,0:0:0:0:
140,128,167370,6,0,P|93:107|26:127,2,120,8|8|8,3:1|0:0|0:0,0:0:0:0:
228,120,168633,2,0,L|360:112,1,120,4|12,0:0|0:0,0:0:0:0:
473,145,169580,2,0,P|488:204|465:266,2,120,12|12|8,0:0|0:0|0:0,0:0:0:0:
423,72,170843,1,8,0:0:0:0:
335,80,171159,6,0,B|292:107|250:112|250:112|214:99,1,120,12|12,0:0|0:0,0:0:0:0:
103,157,172107,2,0,P|99:234|136:272,1,120,12|12,0:0|0:0,0:0:0:0:
237,316,173054,1,10,0:0:0:0:
377,210,173686,6,0,B|391:171|375:134|375:134|386:110|386:110|376:79|376:40,2,160,4|2|0,2:0|2:0|0:0,0:0:0:0:
315,273,175265,1,8,0:0:0:0:
237,231,175580,2,0,P|197:226|150:232,1,80,8|8,0:0|0:0,0:0:0:0:
136,315,176212,6,0,P|74:257|142:142,1,240,4|14,0:0|0:0,0:0:0:0:
212,87,177475,2,0,P|163:57|87:70,2,120,4|8|8,0:0|0:0|0:0,0:0:0:0:
320,164,178896,2,0,P|393:136|446:142,1,120,8|8,0:0|0:0,0:0:0:0:
502,190,179686,1,8,0:0:0:0:
442,254,180001,6,0,B|435:298|435:298|411:325|411:325|404:370,2,120,4|8|12,0:0|0:0|0:0,0:0:0:0:
391,132,181422,2,0,P|306:83|276:89,1,120,2|0,0:0|0:0,0:0:0:0:
210,123,182212,1,8,0:0:0:0:
129,158,182528,6,0,P|122:120|165:43,2,120,4|8|8,0:0|0:0|0:0,0:0:0:0:
231,241,183949,2,0,L|368:231,1,120,0|8,0:0|0:0,0:0:0:0:
438,222,184738,1,8,0:0:0:0:
472,140,185054,6,0,P|444:67|404:46,1,120,4|8,0:0|0:0,0:0:0:0:
284,84,186001,2,0,L|158:74,2,120,4|12|8,0:0|0:0|0:0,0:0:0:0:
360,128,187265,1,12,0:0:0:0:
48,335,192633,6,0,B|71:279|32:230|32:230|51:152|138:148|138:148,1,240,4|0,0:0|0:0,0:0:0:0:
194,200,193896,2,0,P|209:144|73:79,1,240,2|2,0:0|0:0,0:0:0:0:
8,136,195159,6,0,B|40:212|40:212|32:292|32:292|72:376,1,240,2|2,0:0|0:0,0:0:0:0:
152,344,196422,2,0,P|200:340|240:344,1,80,2|2,0:0|0:0,0:0:0:0:
320,356,197054,2,0,P|359:358|399:354,1,80,2|2,0:0|0:0,0:0:0:0:
472,304,197686,6,0,B|488:224|488:224|480:176,2,120,12|8|8,0:0|0:0|0:0,0:0:0:0:
396,259,198949,2,0,B|402:221|402:221|386:141,2,120,12|12|12,0:0|0:0|0:0,0:0:0:0:
336,317,200195,6,0,L|284:313,1,40,8|8,0:0|0:0,0:0:0:0:
216,276,200668,2,0,L|120:268,1,80,8|8,0:0|0:0,0:0:0:0:
58,228,201300,1,4,0:0:0:0:
116,112,201765,2,0,P|190:84|280:104,1,160,8|12,0:0|0:0,0:0:0:0:
168,144,207789,6,0,B|256:60|256:60|344:152,1,240,12|0,0:0|0:0,0:0:0:0:
325,232,209052,2,0,P|257:312|188:223,1,240,12|0,0:0|0:0,0:0:0:0:
252,173,210315,6,0,L|82:188,1,160,12|8,0:0|0:0,0:0:0:0:
16,141,211263,1,8,0:0:0:0:
71,72,211579,2,0,L|248:54,1,160,8|8,0:0|0:0,0:0:0:0:
358,178,212825,6,0,P|332:239|282:279,2,120,12|12|8,0:0|0:0|0:0,0:0:0:0:
328,96,214088,1,6,0:0:0:0:
81,63,217897,6,0,P|128:63|164:129,1,120,4|0,0:0|0:0,0:0:0:0:
113,191,218686,1,0,0:0:0:0:
198,212,219002,2,0,P|230:193|257:158,2,80,4|0|0,0:0|0:0|0:0,0:0:0:0:
221,296,219949,2,0,B|276:330|336:300,1,120
404,244,220739,5,8,0:0:0:0:
364,168,221054,2,0,P|366:125|373:78,1,80,2|8,0:0|0:0,0:0:0:0:
296,40,221686,2,0,P|214:43|165:68,2,120,2|0|8,0:0|0:0|0:0,0:0:0:0:
371,88,222949,6,0,P|416:129|485:153,1,120,12|8,0:0|0:0,0:0:0:0:
504,232,223739,1,8,0:0:0:0:
464,312,224054,2,0,P|395:317|347:341,1,120,4|8,0:0|0:0,0:0:0:0:
268,304,224844,2,0,P|221:302|186:292,1,80,8|8,0:0|0:0,0:0:0:0:
120,240,225475,6,0,B|110:160|134:197|120:114,1,120,12|4,0:0|0:0,0:0:0:0:
68,52,226265,1,8,0:0:0:0:
148,16,226581,2,0,P|211:19|259:58,1,120,4|8,0:0|0:0,0:0:0:0:
284,136,227370,2,0,P|331:97|342:67,1,80,8|8,0:0|0:0,0:0:0:0:
420,44,228002,6,0,P|419:109|386:165,1,120,4|0,0:0|0:0,0:0:0:0:
328,212,228791,1,0,0:0:0:0:
308,300,229107,2,0,P|350:342|382:357,2,80,8|2|2,0:0|0:0|0:0,0:0:0:0:
328,212,230054,1,2,0:0:0:0:
248,108,230528,6,0,P|179:130|82:135,1,160,4|8,0:0|0:0,0:0:0:0:
4,152,231475,1,8,0:0:0:0:
4,240,231791,2,0,P|18:308|41:366,2,120,12|8|8,0:0|0:0|0:0,0:0:0:0:
4,152,233054,6,0,B|38:126|80:134|80:134|115:145|159:121,1,160,4|4,0:0|0:0,0:0:0:0:
335,144,234318,2,0,P|295:199|297:295,1,160,4|12,0:0|0:0,0:0:0:0:
249,364,235265,1,8,0:0:0:0:
176,313,235581,6,0,P|86:318|27:268,1,160,4|0,0:0|0:0,0:0:0:0:
53,102,236844,2,0,P|143:97|202:147,1,160,12|6,0:0|0:0,0:0:0:0:
280,115,237791,1,6,0:0:0:0:
352,165,238107,6,0,L|345:334,1,160,8|8,0:0|0:0,0:0:0:0:
171,354,239370,2,0,L|178:185,1,160,4|8,0:0|0:0,0:0:0:0:
244,136,240318,1,4,0:0:0:0:
172,85,240633,6,0,P|106:93|44:84,2,120,4|8|8,0:0|0:0|0:0,0:0:0:0:
254,53,241897,2,0,L|333:57,1,80,8|2,0:0|0:0,0:0:0:0:
422,53,242528,2,0,P|412:105|394:124,1,80,2|12,0:0|0:0,0:0:0:0:
333,187,243160,6,0,P|387:209|450:194,2,120,8|8|8,0:0|0:0|0:0,0:0:0:0:
246,203,244423,2,0,B|188:228|189:182|123:209,1,120,4|12,0:0|0:0,0:0:0:0:
68,323,245370,2,0,B|126:348|125:302|191:329,2,120,12|12|12,0:0|0:0|0:0,0:0:0:0:
8,257,246633,1,12,0:0:0:0:
64,192,246949,6,0,P|57:123|37:65,1,120,12|12,0:0|0:0,0:0:0:0:
172,44,247897,2,0,P|154:101|149:160,2,120,12|12|12,0:0|0:0|0:0,0:0:0:0:
280,184,249475,6,0,P|379:233|421:70,1,320,4|8,2:0|0:0,0:0:0:0:
356,28,251054,1,0,0:0:0:0:
272,48,251370,2,0,P|232:40|192:48,1,80,8|0,0:0|0:0,0:0:0:0:
128,104,252002,6,0,P|88:168|132:236,1,160,2|8,0:0|0:0,0:0:0:0:
196,292,252949,1,0,0:0:0:0:
112,324,253265,2,0,B|64:312|32:268|32:268|0:280|-12:312,2,160,2|8|4,0:0|0:0|3:0,0:0:0:0:
