osu file format v14

[General]
AudioFilename: redo.mp3
AudioLeadIn: 0
PreviewTime: 142107
Countdown: 0
SampleSet: Normal
StackLeniency: 0.5
Mode: 0
LetterboxInBreaks: 0
WidescreenStoryboard: 0

[Editor]
DistanceSpacing: 1.4
BeatDivisor: 4
GridSize: 4
TimelineZoom: 2.7

[Metadata]
Title:Redo
TitleUnicode:Redo
Artist:Suzuki Konomi
ArtistUnicode:鈴木このみ
Creator:Kalibe
Version:Hard
Source:Re:ゼロから始める異世界生活
Tags:op Re:Zero kara Hajimeru Isekai Seikatsu Re: Life in a different world from zero opening Mkguh Doormat FCL Linada full version
BeatmapID:980657
BeatmapSetID:456524

[Difficulty]
HPDrainRate:5
CircleSize:3.5
OverallDifficulty:6
ApproachRate:8
SliderMultiplier:1.4
SliderTickRate:1

[Events]
//Background and Video events
0,0,"BGGBBBG.jpg",0,0
//Break Periods
2,42518,46620
2,114518,118620
2,188212,191884
2,202937,207039
//Storyboard Layer 0 (Background)
//Storyboard Layer 1 (Fail)
//Storyboard Layer 2 (Pass)
//Storyboard Layer 3 (Foreground)
//Storyboard Sound Samples

[TimingPoints]
634,315.789473684211,4,2,2,10,1,0
634,-100,4,2,2,10,0,0
791,-100,4,2,1,20,0,0
949,-100,4,2,2,30,0,0
1107,-100,4,2,1,40,0,0
1265,-100,4,2,2,50,0,0
1897,-100,4,2,2,50,0,0
6949,-100,4,1,2,55,0,0
12002,-100,4,2,2,55,0,0
32212,-111.111111111111,4,2,2,40,0,0
37265,-100,4,1,2,55,0,0
42318,-111.111111111111,4,2,2,40,0,0
47370,-100,4,1,2,55,0,0
51160,-100,4,1,2,55,0,0
52423,-100,4,1,2,65,0,0
54949,-90.9090909090909,4,1,2,70,0,1
70107,-100,4,1,2,50,0,0
80212,-90.9090909090909,4,1,2,60,0,1
86528,-90.9090909090909,4,1,2,60,0,1
87791,-90.9090909090909,4,1,2,60,0,1
89055,-100,4,1,2,50,0,0
94107,-100,4,2,2,50,0,0
114318,-100,4,2,2,40,0,0
119370,-100,4,1,2,55,0,0
120634,-100,4,1,2,55,0,0
120712,-100,4,1,2,55,0,0
121897,-100,4,1,2,55,0,0
122528,-100,4,1,2,55,0,0
122844,-100,4,1,2,55,0,0
124423,-111.111111111111,4,2,2,40,0,0
129476,-100,4,1,2,55,0,0
130107,-100,4,1,2,55,0,0
130423,-100,4,1,2,55,0,0
131967,315.789473684211,4,1,2,55,1,0
132467,315.789473684211,4,1,2,55,1,0
132634,315.789473684211,4,1,2,55,1,0
133265,315.789473684211,4,1,2,55,1,0
134528,-100,4,1,2,55,0,0
137055,-100,4,1,2,55,0,0
139581,-100,4,2,2,10,0,0
139896,-100,4,2,2,15,0,0
140212,-100,4,2,2,20,0,0
140528,-100,4,2,2,25,0,0
140843,-100,4,2,2,50,0,0
141159,-100,4,2,2,55,0,0
141475,-100,4,2,2,60,0,0
141791,-100,4,2,2,30,0,0
142107,-90.9090909090909,4,1,2,70,0,1
157265,-100,4,1,2,50,0,0
167370,-90.9090909090909,4,1,2,60,0,1
173685,-90.9090909090909,4,1,2,60,0,1
174948,-90.9090909090909,4,1,2,60,0,1
175738,-90.9090909090909,4,1,2,60,0,1
176212,-100,4,1,2,60,0,0
177475,-100,4,1,2,75,0,0
187264,-100,4,1,2,75,0,0
187580,-100,4,2,2,40,0,0
192633,-100,4,1,2,60,0,0
200195,315.789473684211,4,1,2,60,1,0
201765,315.789473684211,4,1,2,60,1,0
202737,315.789473684211,4,2,2,30,1,0
202737,-100,4,2,2,30,0,0
207790,-100,4,1,2,60,0,0
209054,-100,4,1,2,60,0,0
210317,-100,4,1,2,60,0,0
212825,315.789473684211,4,1,2,60,1,1
212825,-90.9090909090909,4,1,2,60,0,1
214088,-100,4,1,2,60,0,0
215351,-100,4,2,2,30,0,0
215430,-100,4,2,2,10,0,0
215667,-100,4,2,2,15,0,0
215982,-100,4,2,2,20,0,0
216298,-100,4,2,2,25,0,0
216614,-100,4,2,2,50,0,0
216930,-100,4,2,2,55,0,0
217246,-100,4,2,2,60,0,0
217561,-100,4,2,2,30,0,0
217897,315.789473684211,4,1,2,70,1,1
217897,-90.9090909090909,4,1,2,70,0,1
233054,-100,4,1,2,50,0,0
243160,-90.9090909090909,4,1,2,60,0,1
249475,-90.9090909090909,4,1,2,70,0,1
250738,-90.9090909090909,4,1,2,70,0,1
252002,-100,4,2,2,50,0,0
254527,-100,4,2,2,25,0,0

[Colours]
Combo1 : 143,143,143
Combo2 : 71,138,141
Combo3 : 102,102,255
Combo4 : 0,164,164

[HitObjects]
256,192,634,12,0,1581,2:1:0:0:
100,220,1897,6,0,L|96:136,1,70,2|0,0:0|0:0,0:0:0:0:
267,54,2370,2,0,B|269:101|269:101|254:147|254:147|256:199,1,140,2|0,0:0|0:0,0:0:0:0:
315,269,2844,2,0,L|390:278,1,70,2|0,0:0|0:0,0:0:0:0:
240,304,3160,6,0,L|152:312,1,70,2|0,0:0|0:0,0:0:0:0:
12,196,3634,2,0,B|60:192|60:192|96:204|96:204|156:200,1,140,2|0,0:0|0:0,0:0:0:0:
227,143,4107,2,0,B|231:111|231:111|223:63,1,70,2|0,0:0|0:0,0:0:0:0:
292,200,4423,6,0,B|292:240|292:240|276:288,1,70,2|0,0:0|0:0,0:0:0:0:
358,85,4897,2,0,P|294:61|214:81,1,140,2|0,0:0|0:0,0:0:0:0:
136,116,5370,2,0,P|100:116|52:100,1,70,2|0,0:0|0:0,0:0:0:0:
192,180,5686,6,0,P|228:188|268:184,1,70,2|0,0:0|0:0,0:0:0:0:
76,245,6160,2,0,B|59:151|59:151|71:87,1,140,2|0,0:0|0:0,0:0:0:0:
148,48,6634,2,0,L|228:36,1,70,2|0,0:0|0:0,0:0:0:0:
232,152,6949,6,0,L|136:128,1,70,2|0,0:0|0:0,0:0:0:0:
67,107,7265,1,2,0:0:0:0:
148,48,7423,2,2,B|228:36|228:36|296:56,1,140,0|0,0:0|0:0,0:0:0:0:
348,128,7897,2,2,P|356:164|340:204,1,70,2|0,0:0|0:0,0:0:0:0:
284,272,8212,5,2,0:0:0:0:
220,196,8370,2,2,P|212:160|224:116,1,70,0|2,0:0|0:0,0:0:0:0:
284,52,8686,2,2,P|344:24|416:52,1,140,0|0,0:0|0:0,0:0:0:0:
472,124,9160,1,2,0:0:0:0:
500,28,9318,1,0,0:0:0:0:
400,72,9476,6,2,P|384:104|388:148,1,70,2|0,0:0|0:0,0:0:0:0:
440,216,9791,1,2,0:0:0:0:
440,216,9949,2,2,B|368:192|368:244|296:216,1,140,0|0,0:0|0:0,0:0:0:0:
212,176,10423,2,2,P|204:144|212:96,1,70,2|0,0:0|0:0,0:0:0:0:
232,12,10739,5,2,0:0:0:0:
312,68,10897,2,2,P|320:100|304:148,1,70,0|2,0:0|0:0,0:0:0:0:
212,176,11212,2,2,B|167:177|167:177|68:184,1,140,0|0,0:0|0:0,0:0:0:0:
184,268,11686,2,2,B|220:272|220:272|272:264,1,70,2|0,0:0|0:0,0:0:0:0:
336,216,12002,6,2,P|400:192|476:208,2,140,2|0|2,0:0|0:0|0:0,0:0:0:0:
192,348,12949,1,0,0:0:0:0:
136,160,13265,2,0,P|208:140|272:172,1,140,2|0,0:0|0:0,0:0:0:0:
76,212,13897,2,0,P|60:180|60:136,2,70,2|0|2,0:0|0:0|0:0,0:0:0:0:
136,288,14370,1,0,0:0:0:0:
212,212,14528,6,0,P|228:152|204:72,2,140,2|0|2,0:0|0:0|0:0,0:0:0:0:
304,40,15476,1,0,0:0:0:0:
444,176,15791,2,0,P|372:180|296:144,1,140,2|0,0:0|0:0,0:0:0:0:
236,92,16265,1,0,0:0:0:0:
236,92,16423,2,0,P|228:56|236:8,1,70,2|0,0:0|0:0,0:0:0:0:
140,60,16739,2,0,P|140:96|160:136,1,70,2|0,0:0|0:0,0:0:0:0:
236,188,17055,6,0,B|304:196|304:196|376:180,2,140,2|0|2,0:0|0:0|0:0,0:0:0:0:
48,140,18002,1,0,0:0:0:0:
208,28,18318,2,0,P|200:60|204:112,1,70,2|0,0:0|0:0,0:0:0:0:
236,188,18634,2,0,P|236:224|216:268,1,70,2|0,0:0|0:0,0:0:0:0:
140,304,18949,2,0,P|80:288|40:216,1,140,2|0,0:0|0:0,0:0:0:0:
152,60,19581,6,0,B|224:32|300:72|300:72|368:64,1,210,2|0,0:0|0:0,0:0:0:0:
440,16,20212,2,0,B|448:84|448:84|424:156|424:156|440:240,1,210,2|0,0:0|0:0,0:0:0:0:
508,288,20844,2,0,P|420:236|332:296,1,210,2|0,0:0|0:0,0:0:0:0:
284,368,21476,2,0,P|300:316|260:236,1,140,2|0,0:0|0:0,0:0:0:0:
96,144,22107,6,0,L|84:296,2,140,2|0|2,0:0|0:0|0:0,0:0:0:0:
236,284,23055,1,0,0:0:0:0:
420,216,23370,2,0,B|368:208|368:208|332:220|332:220|268:220,1,140,2|0,0:0|0:0,0:0:0:0:
184,224,23844,1,0,0:0:0:0:
108,164,24002,2,0,P|100:132|108:84,2,70,2|0|2,0:0|0:0|0:0,0:0:0:0:
260,288,24634,6,0,P|332:276|368:200,2,140,2|0|2,0:0|0:0|0:0,0:0:0:0:
108,164,25581,1,0,0:0:0:0:
280,72,25897,2,0,L|288:228,1,140,2|0,0:0|0:0,0:0:0:0:
292,308,26370,1,0,0:0:0:0:
372,252,26528,2,0,L|452:264,1,70,2|0,0:0|0:0,0:0:0:0:
287,211,26844,2,0,L|192:216,1,70,2|0,0:0|0:0,0:0:0:0:
112,220,27160,5,2,0:0:0:0:
112,220,27318,1,0,0:0:0:0:
156,132,27476,2,0,P|164:96|152:48,1,70,2|0,0:0|0:0,0:0:0:0:
72,20,27791,2,0,P|48:76|68:164,1,140,2|2,0:0|0:0,0:0:0:0:
156,132,28265,1,0,0:0:0:0:
252,108,28423,6,0,P|256:140|244:184,1,70,2|0,0:0|0:0,0:0:0:0:
151,200,28739,2,0,P|147:168|159:124,1,70,2|0,0:0|0:0,0:0:0:0:
192,40,29055,1,2,0:0:0:0:
384,84,29370,1,2,0:0:0:0:
233,213,29686,6,0,P|197:109|269:121,1,210,2|0,0:0|0:0,0:0:0:0:
328,168,30318,2,0,P|324:264|216:316,1,210,2|0,0:0|0:0,0:0:0:0:
148,272,30949,2,0,B|92:256|92:256|-4:260,2,140,2|0|2,0:0|0:0|0:0,0:0:0:0:
233,317,31739,1,0,0:0:0:0:
272,228,31897,2,0,B|276:192|276:192|264:144,1,70,2|0,0:0|0:0,0:0:0:0:
192,88,32212,6,0,B|128:76|128:76|65:84,1,125.999996154785,2|0,0:0|0:0,0:0:0:0:
68,172,32686,2,0,B|129:184|129:184|204:176,1,125.999996154785,2|0,0:0|0:0,0:0:0:0:
272,132,33160,2,0,P|280:100|272:44,1,62.9999980773926,2|2,0:0|0:0,0:0:0:0:
360,32,33476,6,0,P|368:96|348:172,1,125.999996154785,2|0,0:0|0:0,0:0:0:0:
288,216,33949,2,0,P|224:224|160:216,1,125.999996154785,2|0,0:0|0:0,0:0:0:0:
76,184,34423,1,2,0:0:0:0:
241,129,34739,6,0,P|304:123|368:175,1,125.999996154785,2|0,0:0|0:0,0:0:0:0:
336,248,35212,2,0,P|273:254|209:202,2,125.999996154785,2|2|0,0:0|0:0|0:0,0:0:0:0:
420,200,36002,2,0,P|436:140|392:72,1,125.999996154785,2|0,0:0|0:0,0:0:0:0:
348,152,36476,2,0,P|321:161|265:157,1,62.9999980773926,2|0,0:0|0:0,0:0:0:0:
204,132,36791,1,0,0:0:0:0:
260,48,36949,2,0,P|288:36|348:36,1,62.9999980773926,12|0,0:0|0:0,0:0:0:0:
409,88,37265,6,0,P|435:143|416:216,1,140,4|8,0:0|0:0,0:0:0:0:
336,272,37739,1,0,0:0:0:0:
336,272,37897,2,0,B|296:272|296:272|264:264,1,70,2|0,0:0|0:0,0:0:0:0:
192,192,38212,1,8,0:0:0:0:
129,269,38370,6,0,B|197:281|197:281|281:261,1,140,0|2,0:0|0:0,0:0:0:0:
356,228,38844,1,8,0:0:0:0:
288,160,39002,2,0,P|252:148|204:148,1,70,0|2,0:0|0:0,0:0:0:0:
132,188,39318,1,0,0:0:0:0:
132,188,39476,2,0,P|96:188|48:168,1,70,8|0,0:0|0:0,0:0:0:0:
20,88,39791,6,0,P|92:100|176:64,1,140,2|8,0:0|0:0,0:0:0:0:
232,16,40265,1,0,0:0:0:0:
324,44,40423,2,0,B|336:88|336:88|320:204,1,140,2|8,0:0|0:0,0:0:0:0:
300,276,40897,1,2,0:0:0:0:
228,208,41055,6,0,L|152:212,1,70,4|0,0:0|0:0,0:0:0:0:
323,181,41370,2,0,L|412:188,1,70,8|2,0:0|0:0,0:0:0:0:
252,128,41686,2,0,L|166:130,1,70,8|2,0:0|0:0,0:0:0:0:
340,96,42002,2,0,L|426:104,1,70,8|10,0:0|0:0,0:0:0:0:
432,108,42239,1,0,0:0:0:0:
452,116,42318,5,4,0:0:0:0:
384,88,47370,6,0,B|312:79|312:79|231:98,1,140,4|8,0:0|0:0,0:0:0:0:
155,131,47844,1,0,0:0:0:0:
155,131,48002,2,0,B|117:132|117:132|58:119,1,70,2|0,0:0|0:0,0:0:0:0:
172,44,48318,1,8,0:0:0:0:
246,94,48476,6,0,B|252:144|252:144|234:251,1,140,0|2,0:0|0:0,0:0:0:0:
216,328,48949,1,8,0:0:0:0:
144,260,49107,2,0,P|136:228|148:176,2,70,0|2|0,0:0|0:0|0:0,0:0:0:0:
216,328,49581,2,0,P|248:340|308:336,1,70,8|0,0:0|0:0,0:0:0:0:
266,245,49897,6,0,P|194:225|134:281,1,140,2|8,0:0|0:0,0:0:0:0:
100,348,50370,1,0,0:0:0:0:
32,276,50528,2,0,P|24:244|32:184,1,70,2|8,0:0|0:0,0:0:0:0:
44,112,50844,2,0,P|76:96|128:92,1,70,8|2,0:0|0:0,0:0:0:0:
208,120,51160,6,0,B|244:132|244:132|300:132,1,70,4|0,0:0|0:0,0:0:0:0:
284,24,51476,2,0,B|248:20|248:20|204:28,1,70,8|0,0:0|0:0,0:0:0:0:
120,56,51791,1,8,0:0:0:0:
208,120,51949,1,2,0:0:0:0:
104,172,52107,2,0,P|98:206|104:240,1,70,8|2,0:0|0:0,0:0:0:0:
136,332,52423,5,8,0:0:0:0:
136,332,52581,1,8,0:0:0:0:
212,152,52897,2,8,L|204:60,1,70
264,268,53370,1,8,0:0:0:0:
264,268,53528,1,12,0:0:0:0:
337,203,53686,6,0,L|346:119,1,70
315,39,54002,1,2,0:0:0:0:
229,98,54160,1,8,0:0:0:0:
229,98,54239,1,8,0:0:0:0:
229,98,54318,2,0,P|265:140|357:120,1,140,8|12,0:0|0:0,0:0:0:0:
104,91,54949,6,0,B|105:147|105:147|89:187|89:187|94:245,1,154.000004699707,4|8,0:0|0:0,0:0:0:0:
174,314,55423,2,0,L|184:221,1,77.0000023498536,0|2,0:0|0:0,0:0:0:0:
196,68,55739,2,0,L|210:161,1,77.0000023498536,0|8,0:0|0:0,0:0:0:0:
262,237,56055,6,0,B|332:261|332:261|425:262,1,154.000004699707,4|2,0:0|0:0,0:0:0:0:
503,205,56528,1,8,0:0:0:0:
435,120,56686,2,0,B|395:108|395:108|355:108,1,77.0000023498536,0|2,0:0|0:0,0:0:0:0:
253,129,57002,1,0,0:0:0:0:
253,129,57161,2,0,B|213:133|213:133|177:125,1,77.0000023498536,8|0,0:0|0:0,0:0:0:0:
251,32,57476,6,0,P|318:38|359:112,1,154.000004699707,4|8,0:0|0:0,0:0:0:0:
328,212,57949,1,0,0:0:0:0:
328,212,58107,2,0,P|320:248|336:300,1,77.0000023498536,2|0,0:0|0:0,0:0:0:0:
432,252,58423,1,8,0:0:0:0:
416,148,58581,1,0,0:0:0:0:
328,212,58739,6,0,P|288:224|248:220,1,77.0000023498536,2|0,0:0|0:0,0:0:0:0:
160,168,59055,1,8,0:0:0:0:
124,272,59212,2,0,P|207:270|255:214,1,154.000004699707
321,135,59686,2,0,L|329:231,1,77.0000023498536,8|0,0:0|0:0,0:0:0:0:
232,140,60002,5,4,0:0:0:0:
232,140,60160,1,2,0:0:0:0:
292,48,60318,2,0,P|332:48|384:72,1,77.0000023498536,0|8,0:0|0:0,0:0:0:0:
444,136,60634,2,0,P|444:176|424:220,1,77.0000023498536,0|8,0:0|0:0,0:0:0:0:
332,272,60949,1,0,0:0:0:0:
344,152,61107,6,0,P|268:136|192:172,1,154.000004699707,4|0,0:0|0:0,0:0:0:0:
100,212,61581,2,0,P|88:176|100:120,1,77.0000023498536,8|0,0:0|0:0,0:0:0:0:
199,164,61897,2,0,P|205:235|156:308,1,154.000004699707,2|8,0:0|0:0,0:0:0:0:
100,212,62370,1,0,0:0:0:0:
60,312,62528,5,4,0:0:0:0:
162,303,62686,2,8,L|220:297,3,38.5000011749268
236,296,63002,2,0,P|272:284|300:256,1,77.0000023498536,8|8,0:0|0:0,0:0:0:0:
320,148,63318,2,8,P|316:124|304:100,3,38.5000011749268
296,80,63634,6,0,P|224:52|137:62,1,154.000004699707,4|2,0:0|0:0,0:0:0:0:
55,114,64107,1,12,0:0:0:0:
131,190,64265,1,2,0:0:0:0:
131,190,64344,1,8,0:0:0:0:
131,190,64423,2,0,B|167:194|167:194|231:186,1,77.0000023498536,12|0,0:0|0:0,0:0:0:0:
305,142,64739,2,0,B|345:142|345:142|405:158,1,77.0000023498536,8|8,0:0|0:0,0:0:0:0:
326,248,65055,6,0,P|234:236|206:178,1,154.000004699707,4|8,0:0|0:0,0:0:0:0:
264,96,65528,2,0,L|356:88,1,77.0000023498536,2|8,0:0|0:0,0:0:0:0:
172,32,65844,1,2,0:0:0:0:
172,32,66002,2,0,L|84:20,1,77.0000023498536,8|2,0:0|0:0,0:0:0:0:
36,100,66318,6,0,P|20:172|80:240,1,154.000004699707,8|8,0:0|0:0,0:0:0:0:
168,268,66791,2,0,P|208:268|256:244,1,77.0000023498536,2|8,0:0|0:0,0:0:0:0:
184,164,67107,1,2,0:0:0:0:
96,228,67265,2,0,P|88:264|104:320,1,77.0000023498536,8|2,0:0|0:0,0:0:0:0:
180,372,67581,6,0,P|268:372|324:320,1,154.000004699707,4|8,0:0|0:0,0:0:0:0:
372,240,68055,1,2,0:0:0:0:
372,240,68212,2,0,P|376:200|360:148,1,77.0000023498536,8|2,0:0|0:0,0:0:0:0:
296,84,68528,2,8,P|272:72|240:68,3,38.5000011749268
228,60,68844,6,0,P|152:60|68:100,1,154.000004699707,4|2,0:0|0:0,0:0:0:0:
172,148,69318,2,0,P|248:148|332:188,1,154.000004699707,8|2,0:0|0:0,0:0:0:0:
228,236,69791,2,0,P|188:232|134:245,1,77.0000023498536,12|0,0:0|0:0,0:0:0:0:
71,295,70107,5,2,0:0:0:0:
71,295,70265,2,0,P|59:327|67:375,1,70,8|2,0:0|0:0,0:0:0:0:
110,171,70739,2,0,P|113:136|90:80,1,70,8|2,0:0|0:0,0:0:0:0:
191,277,71212,1,2,0:0:0:0:
276,228,71370,6,0,L|359:236,2,70,4|2|0,0:0|0:0|0:0,0:0:0:0:
189,180,71844,1,2,0:0:0:0:
260,113,72002,2,0,P|328:109|413:118,1,140,12|2,0:0|0:0,0:0:0:0:
489,155,72476,1,8,0:0:0:0:
412,220,72634,6,0,P|380:228|340:228,2,70,4|8|2,0:0|0:0|0:0,0:0:0:0:
221,274,73265,2,0,P|186:277|153:266,1,70,8|0,0:0|0:0,0:0:0:0:
67,221,73581,1,0,0:0:0:0:
88,125,73739,1,8,0:0:0:0:
182,145,73897,6,0,P|195:210|142:270,1,140,4|8,0:0|0:0,0:0:0:0:
71,318,74370,1,2,0:0:0:0:
157,364,74528,2,0,P|235:364|283:313,1,140,8|2,0:0|0:0,0:0:0:0:
334,242,75002,1,8,0:0:0:0:
289,156,75160,6,0,P|283:122|297:70,2,70,4|2|2,0:0|0:0|0:0,0:0:0:0:
476,92,75791,2,0,P|484:129|471:178,1,70,8|0,0:0|0:0,0:0:0:0:
388,208,76107,2,0,P|380:168|388:128,1,70,2|0,0:0|0:0,0:0:0:0:
478,160,76423,6,0,P|486:222|464:312,1,140,4|2,0:0|0:0,0:0:0:0:
396,236,76897,1,0,0:0:0:0:
396,236,77055,2,0,P|358:232|307:253,1,70,12|0,0:0|0:0,0:0:0:0:
256,308,77370,2,0,P|216:316|187:312,1,70,2|0,0:0|0:0,0:0:0:0:
104,256,77686,6,0,B|90:167|90:167|105:106,1,140,4|2,0:0|0:0,0:0:0:0:
169,45,78160,1,0,0:0:0:0:
243,108,78318,2,0,B|311:128|311:128|389:127,1,140,12|2,0:0|0:0,0:0:0:0:
324,44,78791,1,8,0:0:0:0:
243,108,78949,6,0,P|232:140|249:193,1,70,4|0,0:0|0:0,0:0:0:0:
298,253,79265,2,0,P|229:221|159:234,1,140,8|8,0:0|0:0,0:0:0:0:
83,281,79739,1,2,0:0:0:0:
83,281,79897,2,0,P|71:252|77:194,1,70,12|0,0:0|0:0,0:0:0:0:
113,115,80212,6,2,P|126:102|158:92,3,38.5000011749268
176,80,80528,2,8,B|212:72|212:72|272:80,1,77.0000023498536
348,128,80844,2,2,P|364:140|380:168,3,38.5000011749268
388,188,81160,2,8,B|388:228|388:228|377:265,1,77.0000023498536
270,230,81476,6,0,L|250:70,1,154.000004699707,4|2,0:0|0:0,0:0:0:0:
156,28,81949,2,0,B|148:72|148:72|156:132|156:132|144:196,1,154.000004699707,8|2,0:0|0:0,0:0:0:0:
60,244,82423,2,0,B|52:164,1,77.0000023498536,8|0,0:0|0:0,0:0:0:0:
44,67,82739,1,2,0:0:0:0:
156,28,82897,6,0,P|228:32|304:80,1,154.000004699707,2|2,0:0|0:0,0:0:0:0:
368,156,83370,2,0,P|332:152|288:164,1,77.0000023498536,2|0,0:0|0:0,0:0:0:0:
212,236,83686,2,0,P|248:236|300:260,1,77.0000023498536,8|0,0:0|0:0,0:0:0:0:
372,320,84002,6,0,P|456:320|496:244,1,154.000004699707,4|2,0:0|0:0,0:0:0:0:
472,160,84476,2,0,L|372:144,1,77.0000023498536,12|0,0:0|0:0,0:0:0:0:
292,176,84791,1,2,0:0:0:0:
292,176,84949,2,0,L|212:160,1,77.0000023498536,12|0,0:0|0:0,0:0:0:0:
124,100,85265,1,2,0:0:0:0:
48,192,85423,6,0,P|40:228|52:276,2,77.0000023498536,12|0|2,0:0|0:0|0:0,0:0:0:0:
124,100,85897,1,12,0:0:0:0:
346,74,86528,6,0,B|230:38|242:130|118:98,1,231.000007049561,4|0,2:0|2:0,2:0:0:0:
32,40,87160,2,0,P|100:116|24:208,1,231.000007049561,2|2,2:0|2:1,2:0:0:0:
128,260,87791,6,0,B|164:272|164:272|224:276,1,77.0000023498536,8|0,0:0|0:0,0:0:0:0:
300,224,88107,2,0,B|331:216|331:216|375:220,1,77.0000023498536,8|0,0:0|0:0,0:0:0:0:
480,248,88423,1,8,0:0:0:0:
376,312,88581,1,12,0:0:0:0:
376,312,89055,6,0,P|368:248|378:172,1,140,2|0,0:0|0:0,0:0:0:0:
452,108,89528,2,0,P|380:136|308:100,1,140,2|0,0:0|0:0,0:0:0:0:
244,60,90002,2,0,P|248:96|240:152,1,70,2|0,0:0|0:0,0:0:0:0:
164,188,90318,6,0,P|168:116|164:40,1,140,2|0,0:0|0:0,0:0:0:0:
72,12,90791,2,0,P|64:48|64:100,1,70,2|8,0:0|0:0,0:0:0:0:
95,176,91107,1,0,0:0:0:0:
95,176,91265,2,0,P|127:184|167:188,1,70,2|0,0:0|0:0,0:0:0:0:
220,108,91581,6,0,B|228:155|228:155|216:207|216:207|220:256,1,140,2|0,0:0|0:0,0:0:0:0:
248,340,92055,1,0,0:0:0:0:
324,276,92212,2,0,L|403:286,1,70,2|0,0:0|0:0,0:0:0:0:
219,245,92528,2,0,L|124:251,1,70,8|0,0:0|0:0,0:0:0:0:
294,173,92844,6,0,L|447:194,1,140,2|0,0:0|0:0,0:0:0:0:
482,106,93318,2,0,P|451:89|404:85,1,70,2|8,0:0|0:0,0:0:0:0:
319,97,93634,1,0,0:0:0:0:
319,97,93791,2,0,P|281:93|236:72,1,70,2|2,0:0|0:0,0:0:0:0:
166,31,94107,6,0,B|96:23|96:23|6:42,2,140,2|0|2,0:0|0:0|0:0,0:0:0:0:
355,82,95055,1,0,0:0:0:0:
173,155,95370,2,0,P|142:96|179:19,1,140,2|0,0:0|0:0,0:0:0:0:
243,90,95844,1,2,0:0:0:0:
243,90,96002,2,0,P|275:100|331:96,1,70
468,71,96318,2,0,P|435:59|401:59,1,70,2|0,0:0|0:0,0:0:0:0:
311,100,96634,6,0,P|296:168|336:244,2,140,2|0|2,0:0|0:0|0:0,0:0:0:0:
392,280,97581,1,0,0:0:0:0:
200,232,97897,2,0,P|180:161|214:85,1,140,2|0,0:0|0:0,0:0:0:0:
264,25,98370,1,2,0:0:0:0:
264,25,98528,2,0,B|298:23|298:23|345:36,1,70
397,107,98844,2,0,B|404:139|404:139|398:180,1,70,2|0,0:0|0:0,0:0:0:0:
318,239,99160,6,0,P|246:246|171:202,1,140,2|2,0:0|0:0,0:0:0:0:
112,152,99634,1,0,0:0:0:0:
112,152,99791,2,0,L|24:139,1,70,2|0,0:0|0:0,0:0:0:0:
187,109,100107,2,0,L|257:105,1,70,2|0,0:0|0:0,0:0:0:0:
355,100,100423,5,2,0:0:0:0:
355,100,100581,1,0,0:0:0:0:
291,24,100739,2,0,P|256:19|205:27,1,70,2|0,0:0|0:0,0:0:0:0:
126,49,101055,2,0,P|102:113|148:183,1,140,2|0,0:0|0:0,0:0:0:0:
228,196,101528,1,0,0:0:0:0:
180,110,101686,6,0,P|100:98|62:206,1,210,2|0,0:0|0:0,0:0:0:0:
112,286,102318,2,0,B|169:311|208:292|208:292|256:328|324:308,1,210,2|0,0:0|0:0,0:0:0:0:
397,259,102949,2,0,P|395:160|284:132,1,210,2|0,0:0|0:0,0:0:0:0:
224,188,103581,2,0,P|252:128|216:48,1,140,2|0,0:0|0:0,0:0:0:0:
403,119,104212,6,0,L|396:280,2,140,2|0|2,0:0|0:0|0:0,0:0:0:0:
311,293,105160,1,0,0:0:0:0:
157,166,105476,2,0,B|208:164|208:164|239:178|239:178|296:183,1,140,2|0,0:0|0:0,0:0:0:0:
391,189,105949,1,0,0:0:0:0:
339,105,106107,2,0,P|333:69|341:25,2,70,2|0|2,0:0|0:0|0:0,0:0:0:0:
391,189,106581,1,0,0:0:0:0:
331,273,106739,6,0,P|267:298|179:286,2,140,2|0|2,0:0|0:0|0:0,0:0:0:0:
458,123,107686,1,0,0:0:0:0:
278,201,108002,2,0,P|208:207|135:177,1,140,2|0,0:0|0:0,0:0:0:0:
67,120,108476,1,2,0:0:0:0:
127,43,108634,2,0,B|161:34|161:34|223:38,1,70
268,101,108949,2,0,B|301:108|301:108|337:105,1,70,2|0,0:0|0:0,0:0:0:0:
417,48,109265,6,0,B|431:120|431:120|418:196,1,140,2|2,0:0|0:0,0:0:0:0:
363,266,109739,1,0,0:0:0:0:
363,266,109897,2,0,P|326:272|269:259,1,70,2|0,0:0|0:0,0:0:0:0:
207,222,110212,1,2,0:0:0:0:
111,243,110370,1,0,0:0:0:0:
36,170,110528,6,0,P|34:135|46:102,1,70,2|0,0:0|0:0,0:0:0:0:
118,35,110844,2,0,P|154:34|207:57,1,70,2|0,0:0|0:0,0:0:0:0:
253,109,111160,2,0,P|286:121|327:118,1,70,2|0,0:0|0:0,0:0:0:0:
410,79,111476,2,0,P|420:114|413:160,1,70,2|0,0:0|0:0,0:0:0:0:
354,222,111791,6,0,P|257:204|261:98,1,210,2|0,0:0|0:0,0:0:0:0:
318,35,112423,2,0,P|260:83|127:65,1,210,2|0,0:0|0:0,0:0:0:0:
43,27,113055,2,0,L|60:188,1,140,2|0,0:0|0:0,0:0:0:0:
129,233,113528,1,0,0:0:0:0:
129,233,113686,2,0,P|140:202|146:152,1,70,2|0,0:0|0:0,0:0:0:0:
221,101,114002,2,0,P|234:136|235:189,1,70
225,271,114318,5,2,0:0:0:0:
360,65,119370,6,0,P|290:59|216:73,1,140,4|8,0:0|0:0,0:0:0:0:
133,115,119844,1,0,0:0:0:0:
215,167,120002,2,0,P|250:173|291:170,1,70,2|0,0:0|0:0,0:0:0:0:
129,209,120318,2,0,P|94:211|57:204,1,70,8|0,0:0|0:0,0:0:0:0:
175,292,120634,6,0,P|245:299|320:280,1,140,2|8,0:0|0:0,0:0:0:0:
397,235,121107,1,0,0:0:0:0:
359,144,121265,2,0,P|358:108|370:75,1,70,2|0,0:0|0:0,0:0:0:0:
265,116,121581,2,0,P|263:154|277:195,1,70,8|0,0:0|0:0,0:0:0:0:
322,269,121897,6,0,P|260:233|187:248,1,140,2|8,0:0|0:0,0:0:0:0:
110,290,122370,1,0,0:0:0:0:
110,290,122528,2,0,B|77:296|77:296|32:292,1,70,2|0,0:0|0:0,0:0:0:0:
38,194,122844,2,0,B|74:189|74:189|124:195,1,70,8|0,0:0|0:0,0:0:0:0:
195,243,123160,5,4,0:0:0:0:
195,243,123318,1,0,0:0:0:0:
266,170,123476,2,0,P|269:136|253:84,1,70,8|0,0:0|0:0,0:0:0:0:
173,145,123791,1,12,0:0:0:0:
83,105,123949,1,8,0:0:0:0:
83,105,124028,1,8,0:0:0:0:
83,105,124107,2,0,P|74:141|95:194,1,70,2|8,0:0|0:0,0:0:0:0:
126,253,124423,6,0,P|186:273|267:269,1,125.999996154785,2|0,0:0|0:0,0:0:0:0:
325,228,124897,2,0,B|370:216|370:216|450:232,1,125.999996154785,2|0,0:0|0:0,0:0:0:0:
405,309,125370,2,0,B|372:313|372:313|329:308,1,62.9999980773926,2|0,0:0|0:0,0:0:0:0:
248,272,125686,6,0,P|217:215|226:146,1,125.999996154785,2|0,0:0|0:0,0:0:0:0:
394,116,126318,2,0,P|401:147|390:195,1,62.9999980773926,2|0,0:0|0:0,0:0:0:0:
312,150,126634,2,0,P|305:119|311:88,1,62.9999980773926,2|0,0:0|0:0,0:0:0:0:
371,25,126949,6,0,P|310:47|226:36,1,125.999996154785,2|0,0:0|0:0,0:0:0:0:
163,24,127423,2,0,P|98:26|34:65,1,125.999996154785,2|0,0:0|0:0,0:0:0:0:
17,139,127897,2,0,P|14:172|30:212,1,62.9999980773926,2|0,0:0|0:0,0:0:0:0:
100,159,128212,6,0,P|159:149|241:176,2,125.999996154785,2|0|2,0:0|0:0|0:0,0:0:0:0:
100,159,129476,6,0,L|107:318,2,140,4|8|0,0:0|0:0|0:0,0:0:0:0:
95,61,130265,1,2,0:0:0:0:
186,114,130423,2,0,B|222:121|222:121|273:118,1,70,8|0,0:0|0:0,0:0:0:0:
348,86,130739,6,0,B|419:79|419:79|497:96,2,140,0|8|0,0:0|0:0|0:0,0:0:0:0:
255,119,131528,1,2,0:0:0:0:
333,188,131686,2,0,L|421:178,1,70,8|0,0:0|0:0,0:0:0:0:
260,244,131967,6,0,L|107:227,1,140,12|0,0:0|0:0,0:0:0:0:
68,144,132467,6,0,P|100:136|160:140,1,74.5,8|4,0:0|0:0,0:0:0:0:
284,76,132791,1,2,0:0:0:0:
284,76,132870,1,8,0:0:0:0:
284,76,132949,2,0,P|248:68|208:76,1,70,8|8,0:0|0:0,0:0:0:0:
141,136,133265,6,0,P|141:201|201:257,2,140,4|12|4,0:0|0:0|0:0,0:0:0:0:
212,60,134055,1,2,0:0:0:0:
292,128,134212,2,0,P|328:136|384:132,1,70,8|0,0:0|0:0,0:0:0:0:
334,41,134528,6,0,P|258:25|202:81,1,140,12|0,0:0|0:0,0:0:0:0:
141,136,135002,2,0,B|5:101,1,140,12|0,0:0|0:0,0:0:0:0:
32,16,135476,2,0,L|120:40,1,70,12|0,0:0|0:0,0:0:0:0:
211,59,135791,1,2,0:0:0:0:
141,136,135949,6,0,P|125:197|161:273,1,140,12|2,0:0|0:0,0:0:0:0:
232,328,136423,2,0,P|244:296|239:242,1,70,12|0,0:0|0:0,0:0:0:0:
336,288,136739,2,0,P|340:252|328:200,1,70,12|0,0:0|0:0,0:0:0:0:
296,128,137055,5,8,0:0:0:0:
296,128,137212,1,8,0:0:0:0:
148,264,137528,2,0,L|154:335,1,70,8|0,0:0|0:0,0:0:0:0:
104,144,138002,1,8,0:0:0:0:
104,144,138160,1,4,0:0:0:0:
180,84,138318,6,0,L|268:76,1,70,2|0,0:0|0:0,0:0:0:0:
348,68,138634,1,2,0:0:0:0:
326,162,138791,1,2,0:0:0:0:
326,162,138870,1,8,0:0:0:0:
326,162,138949,2,0,P|262:142|250:74,1,140,8|4,0:0|0:0,0:0:0:0:
256,192,139581,12,0,141791,2:0:0:0:
111,167,142107,6,0,P|188:201|276:181,1,154.000004699707,4|8,0:0|0:0,0:0:0:0:
336,116,142581,2,0,P|340:80|316:24,1,77.0000023498536,2|0,0:0|0:0,0:0:0:0:
364,200,142897,2,0,P|360:240|380:288,1,77.0000023498536,2|8,0:0|0:0,0:0:0:0:
468,232,143212,6,0,B|480:136|480:136|464:64,1,154.000004699707,4|0,0:0|0:0,0:0:0:0:
372,32,143686,1,8,0:0:0:0:
372,32,143844,2,0,L|364:120,1,77.0000023498536,2|0,0:0|0:0,0:0:0:0:
283,199,144160,2,0,L|275:119,1,77.0000023498536,2|8,0:0|0:0,0:0:0:0:
232,20,144476,1,0,0:0:0:0:
143,89,144634,6,0,P|199:134|285:117,1,154.000004699707,4|8,0:0|0:0,0:0:0:0:
372,76,145107,1,2,0:0:0:0:
372,76,145265,2,0,P|408:80|460:116,1,77.0000023498536
472,204,145581,2,0,P|472:244|440:292,1,77.0000023498536,8|0,0:0|0:0,0:0:0:0:
368,216,145897,5,2,0:0:0:0:
368,216,146055,1,0,0:0:0:0:
268,180,146212,2,0,P|260:220|280:264,1,77.0000023498536,12|0,0:0|0:0,0:0:0:0:
336,104,146528,2,0,P|344:64|328:12,2,77.0000023498536,8|2|12,0:0|0:0|0:0,0:0:0:0:
268,180,147002,1,8,0:0:0:0:
160,196,147160,5,8,0:0:0:0:
160,196,147318,1,2,0:0:0:0:
228,280,147476,2,0,P|268:289|318:274,1,77.0000023498536,0|8,0:0|0:0,0:0:0:0:
382,210,147791,2,0,P|386:170|358:121,1,77.0000023498536,0|8,0:0|0:0,0:0:0:0:
268,180,148107,1,2,0:0:0:0:
268,180,148265,6,0,P|189:179|125:120,1,154.000004699707,4|0,0:0|0:0,0:0:0:0:
157,28,148739,2,0,B|196:18|196:18|251:24,1,77.0000023498536,8|0,0:0|0:0,0:0:0:0:
338,43,149055,1,8,0:0:0:0:
338,43,149212,1,0,0:0:0:0:
401,130,149370,2,0,B|407:170|407:170|398:220,1,77.0000023498536,12|0,0:0|0:0,0:0:0:0:
335,292,149686,5,8,0:0:0:0:
243,234,149844,2,8,P|218:229|190:229,3,38.5000011749268
172,240,150160,2,8,P|132:240|92:228,1,77.0000023498536
16,152,150476,2,8,P|12:132|16:112,3,38.5000011749268
28,80,150791,6,8,P|94:47|169:88,1,154.000004699707,12|8,0:0|0:0,0:0:0:0:
204,168,151265,1,12,0:0:0:0:
98,200,151423,1,0,0:0:0:0:
98,200,151502,1,8,0:0:0:0:
98,200,151581,2,0,P|88:158|101:115,1,77.0000023498536,8|0,0:0|0:0,0:0:0:0:
188,69,151897,2,8,P|228:74|271:101,1,77.0000023498536
300,190,152212,6,0,P|260:253|184:268,1,154.000004699707,4|8,0:0|0:0,0:0:0:0:
98,200,152686,2,0,L|101:115,1,77.0000023498536,8|0,0:0|0:0,0:0:0:0:
103,14,153002,1,2,0:0:0:0:
11,71,153160,1,8,0:0:0:0:
100,123,153318,6,0,B|153:124|153:124|195:114|195:114|252:120,1,154.000004699707,4|2,0:0|0:0,0:0:0:0:
340,182,153791,2,0,B|376:189|376:189|415:182,1,77.0000023498536,8|0,0:0|0:0,0:0:0:0:
505,121,154107,1,2,0:0:0:0:
505,121,154265,1,0,0:0:0:0:
415,60,154423,2,0,B|377:54|377:54|338:59,1,77.0000023498536,8|0,0:0|0:0,0:0:0:0:
252,120,154739,6,0,B|248:169|248:169|265:224|265:224|257:287,1,154.000004699707,4|8,0:0|0:0,0:0:0:0:
243,377,155212,1,2,0:0:0:0:
169,298,155370,2,0,L|93:287,1,77.0000023498536,8|2,0:0|0:0,0:0:0:0:
259,270,155686,2,0,L|343:268,1,77.0000023498536,8|8,0:0|0:0,0:0:0:0:
418,339,156002,6,0,P|448:280|413:195,1,154.000004699707,4|8,0:0|0:0,0:0:0:0:
335,268,156476,2,0,P|305:209|340:124,1,154.000004699707,12|0,0:0|0:0,0:0:0:0:
420,201,156949,2,0,P|457:210|495:208,1,77.0000023498536,12|0,0:0|0:0,0:0:0:0:
335,268,157265,5,2,0:0:0:0:
335,268,157423,2,0,P|300:271|265:266,1,70,8|2,0:0|0:0,0:0:0:0:
107,149,157897,2,0,P|142:152|177:147,1,70,12|2,0:0|0:0,0:0:0:0:
267,111,158212,2,0,P|270:146|265:181,1,70,2|2,0:0|0:0,0:0:0:0:
192,247,158528,6,0,P|119:252|42:226,1,140,2|0,0:0|0:0,0:0:0:0:
21,141,159002,1,2,0:0:0:0:
20,141,159160,2,0,P|16:104|34:55,1,70,8|0,0:0|0:0,0:0:0:0:
111,117,159476,2,0,P|145:121|179:113,1,70,2|8,0:0|0:0,0:0:0:0:
276,56,159791,5,12,0:0:0:0:
276,56,159949,2,0,L|352:50,1,70,2|2,0:0|0:0,0:0:0:0:
481,197,160423,2,0,L|404:190,1,70,8|0,0:0|0:0,0:0:0:0:
313,178,160739,1,2,0:0:0:0:
368,97,160897,1,0,0:0:0:0:
411,190,161055,6,0,P|402:244|320:284,1,140,2|2,3:1|3:1,3:1:0:0:
235,274,161528,1,0,3:1:0:0:
156,215,161686,2,0,B|84:189|84:189|8:198,1,140,8|2,3:1|3:1,3:1:0:0:
73,279,162160,1,0,3:1:0:0:
156,215,162318,6,0,P|169:186|166:137,1,70,4|0,0:0|0:0,0:0:0:0:
134,55,162634,2,0,P|100:37|54:36,1,70,2|0,0:0|0:0,0:0:0:0:
32,142,162949,2,0,B|100:131|100:131|173:149,1,140,8|4,0:0|0:0,0:0:0:0:
260,184,163423,1,2,0:0:0:0:
351,149,163581,6,8,B|367:142|367:142|402:141,3,35
420,156,163897,2,0,B|432:200|432:200|424:307,1,140,2|12,0:0|0:0,0:0:0:0:
348,356,164370,1,0,0:0:0:0:
284,280,164528,2,0,P|276:244|288:192,1,70,2|8,0:0|0:0,0:0:0:0:
384,141,164844,6,0,P|308:141|240:100,1,140,4|2,0:0|0:0,0:0:0:0:
200,28,165318,2,0,P|208:96|164:160,1,140,8|2,0:0|0:0,0:0:0:0:
100,220,165791,2,0,P|96:260|116:300,1,70,8|0,0:0|0:0,0:0:0:0:
180,352,166107,6,0,P|252:356|316:296,1,140,4|8,0:0|0:0,0:0:0:0:
316,220,166581,1,2,0:0:0:0:
224,188,166739,2,0,P|220:224|236:268,1,70,8|2,0:0|0:0,0:0:0:0:
304,317,167055,2,0,P|338:318|384:304,1,70,12|0,0:0|0:0,0:0:0:0:
432,220,167370,6,2,P|432:200|420:168,3,38.5000011749268
412,148,167686,2,8,P|404:108|416:48,1,77.0000023498536
308,32,168002,2,2,P|304:48|308:88,3,38.5000011749268
312,104,168318,2,8,P|316:140|300:192,1,77.0000023498536
216,120,168634,6,0,P|136:104|68:144,1,154.000004699707,4|0,0:0|0:0,0:0:0:0:
20,228,169107,2,0,P|16:268|40:316,1,77.0000023498536,12|0,0:0|0:0,0:0:0:0:
124,353,169423,1,2,0:0:0:0:
220,304,169581,2,0,P|232:264|224:224,1,77.0000023498536,12|0,0:0|0:0,0:0:0:0:
120,256,169897,5,2,0:0:0:0:
120,256,170055,2,0,P|104:172|128:100,1,154.000004699707,2|0,0:0|0:0,0:0:0:0:
232,76,170528,2,0,L|332:64,1,77.0000023498536,8|0,0:0|0:0,0:0:0:0:
123,107,170844,2,0,L|32:92,1,77.0000023498536,8|0,0:0|0:0,0:0:0:0:
200,188,171160,6,0,B|276:196|276:196|368:176,1,154.000004699707,4|0,0:0|0:0,0:0:0:0:
432,108,171634,2,0,B|440:68|440:68|428:20,1,77.0000023498536,12|0,0:0|0:0,0:0:0:0:
332,72,171949,1,2,0:0:0:0:
232,32,172107,2,0,B|226:70|226:70|236:124,1,77.0000023498536,12|0,0:0|0:0,0:0:0:0:
292,200,172423,5,2,0:0:0:0:
292,200,172581,2,0,B|332:208|332:208|372:200,1,77.0000023498536,12|0,0:0|0:0,0:0:0:0:
472,172,172897,1,2,0:0:0:0:
381,105,173055,2,0,P|301:89|217:117,1,154.000004699707,12|0,0:0|2:0,0:0:0:0:
308,308,173686,6,0,P|376:256|288:172,1,231.000007049561,4|0,2:0|2:0,2:0:0:0:
204,224,174318,2,0,B|128:240|72:184|72:184|20:200|72:264,1,231.000007049561,2|0,2:0|2:0,2:0:0:0:
152,316,174949,6,0,P|192:320|244:304,1,77.0000023498536,8|0,0:0|0:0,0:0:0:0:
308,240,175265,2,0,P|308:196|276:148,1,77.0000023498536,8|0,0:0|0:0,0:0:0:0:
220,88,175581,1,2,0:0:0:0:
180,192,175739,1,0,0:0:0:0:
294,166,175897,2,8,L|374:150,1,77.0000023498536
460,116,176212,6,0,P|388:120|316:72,1,140,4|8,0:0|0:0,0:0:0:0:
240,32,176686,1,2,0:0:0:0:
240,32,176765,1,8,0:0:0:0:
240,32,176844,2,0,P|204:24|156:36,1,70,12|0,0:0|0:0,0:0:0:0:
330,88,177160,2,8,P|344:52|340:8,1,70,12|8,0:0|0:0,0:0:0:0:
200,108,177476,6,0,P|188:168|232:252,1,140,4|2,0:0|0:0,0:0:0:0:
312,300,177949,2,0,P|244:284|172:316,1,140,8|0,0:0|0:0,0:0:0:0:
88,360,178423,1,12,0:0:0:0:
52,248,178581,2,0,L|63:178,1,70,0|2,0:0|0:0,0:0:0:0:
168,170,178897,6,0,B|182:222|182:222|172:324,1,140,8|2,0:0|0:0,0:0:0:0:
272,344,179370,2,0,L|280:260,1,70,12|0,0:0|0:0,0:0:0:0:
348,188,179686,2,0,L|356:272,1,70,8|0,0:0|0:0,0:0:0:0:
436,352,180002,6,0,B|436:304|436:304|448:260|448:260|440:196,1,140,4|2,0:0|0:0,0:0:0:0:
392,120,180476,2,0,P|324:108|268:156,1,140,10|0,0:0|0:0,0:0:0:0:
228,244,180949,1,12,0:0:0:0:
308,304,181107,2,0,P|320:272|320:232,1,70,2|2,0:0|0:0,0:0:0:0:
271,149,181423,6,0,B|205:123|205:123|125:123,1,140,8|2,0:0|0:0,0:0:0:0:
36,152,181897,2,0,B|28:188|28:188|32:240,1,70,8|0,0:0|0:0,0:0:0:0:
128,204,182212,2,0,B|132:240|132:240|124:284,1,70,8|0,0:0|0:0,0:0:0:0:
44,328,182528,6,0,P|112:316|204:332,1,140,4|2,0:0|0:0,0:0:0:0:
276,356,183002,2,0,P|348:356|416:340,1,140,8|2,0:0|0:0,0:0:0:0:
496,280,183476,1,12,0:0:0:0:
496,280,183634,1,2,0:0:0:0:
432,208,183791,6,0,B|364:188|364:232|288:212,2,140,8|8|8,0:0|0:0|0:0,0:0:0:0:
264,312,184739,2,0,L|180:304,1,70,8|0,0:0|0:0,0:0:0:0:
112,248,185055,6,0,B|96:184|96:184|116:103,1,140,4|2,0:0|0:0,0:0:0:0:
188,48,185528,2,0,B|209:115|209:115|184:200,1,140,12|0,0:0|0:0,0:0:0:0:
112,248,186002,2,0,P|108:280|128:332,1,70,12|2,0:0|0:0,0:0:0:0:
212,340,186317,1,2,0:0:0:0:
240,242,186476,6,0,P|161:222|105:254,1,140,12|0,0:0|0:0,0:0:0:0:
120,144,186949,2,0,P|152:136|200:140,1,70,2|0,0:0|0:0,0:0:0:0:
292,180,187265,2,0,P|360:188|420:136,1,140,12|2,0:0|0:0,0:0:0:0:
144,132,192634,6,0,P|64:156|4:140,2,140,4|2|2,0:0|0:0|0:0,0:0:0:0:
216,64,193423,1,0,0:0:0:0:
216,64,193581,2,0,B|252:64|252:64|288:72,1,70,2|8,0:0|0:0,0:0:0:0:
356,140,193897,6,0,L|512:148,2,140,2|2|2,0:0|0:0|0:0,0:0:0:0:
264,168,194686,1,0,0:0:0:0:
264,168,194844,2,0,P|260:200|268:244,1,70,2|0,0:0|0:0,0:0:0:0:
348,292,195160,6,0,B|400:296|400:296|440:288|440:288|508:304,2,140,2|2|2,0:0|0:0|0:0,0:0:0:0:
265,237,195949,1,0,0:0:0:0:
176,276,196107,2,0,B|140:280|140:280|104:272,1,70,2|0,0:0|0:0,0:0:0:0:
36,204,196423,6,0,P|24:140|56:68,1,140,2|2,0:0|0:0,0:0:0:0:
144,32,196897,1,0,0:0:0:0:
144,32,197055,2,0,P|178:36|224:64,1,70,2|0,0:0|0:0,0:0:0:0:
244,144,197370,2,0,P|244:180|224:220,1,70,2|0,0:0|0:0,0:0:0:0:
148,264,197686,6,0,B|136:172|136:172|148:120,1,140,12|2,0:0|0:0,0:0:0:0:
209,51,198160,1,8,0:0:0:0:
300,84,198318,2,0,L|380:80,2,70,2|0|10,0:0|0:0|0:0,0:0:0:0:
218,142,198791,1,2,0:0:0:0:
276,228,198949,6,0,P|344:244|416:208,1,140,4|2,0:0|0:0,0:0:0:0:
460,136,199423,2,0,L|456:292,1,140,12|2,0:0|0:0,0:0:0:0:
446,374,199897,1,12,0:0:0:0:
300,248,200195,6,0,P|264:236|220:240,1,70,8|2,0:0|0:0,0:0:0:0:
22,159,200668,2,0,P|58:155|102:171,1,70,8|0,0:0|0:0,0:0:0:0:
165,224,200984,2,0,P|194:236|233:236,1,70,8|0,0:0|0:0,0:0:0:0:
320,192,201300,6,0,P|336:120|296:56,1,140,4|2,0:0|0:0,0:0:0:0:
224,12,201765,1,12,0:0:0:0:
137,65,201922,1,2,0:0:0:0:
137,65,202001,1,8,0:0:0:0:
137,65,202080,2,0,P|129:101|145:149,1,70,8|2,0:0|0:0,0:0:0:0:
168,296,202396,2,0,P|176:260|168:208,1,70,12|2,0:0|0:0,0:0:0:0:
135,132,202737,5,2,0:0:0:0:
416,52,207789,5,4,0:0:0:0:
76,80,209053,5,4,0:0:0:0:
456,180,210316,6,0,P|384:180|316:144,1,140,12|2,0:0|0:0,0:0:0:0:
256,80,210789,1,0,0:0:0:0:
256,80,210947,2,0,P|220:72|172:80,1,70,2|0,0:0|0:0,0:0:0:0:
104,132,211263,2,0,P|96:168|112:224,1,70,2|0,0:0|3:0,0:0:0:0:
168,272,211579,6,0,B|204:284|204:284|260:280,1,70,2|0,0:0|3:0,0:0:0:0:
321,219,211895,2,0,B|329:183|329:183|321:135,1,70,2|0,0:0|3:0,0:0:0:0:
256,80,212210,1,2,0:0:0:0:
256,80,212368,1,0,0:0:0:0:
160,108,212526,2,0,B|152:72|152:72|164:16,1,70,2|0,3:1|0:0,0:0:0:0:
192,200,212825,6,0,B|196:260|196:260|176:336,2,115.50000352478,12|2|12,0:0|0:0|0:0,0:0:0:0:
88,132,213456,2,0,P|143:154|247:130,1,154.000004699707,0|2,0:0|0:0,0:0:0:0:
308,64,213930,2,8,L|316:26,2,38.5000011749268,8|2|4,0:0|0:0|0:0,0:0:0:0:
104,256,215351,5,2,2:2:0:0:
256,192,215430,12,0,217562,2:1:0:0:
440,52,217897,6,0,P|363:52|288:68,1,154.000004699707,4|8,0:0|0:0,0:0:0:0:
188,104,218370,2,0,P|148:104|88:92,2,77.0000023498536,0|2|0,0:0|0:0|0:0,0:0:0:0:
287,68,218844,1,8,0:0:0:0:
312,167,219002,6,0,P|228:155|184:91,1,154.000004699707,4|2,0:0|0:0,0:0:0:0:
108,22,219476,2,0,P|116:60|104:112,1,77.0000023498536,8|0,0:0|0:0,0:0:0:0:
16,148,219791,2,0,P|8:188|24:240,1,77.0000023498536,2|0,0:0|0:0,0:0:0:0:
80,308,220107,1,8,0:0:0:0:
200,280,220265,1,2,0:0:0:0:
200,280,220344,1,0,0:0:0:0:
200,280,220423,6,0,B|360:296,1,154.000004699707,4|8,0:0|0:0,0:0:0:0:
460,284,220897,1,0,0:0:0:0:
372,220,221055,2,0,B|332:208|332:208|292:208,1,77.0000023498536,2|0,0:0|0:0,0:0:0:0:
432,160,221370,2,0,B|472:164|472:164|512:156,1,77.0000023498536,8|0,0:0|0:0,0:0:0:0:
492,49,221686,5,2,0:0:0:0:
389,82,221844,1,2,0:0:0:0:
284,60,222002,2,0,L|192:40,2,77.0000023498536,8|0|2,0:0|0:0|0:0,0:0:0:0:
389,82,222476,1,0,0:0:0:0:
304,152,222634,2,0,P|296:188|312:240,1,77.0000023498536,12|0,0:0|0:0,0:0:0:0:
408,192,222949,5,8,0:0:0:0:
408,192,223107,1,2,0:0:0:0:
304,152,223265,2,0,L|212:160,1,77.0000023498536,0|8,0:0|0:0,0:0:0:0:
132,120,223581,2,0,L|40:108,1,77.0000023498536,0|8,0:0|0:0,0:0:0:0:
48,210,223897,1,2,0:0:0:0:
48,210,224055,6,0,P|120:226|208:197,1,154.000004699707,4|2,0:0|0:0,0:0:0:0:
264,120,224528,2,0,P|268:84|256:28,2,77.0000023498536,8|0|2,0:0|0:0|0:0,0:0:0:0:
195,204,225002,1,0,0:0:0:0:
268,284,225160,2,0,P|304:296|360:296,1,77.0000023498536,12|0,0:0|0:0,0:0:0:0:
448,268,225476,5,2,0:0:0:0:
388,180,225634,2,8,P|384:156|396:124,3,38.5000011749268
408,112,225949,2,0,P|408:76|400:20,1,77.0000023498536,8|8,0:0|0:0,0:0:0:0:
312,84,226265,2,8,P|292:84|272:80,3,38.5000011749268
244,64,226581,6,0,P|176:32|84:46,1,154.000004699707,4|2,0:0|0:0,0:0:0:0:
72,140,227055,2,0,P|148:180|228:176,1,154.000004699707,12|2,0:0|0:0,0:0:0:0:
320,144,227528,1,2,0:0:0:0:
244,64,227686,1,8,0:0:0:0:
214,179,227844,1,8,0:0:0:0:
316,228,228002,6,0,P|392:192|392:112,1,154.000004699707,4|8,0:0|0:0,0:0:0:0:
316,44,228476,2,0,P|276:32|232:36,1,77.0000023498536,2|8,0:0|0:0,0:0:0:0:
148,96,228791,1,2,0:0:0:0:
148,96,228949,2,0,P|108:96|56:76,1,77.0000023498536,8|2,0:0|0:0,0:0:0:0:
241,33,229265,6,0,P|252:108|241:187,1,154.000004699707,4|8,0:0|0:0,0:0:0:0:
196,288,229739,1,2,0:0:0:0:
166,186,229897,2,0,P|206:179|270:199,1,77.0000023498536,8|0,0:0|0:0,0:0:0:0:
316,264,230212,2,0,P|352:276|404:272,1,77.0000023498536,8|2,0:0|0:0,0:0:0:0:
381,155,230528,6,0,P|301:147|233:195,1,154.000004699707,4|8,0:0|0:0,0:0:0:0:
176,280,231002,1,2,0:0:0:0:
84,224,231160,2,0,P|76:188|84:144,1,77.0000023498536,12|0,0:0|0:0,0:0:0:0:
120,48,231476,1,8,0:0:0:0:
192,136,231634,1,2,0:0:0:0:
192,136,231712,1,2,0:0:0:0:
192,136,231791,6,0,P|264:160|336:124,1,154.000004699707,4|2,0:0|0:0,0:0:0:0:
388,36,232265,2,0,L|384:204,1,154.000004699707,8|2,0:0|0:0,0:0:0:0:
332,284,232739,2,0,P|292:300|240:296,1,77.0000023498536,8|0,0:0|0:0,0:0:0:0:
104,252,233055,5,2,0:0:0:0:
188,328,233212,2,0,P|224:328|268:312,1,70,8|0,0:0|0:0,0:0:0:0:
100,183,233686,2,0,P|96:219|108:263,1,70,12|0,0:0|0:0,0:0:0:0:
208,212,234002,2,0,P|212:180|200:132,1,70,2|8,0:0|0:0,0:0:0:0:
104,92,234318,6,0,P|172:104|244:80,1,140,4|2,0:0|0:0,0:0:0:0:
320,28,234791,1,0,0:0:0:0:
408,76,234949,2,0,L|388:228,1,140,12|12,0:0|0:0,0:0:0:0:
372,312,235423,1,8,0:0:0:0:
296,248,235581,6,0,P|259:247|208:252,1,70,4|0,0:0|0:0,0:0:0:0:
389,214,235897,2,0,P|424:217|468:228,1,70,2|0,0:0|0:0,0:0:0:0:
317,146,236212,2,0,P|244:143|164:156,1,140,8|8,0:0|0:0,0:0:0:0:
87,192,236686,1,2,0:0:0:0:
155,261,236844,6,0,P|189:265|233:256,1,70,12|0,0:0|0:0,0:0:0:0:
300,321,237160,2,0,P|337:313|373:292,1,70,8|2,0:0|0:0,0:0:0:0:
463,303,237476,2,0,P|474:269|472:222,1,70,12|0,0:0|0:0,0:0:0:0:
491,138,237791,2,0,P|465:112|426:93,1,70,12|0,0:0|0:0,0:0:0:0:
365,26,238107,5,8,0:0:0:0:
365,26,238265,2,0,P|331:27|291:36,1,70,2|0,0:0|0:0,0:0:0:0:
110,101,238739,2,0,P|180:101|264:135,1,140,12|0,0:0|0:0,0:0:0:0:
328,176,239212,1,0,0:0:0:0:
252,252,239370,5,2,0:0:0:0:
252,252,239528,2,0,B|200:252|200:252|160:236|160:236|96:236,1,140,8|0,0:0|0:0,0:0:0:0:
16,244,240002,1,8,0:0:0:0:
68,324,240160,1,2,0:0:0:0:
115,236,240318,2,0,P|120:200|112:160,1,70,8|0,0:0|0:0,0:0:0:0:
32,112,240634,6,0,P|104:120|176:80,1,140,2|2,0:0|0:0,0:0:0:0:
232,20,241107,1,8,0:0:0:0:
312,80,241265,2,0,B|348:88|348:88|392:88,1,70,0|2,0:0|0:0,0:0:0:0:
276,156,241581,2,0,B|240:164|240:164|192:160,1,70,8|2,0:0|0:0,0:0:0:0:
292,244,241897,6,0,B|364:264|364:264|444:268,1,140,8|2,0:0|0:0,0:0:0:0:
488,188,242370,1,8,0:0:0:0:
488,188,242528,2,0,P|492:152|480:108,1,70,2|0,0:0|0:0,0:0:0:0:
392,152,242844,2,0,P|356:152|320:144,1,70,12|0,0:0|0:0,0:0:0:0:
232,88,243160,6,2,L|176:80,3,38.5000011749268
160,100,243475,2,8,L|56:104,1,77.0000023498536,8|2,0:0|0:0,0:0:0:0:
8,192,243791,2,2,L|60:188,3,38.5000011749268,2|2|10|2,0:0|0:0|0:0|0:0,0:0:0:0:
76,212,244107,2,0,L|160:220,1,77.0000023498536,2|8,0:0|0:0,0:0:0:0:
240,284,244423,6,0,B|300:276|300:276|332:304|404:308,1,154.000004699707,4|2,0:0|0:0,0:0:0:0:
440,208,244897,2,0,P|360:208|312:148,1,154.000004699707,12|2,0:0|0:0,0:0:0:0:
316,48,245370,2,0,P|348:28|408:24,1,77.0000023498536,12|0,0:0|0:0,0:0:0:0:
488,56,245686,1,2,0:0:0:0:
488,56,245844,6,0,P|504:84|504:136,1,77.0000023498536,12|0,0:0|0:0,0:0:0:0:
440,208,246160,1,2,0:0:0:0:
314,155,246318,2,0,B|274:143|274:143|226:143,1,77.0000023498536,12|0,0:0|0:0,0:0:0:0:
150,194,246634,2,0,B|110:194|110:194|70:182,1,77.0000023498536,8|0,0:0|0:0,0:0:0:0:
133,90,246949,6,0,P|213:86|241:166,1,154.000004699707,12|0,0:0|0:0,0:0:0:0:
261,247,247423,2,0,P|181:251|153:171,1,154.000004699707,12|2,0:0|0:0,0:0:0:0:
244,143,247897,2,0,L|336:139,1,77.0000023498536,12|0,0:0|0:0,0:0:0:0:
432,132,248212,5,2,0:0:0:0:
338,64,248370,2,0,L|314:164,1,77.0000023498536,12|0,0:0|0:0,0:0:0:0:
292,244,248686,1,2,0:0:0:0:
416,216,248844,1,12,0:0:0:0:
416,216,249476,6,0,B|360:200|360:200|248:224|292:176|184:204,1,231.000007049561,4|0,2:0|2:0,2:0:0:0:
136,108,250107,2,0,B|192:124|192:124|304:100|260:152|368:120,1,231.000007049561,2|2,2:0|2:1,2:0:0:0:
452,64,250739,6,0,P|464:100|456:164,1,77.0000023498536,8|2,0:0|0:0,0:0:0:0:
408,236,251055,2,0,P|368:248|316:244,1,77.0000023498536,8|2,0:0|0:0,0:0:0:0:
236,200,251370,1,2,0:0:0:0:
264,336,251528,1,12,0:0:0:0:
328,52,252002,6,0,L|340:136,1,70,2|0,0:0|0:0,0:0:0:0:
164,28,252476,2,0,L|144:172,1,140,2|0,0:0|0:0,0:0:0:0:
80,240,252949,2,0,P|40:240|0:224,1,70,2|0,0:0|0:0,0:0:0:0:
144,166,253265,6,0,P|180:168|236:152,1,70,2|0,0:0|0:0,0:0:0:0:
404,116,253739,2,0,P|332:116|260:84,1,140,2|0,0:0|0:0,0:0:0:0:
192,32,254212,2,0,P|160:28|108:36,1,70,2|0,0:0|0:0,0:0:0:0:
24,68,254528,5,4,3:0:0:0:
