osu file format v14

[General]
AudioFilename: redo.mp3
AudioLeadIn: 0
PreviewTime: 142107
Countdown: 0
SampleSet: Soft
StackLeniency: 0.6
Mode: 0
LetterboxInBreaks: 0
WidescreenStoryboard: 0

[Editor]
Bookmarks: 247980
DistanceSpacing: 0.5
BeatDivisor: 4
GridSize: 4
TimelineZoom: 2.7

[Metadata]
Title:Redo
TitleUnicode:Redo
Artist:Suzuki Konomi
ArtistUnicode:鈴木このみ
Creator:Kalibe
Version:FCL's Insane
Source:Re:ゼロから始める異世界生活
Tags:op Re:Zero kara Hajimeru Isekai Seikatsu Re: Life in a different world from zero opening Mkguh Doormat FCL Linada full version
BeatmapID:991043
BeatmapSetID:456524

[Difficulty]
HPDrainRate:6
CircleSize:4
OverallDifficulty:7.5
ApproachRate:9.1
SliderMultiplier:1.4
SliderTickRate:1

[Events]
//Background and Video events
0,0,"BGGBBBG.jpg",0,0
//Break Periods
2,32412,36207
2,42518,46786
2,114518,117839
2,124623,128892
2,187780,192050
//Storyboard Layer 0 (Background)
//Storyboard Layer 1 (Fail)
//Storyboard Layer 2 (Pass)
//Storyboard Layer 3 (Foreground)
//Storyboard Sound Samples

[TimingPoints]
634,315.789473684211,4,2,2,25,1,0
634,-133.333333333333,4,2,2,25,0,0
1186,-133.333333333333,4,2,2,5,0,0
1265,-133.333333333333,4,2,2,50,0,0
1502,-133.333333333333,4,2,2,5,0,0
1581,-133.333333333333,4,2,2,50,0,0
1818,-133.333333333333,4,2,2,5,0,0
1897,-100,4,2,2,50,0,0
6949,-100,4,1,2,55,0,0
12002,-100,4,2,2,55,0,0
32212,-133.333333333333,4,2,2,40,0,0
37265,-100,4,1,2,55,0,0
42318,-133.333333333333,4,2,2,40,0,0
47370,-100,4,1,2,55,0,0
51160,-90.9090909090909,4,1,2,55,0,0
52423,-100,4,1,2,65,0,0
54949,-83.3333333333333,4,1,2,80,0,1
70107,-133.333333333333,4,1,2,50,0,0
70739,-125,4,1,2,50,0,0
72002,-117.647058823529,4,1,2,50,0,0
73265,-111.111111111111,4,1,2,50,0,0
73897,-100,4,1,2,50,0,0
75160,-117.647058823529,4,1,2,50,0,0
75791,-111.111111111111,4,1,2,50,0,0
77055,-105.263157894737,4,1,2,50,0,0
78318,-100,4,1,2,50,0,0
80212,-100,4,1,2,70,0,1
84002,-90.9090909090909,4,1,2,70,0,1
85897,-105.263157894737,4,1,2,70,0,1
86528,-133.333333333333,4,1,2,70,0,1
87791,-100,4,1,2,70,0,1
89055,-100,4,1,2,50,0,0
94107,-100,4,2,2,50,0,0
114318,-100,4,2,2,40,0,0
119370,-100,4,1,2,55,0,0
120634,-83.3333333333333,4,1,2,55,0,0
120949,-100,4,1,2,55,0,0
121897,-83.3333333333333,4,1,2,55,0,0
122212,-100,4,1,2,55,0,0
124423,-133.333333333333,4,2,2,40,0,0
129476,-100,4,1,2,55,0,0
131967,315.789473684211,4,1,2,55,1,0
132467,315.789473684211,4,1,2,55,1,0
132634,315.789473684211,4,1,2,55,1,0
133265,315.789473684211,4,1,2,55,1,0
139580,-200,4,1,2,55,0,0
142028,-200,4,1,2,5,0,0
142107,-83.3333333333333,4,1,2,80,0,1
157265,-133.333333333333,4,1,2,50,0,0
157897,-125,4,1,2,50,0,0
159002,-117.647058823529,4,1,2,50,0,0
160423,-111.111111111111,4,1,2,50,0,0
161055,-99.9999999999999,4,1,2,50,0,0
162318,-117.647058823529,4,1,2,50,0,0
162949,-111.111111111111,4,1,2,50,0,0
164212,-105.263157894737,4,1,2,50,0,0
165476,-100,4,1,2,50,0,0
167370,-90.9090909090909,4,1,2,70,0,1
173054,-105.263157894737,4,1,2,70,0,1
173686,-133.333333333333,4,1,2,70,0,1
174949,-90.9090909090909,4,1,2,70,0,1
175739,-90.9090909090909,4,1,2,70,0,1
176212,-83.3333333333333,4,1,2,60,0,0
177476,-90.9090909090909,4,1,2,75,0,0
187265,-66.6666666666667,4,1,2,75,0,0
187581,-100,4,2,2,40,0,0
192634,-100,4,1,2,60,0,0
200195,315.789473684211,4,1,2,60,1,0
201765,315.789473684211,4,1,2,60,1,0
202737,315.789473684211,4,2,2,30,1,0
202737,-111.111111111111,4,2,2,30,0,0
203052,-142.857142857143,4,2,2,30,0,0
203368,-111.111111111111,4,2,2,30,0,0
203684,-142.857142857143,4,2,2,30,0,0
204000,-111.111111111111,4,2,2,30,0,0
204315,-142.857142857143,4,2,2,30,0,0
204631,-111.111111111111,4,2,2,30,0,0
204947,-142.857142857143,4,2,2,30,0,0
205263,-111.111111111111,4,2,2,30,0,0
205579,-142.857142857143,4,2,2,30,0,0
205894,-111.111111111111,4,2,2,30,0,0
206210,-142.857142857143,4,2,2,30,0,0
206526,-111.111111111111,4,2,2,30,0,0
206842,-142.857142857143,4,2,2,30,0,0
207158,-111.111111111111,4,2,2,30,0,0
207473,-142.857142857143,4,2,2,30,0,0
207789,-200,4,1,2,60,0,1
208894,-200,4,1,2,60,0,0
209052,-142.857142857143,4,1,2,60,0,1
210158,-142.857142857143,4,1,2,60,0,0
210315,-90.9090909090909,4,1,2,60,0,0
212825,315.789473684211,4,1,2,60,1,1
212825,-83.3333333333333,4,1,2,60,0,1
214088,-83.3333333333333,4,1,2,60,0,0
215351,-200,4,1,2,25,0,0
217798,-200,4,1,2,5,0,0
217897,315.789473684211,4,1,2,80,1,1
217897,-83.3333333333333,4,1,2,80,0,1
233054,-133.333333333333,4,1,2,50,0,0
233685,-125,4,1,2,50,0,0
234948,-117.647058823529,4,1,2,50,0,0
236211,-111.111111111111,4,1,2,50,0,0
238106,-125,4,1,2,50,0,0
238738,-117.647058823529,4,1,2,50,0,0
240001,-111.111111111111,4,1,2,50,0,0
243160,-100,4,1,2,70,0,1
248843,-105.263157894737,4,1,2,70,0,1
249475,-133.333333333333,4,1,2,80,0,1
250738,-100,4,1,2,80,0,1
252002,-100,4,2,2,50,0,0
254527,-66.6666666666667,4,2,2,25,0,0
254843,-100,4,2,2,5,0,0

[Colours]
Combo1 : 143,143,143
Combo2 : 71,138,141
Combo3 : 102,102,255
Combo4 : 0,164,164

[HitObjects]
50,110,634,6,0,B|108:117|141:57|141:57|121:90|133:142,1,183.750007009506
203,102,1265,2,0,P|206:137|179:184,1,78.7500030040742,2|0,0:0|0:0,0:0:0:0:
111,204,1581,2,0,P|108:239|135:286,1,78.7500030040742,2|0,0:0|0:0,0:0:0:0:
146,325,1897,5,2,0:0:0:0:
146,325,2055,1,2,0:0:0:0:
203,102,2370,1,2,0:0:0:0:
266,221,2528,2,0,L|269:290,1,70
397,338,2844,2,0,L|400:269,1,70,2|0,0:0|0:0,0:0:0:0:
500,367,3160,5,2,0:0:0:0:
500,367,3318,1,2,0:0:0:0:
243,271,3634,1,2,0:0:0:0:
354,217,3791,2,0,P|361:161|345:119,1,70
247,202,4107,2,0,P|240:258|256:300,1,70,2|0,0:0|0:0,0:0:0:0:
188,138,4423,5,2,0:0:0:0:
188,138,4581,1,2,0:0:0:0:
87,318,4897,1,2,0:0:0:0:
42,212,5055,2,0,L|37:116,1,70
120,48,5370,2,0,P|162:32|207:30,1,70,2|0,0:0|0:0,0:0:0:0:
307,77,5686,5,2,0:0:0:0:
307,77,5844,1,2,0:0:0:0:
164,224,6160,1,2,0:0:0:0:
283,284,6318,2,0,L|382:280,1,70
479,187,6634,2,0,L|403:186,1,70,2|0,0:0|0:0,0:0:0:0:
352,281,6949,5,2,0:0:0:0:
347,296,7265,1,0,0:0:0:0:
237,357,7423,2,0,P|174:365|99:336,1,140,2|0,0:0|0:0,0:0:0:0:
30,245,7897,2,0,L|26:146,1,70,2|0,0:0|0:0,0:0:0:0:
115,55,8212,5,2,0:0:0:0:
126,46,8528,1,0,0:0:0:0:
194,138,8686,2,0,L|231:144,2,23.3333333333333,0|0|0,2:0|2:0|2:0,2:0:0:0:
182,148,8844,2,0,L|188:227,1,70,2|0,0:0|0:0,0:0:0:0:
327,283,9160,2,0,L|321:362,1,70
395,228,9476,5,2,0:0:0:0:
403,216,9791,1,0,0:0:0:0:
259,181,9949,2,0,L|252:14,1,140,2|0,0:0|0:0,0:0:0:0:
248,188,10423,2,0,P|189:199|152:193,1,70,2|0,0:0|0:0,0:0:0:0:
41,108,10739,5,2,0:0:0:0:
39,121,11055,1,0,0:0:0:0:
10,268,11212,2,0,P|10:288|14:307,2,23.3333333333333
21,239,11370,2,0,P|61:231|103:237,1,70,2|0,0:0|0:0,0:0:0:0:
212,311,11686,2,0,L|281:308,1,70
434,222,12002,6,0,P|458:164|392:96,1,140,2|0,0:0|0:0,0:0:0:0:
297,50,12476,1,0,0:0:0:0:
238,178,12634,2,0,L|237:255,1,70,2|0,0:0|0:0,0:0:0:0:
113,124,12949,2,0,L|114:201,1,70
60,52,13265,5,2,0:0:0:0:
60,52,13423,1,0,0:0:0:0:
195,112,13581,1,0,0:0:0:0:
48,155,13739,1,0,0:0:0:0:
48,155,13897,2,0,B|40:188|40:188|46:251,1,70,2|0,0:0|0:0,0:0:0:0:
204,315,14212,2,0,B|212:284|212:284|203:224,1,70,2|0,0:0|0:0,0:0:0:0:
195,112,14528,6,0,L|359:102,1,140,2|0,0:0|0:0,0:0:0:0:
462,32,15002,1,0,0:0:0:0:
390,157,15160,2,0,P|375:212|377:256,1,70,2|0,0:0|0:0,0:0:0:0:
271,356,15476,2,0,P|266:321|255:288,1,70,2|0,0:0|0:0,0:0:0:0:
128,184,15791,5,2,0:0:0:0:
128,184,15949,1,0,0:0:0:0:
231,81,16107,1,0,0:0:0:0:
96,111,16265,1,2,0:0:0:0:
237,177,16423,1,2,0:0:0:0:
237,177,16739,2,0,P|292:173|332:175,1,70,2|0,0:0|0:0,0:0:0:0:
441,118,17055,5,2,0:0:0:0:
441,118,17212,1,0,0:0:0:0:
324,80,17370,2,0,P|312:41|310:2,1,70,2|0,0:0|0:0,0:0:0:0:
306,173,17686,2,0,P|278:202|245:224,1,70,2|0,0:0|0:0,0:0:0:0:
400,156,18002,2,0,P|439:165|474:182,1,70,2|0,0:0|0:0,0:0:0:0:
342,249,18318,5,2,0:0:0:0:
342,249,18476,1,0,0:0:0:0:
225,194,18634,2,0,L|219:94,1,70,2|0,0:0|0:0,0:0:0:0:
311,35,18949,1,2,0:0:0:0:
48,102,19265,2,0,L|39:198,1,70,2|0,0:0|0:0,0:0:0:0:
95,302,19581,6,0,B|143:326|143:326|247:293,1,140,2|0,0:0|0:0,0:0:0:0:
225,299,20055,1,0,0:0:0:0:
178,190,20212,2,0,L|172:92,1,70,2|0,0:0|0:0,0:0:0:0:
306,31,20528,2,0,P|357:41|397:31,1,70
471,119,20844,6,0,P|421:155|317:142,1,140,2|0,0:0|0:0,0:0:0:0:
219,40,21318,1,0,0:0:0:0:
224,154,21476,2,0,L|230:316,1,140,2|0,0:0|0:0,0:0:0:0:
229,293,21949,1,0,0:0:0:0:
344,155,22107,5,2,0:0:0:0:
344,155,22265,1,0,0:0:0:0:
224,154,22423,2,0,P|183:149|131:149,1,70
39,294,22739,2,0,L|140:286,1,70,2|0,0:0|0:0,0:0:0:0:
39,140,23055,2,0,L|44:70,1,70,2|0,0:0|0:0,0:0:0:0:
207,18,23370,5,2,0:0:0:0:
207,18,23528,1,0,0:0:0:0:
125,119,23686,1,0,0:0:0:0:
250,29,23844,1,2,0:0:0:0:
309,117,24002,2,0,P|353:121|396:113,1,70
505,236,24318,2,0,L|411:232,1,70,2|0,0:0|0:0,0:0:0:0:
285,327,24634,6,0,B|234:331|234:331|192:319|192:319|130:324,1,140,2|0,0:0|0:0,0:0:0:0:
42,330,25107,1,0,0:0:0:0:
175,236,25265,2,0,P|169:189|181:139,1,70,2|0,0:0|0:0,0:0:0:0:
303,218,25581,2,0,P|325:161|347:140,1,70,2|0,0:0|0:0,0:0:0:0:
411,40,25897,6,0,P|347:64|267:20,1,140,2|0,0:0|0:0,0:0:0:0:
125,177,26370,1,2,0:0:0:0:
130,29,26528,2,0,L|128:117,1,70
60,244,26844,2,0,P|75:278|120:319,1,70,2|0,0:0|0:0,0:0:0:0:
274,325,27160,5,2,0:0:0:0:
274,325,27318,1,0,0:0:0:0:
175,211,27476,2,0,L|172:122,1,70,2|0,0:0|0:0,0:0:0:0:
308,36,27791,2,0,P|317:69|305:129,1,70,2|0,0:0|0:0,0:0:0:0:
175,211,28107,2,0,B|169:248|169:248|177:300,1,70,2|0,0:0|0:0,0:0:0:0:
327,344,28423,5,2,0:0:0:0:
327,344,28581,1,2,0:0:0:0:
415,245,28739,1,0,0:0:0:0:
245,212,28897,2,0,L|208:205,2,23.3333333333333,2|0|0,0:0|0:0|0:0,0:0:0:0:
283,192,29055,2,0,P|288:138|285:115,1,70,2|0,0:0|0:0,0:0:0:0:
501,157,29370,2,0,P|496:103|499:80,1,70,2|0,0:0|0:0,0:0:0:0:
335,42,29686,6,0,B|287:34|287:34|178:50,1,140,2|0,0:0|0:0,0:0:0:0:
196,47,30160,1,0,0:0:0:0:
306,162,30318,2,0,P|327:218|271:302,1,140,2|0,0:0|0:0,0:0:0:0:
295,287,30791,1,0,0:0:0:0:
128,363,30949,6,0,L|122:267,1,70,2|0,0:0|0:0,0:0:0:0:
245,119,31265,2,0,P|286:92|329:91,1,70,2|0,0:0|0:0,0:0:0:0:
230,265,31581,2,0,P|278:274|309:304,1,70,2|0,0:0|0:0,0:0:0:0:
474,256,31897,1,2,0:0:0:0:
474,256,32055,1,0,0:0:0:0:
270,193,32212,5,2,0:0:0:0:
180,132,36791,5,0,1:0:0:0:
356,80,36949,1,8,1:0:0:0:
186,137,37265,5,2,0:0:0:0:
186,137,37423,1,0,0:0:0:0:
324,229,37581,1,8,0:0:0:0:
198,242,37739,1,0,0:0:0:0:
382,169,37897,2,0,L|390:69,1,70,2|0,0:0|0:0,0:0:0:0:
255,34,38212,2,0,B|243:73|243:73|251:123,1,70,8|0,0:0|0:0,0:0:0:0:
280,227,38528,5,2,0:0:0:0:
280,227,38686,1,0,0:0:0:0:
157,163,38844,1,8,0:0:0:0:
325,131,39002,1,0,0:0:0:0:
193,238,39160,2,0,P|158:241|123:240,1,70,2|0,0:0|0:0,0:0:0:0:
229,82,39476,2,0,P|175:59|142:38,1,70,8|0,0:0|0:0,0:0:0:0:
369,27,39791,5,2,0:0:0:0:
369,27,39949,1,0,0:0:0:0:
308,137,40107,1,8,0:0:0:0:
470,188,40265,1,0,0:0:0:0:
340,337,40423,2,0,L|344:267,1,70,2|0,0:0|0:0,0:0:0:0:
448,177,40739,2,0,L|444:107,1,70,8|0,0:0|0:0,0:0:0:0:
466,347,41055,5,6,0:0:0:0:
466,347,41212,1,0,0:0:0:0:
361,231,41370,2,0,L|279:227,1,70,8|0,0:0|0:0,0:0:0:0:
162,156,41686,1,12,0:0:0:0:
162,156,41844,1,2,0:0:0:0:
317,91,42002,1,8,0:0:0:0:
275,209,42160,1,8,0:0:0:0:
275,209,42239,1,0,0:0:0:0:
275,209,42318,5,2,0:0:0:0:
117,143,47370,5,4,0:0:0:0:
117,143,47528,1,2,0:0:0:0:
225,78,47686,1,8,0:0:0:0:
254,257,47844,1,0,0:0:0:0:
330,112,48002,2,0,L|337:18,1,70,2|0,0:0|0:0,0:0:0:0:
348,230,48318,2,0,L|353:299,1,70,8|0,0:0|0:0,0:0:0:0:
503,357,48634,5,2,0:0:0:0:
503,357,48791,1,0,0:0:0:0:
455,214,48949,1,8,0:0:0:0:
338,337,49107,1,0,0:0:0:0:
455,214,49265,2,0,P|466:166|459:123,1,70,2|0,0:0|0:0,0:0:0:0:
309,38,49581,2,0,P|308:72|318:106,1,70,8|0,0:0|0:0,0:0:0:0:
330,268,49897,6,0,P|372:275|423:273,1,70,2|0,0:0|0:0,0:0:0:0:
161,189,50212,2,0,P|118:184|69:169,1,70,8|0,0:0|0:0,0:0:0:0:
331,142,50528,1,2,0:0:0:0:
186,80,50686,1,8,0:0:0:0:
185,55,50764,1,8,0:0:0:0:
184,31,50843,1,8,0:0:0:0:
94,129,51002,1,8,0:0:0:0:
93,153,51081,1,8,0:0:0:0:
92,178,51160,6,0,L|98:277,1,77.0000023498536,4|0,0:0|0:0,0:0:0:0:
351,341,51476,2,0,L|355:264,1,77.0000023498536,8|0,0:0|0:0,0:0:0:0:
421,100,51791,1,2,0:0:0:0:
288,140,51949,1,0,0:0:0:0:
432,309,52107,1,8,0:0:0:0:
346,191,52265,1,2,0:0:0:0:
302,300,52423,5,8,0:0:0:0:
408,80,52581,1,8,0:0:0:0:
299,272,52897,5,8,0:0:0:0:
204,27,53055,1,8,0:0:0:0:
296,242,53370,5,8,0:0:0:0:
24,141,53528,1,8,0:0:0:0:
136,84,53686,1,2,0:0:0:0:
159,77,53764,1,8,0:0:0:0:
183,76,53843,1,8,0:0:0:0:
295,172,54002,2,0,L|296:262,1,70,2|2,0:0|0:0,0:0:0:0:
269,271,54239,1,8,0:0:0:0:
271,295,54318,5,8,0:0:0:0:
360,122,54476,1,2,0:0:0:0:
193,188,54634,1,12,0:0:0:0:
310,37,54791,1,2,0:0:0:0:
310,37,54870,1,2,0:0:0:0:
310,37,54949,6,0,P|401:35|460:100,1,167.999994873047,4|8,0:0|0:0,0:0:0:0:
367,289,55423,2,0,L|359:111,1,167.999994873047,2|0,0:0|0:0,0:0:0:0:
450,262,55897,1,8,0:0:0:0:
254,222,56055,6,0,B|199:209|170:223|167:226|163:228|133:242|65:213,1,167.999994873047,4|0,0:0|0:0,0:0:0:0:
200,100,56528,1,8,0:0:0:0:
277,233,56686,2,0,P|283:282|273:332,1,83.9999974365235,2|0,0:0|0:0,0:0:0:0:
327,155,57002,1,0,0:0:0:0:
181,138,57160,1,8,0:0:0:0:
181,138,57318,1,2,0:0:0:0:
361,69,57476,6,0,L|479:66,1,83.9999974365235
276,35,57791,1,8,0:0:0:0:
327,155,57949,1,0,0:0:0:0:
134,187,58107,1,2,0:0:0:0:
134,187,58265,1,0,0:0:0:0:
359,231,58423,1,8,0:0:0:0:
261,311,58581,1,0,0:0:0:0:
235,129,58739,5,2,0:0:0:0:
235,129,58897,2,0,B|252:74|239:14|239:14|195:67,1,167.999994873047
103,222,59370,2,0,P|99:280|110:322,1,83.9999974365235,2|0,0:0|0:0,0:0:0:0:
245,346,59686,1,2,0:0:0:0:
286,342,59764,1,2,0:0:0:0:
328,339,59843,1,8,0:0:0:0:
370,336,59922,1,8,0:0:0:0:
412,333,60001,5,8,0:0:0:0:
256,269,60160,1,2,0:0:0:0:
488,162,60476,5,8,0:0:0:0:
138,42,60791,5,8,0:0:0:0:
323,171,61107,6,0,B|254:167|254:167|216:187|216:187|130:182,1,167.999994873047,4|0,0:0|0:0,0:0:0:0:
47,17,61581,2,0,P|34:73|41:114,1,83.9999974365235,8|0,0:0|0:0,0:0:0:0:
95,278,61897,1,2,0:0:0:0:
153,146,62055,1,8,0:0:0:0:
159,135,62134,1,8,0:0:0:0:
169,128,62212,2,0,P|213:120|267:120,1,83.9999974365235,8|2,0:0|0:0,0:0:0:0:
380,102,62528,5,4,0:0:0:0:
454,187,62686,1,8,0:0:0:0:
480,154,62764,1,8,0:0:0:0:
492,114,62843,1,8,0:0:0:0:
488,72,62922,1,8,0:0:0:0:
470,35,63001,1,8,0:0:0:0:
380,102,63160,5,8,0:0:0:0:
381,143,63238,1,8,0:0:0:0:
382,185,63317,1,8,0:0:0:0:
383,227,63396,1,8,0:0:0:0:
384,269,63475,1,2,0:0:0:0:
278,359,63634,6,0,B|274:297|274:297|301:249|301:249|298:174,1,167.999994873047,4|2,0:0|0:0,0:0:0:0:
290,29,64107,1,8,0:0:0:0:
356,148,64265,1,2,0:0:0:0:
356,148,64344,1,2,0:0:0:0:
356,148,64423,6,0,P|401:153|447:138,1,83.9999974365235,4|0,0:0|0:0,0:0:0:0:
432,198,64660,1,2,0:0:0:0:
452,233,64738,1,8,0:0:0:0:
450,275,64817,1,8,0:0:0:0:
426,308,64896,1,8,0:0:0:0:
388,324,64975,1,8,0:0:0:0:
347,316,65055,6,0,B|238:295|238:295|169:314,1,167.999994873047,4|8,0:0|0:0,0:0:0:0:
65,356,65528,1,0,0:0:0:0:
98,182,65686,2,0,L|94:89,1,83.9999974365235,2|0,0:0|0:0,0:0:0:0:
101,87,65923,1,2,0:0:0:0:
107,77,66002,1,8,0:0:0:0:
233,208,66160,1,2,0:0:0:0:
233,208,66239,1,0,0:0:0:0:
233,208,66318,6,0,L|335:204,1,83.9999974365235,8|2,0:0|0:0,0:0:0:0:
368,53,66634,2,0,L|266:49,1,83.9999974365235,8|2,0:0|0:0,0:0:0:0:
231,236,66949,2,0,L|333:229,1,83.9999974365235,8|2,0:0|0:0,0:0:0:0:
448,83,67265,1,8,0:0:0:0:
429,207,67423,1,2,0:0:0:0:
287,131,67581,6,0,P|277:80|294:28,1,83.9999974365235,12|0,0:0|0:0,0:0:0:0:
232,217,67897,1,8,0:0:0:0:
352,178,68055,1,2,0:0:0:0:
153,179,68212,1,8,0:0:0:0:
236,357,68370,1,0,0:0:0:0:
234,336,68448,1,0,0:0:0:0:
209,311,68527,1,0,0:0:0:0:
208,281,68606,1,0,0:0:0:0:
184,245,68685,1,0,0:0:0:0:
184,207,68764,1,0,0:0:0:0:
153,179,68844,6,0,P|111:140|140:13,1,167.999994873047,4|0,0:0|0:0,0:0:0:0:
184,207,69318,2,0,B|190:262|190:262|228:303|228:303|236:367,1,167.999994873047,12|0,0:0|0:0,0:0:0:0:
205,169,69791,2,0,P|281:150|358:156,1,125.999996154785,12|0,0:0|2:0,0:0:0:0:
411,197,70107,6,0,L|415:265,2,52.5000020027161,2|10|0,0:0|0:0|0:0,0:0:0:0:
328,150,70739,2,0,P|299:142|156:167,1,168,12|2,0:0|0:0,0:0:0:0:
48,147,71370,6,0,L|43:71,2,56,4|2|2,0:0|0:0|0:0,0:0:0:0:
190,231,72002,2,0,B|248:237|248:237|302:208|302:208|383:217,1,178.500003404617,12|2,0:0|0:0,0:0:0:0:
420,157,72555,1,8,0:0:0:0:
420,157,72634,6,0,L|424:72,1,59.5000011348725,8|8,0:0|0:0,0:0:0:0:
450,257,72949,1,2,0:0:0:0:
294,327,73265,2,0,B|241:340|200:323|200:323|155:304|94:335,1,188.999994232178,12|2,0:0|0:0,0:0:0:0:
38,191,73897,6,0,P|34:137|41:92,1,70,12|0,0:0|0:0,0:0:0:0:
68,271,74212,1,12,0:0:0:0:
191,162,74370,1,0,0:0:0:0:
224,290,74528,1,8,0:0:0:0:
115,182,74686,1,2,0:0:0:0:
112,171,74765,1,0,0:0:0:0:
109,160,74844,1,8,0:0:0:0:
115,136,74922,1,8,0:0:0:0:
128,115,75001,1,8,0:0:0:0:
147,99,75080,1,8,0:0:0:0:
168,88,75160,6,0,L|89:90,2,59.5000011348725,4|2|2,0:0|0:0|0:0,0:0:0:0:
228,238,75791,2,0,B|303:269|303:269|431:244,1,188.999994232178,8|2,0:0|0:0,0:0:0:0:
270,299,76423,6,0,P|261:354|267:377,2,62.9999980773926,4|2|2,0:0|0:0|0:0,0:0:0:0:
389,155,77055,2,0,P|353:117|202:137,1,199.499994672775,8|2,0:0|0:0,0:0:0:0:
177,158,77607,1,2,0:0:0:0:
160,154,77686,6,0,P|144:115|143:64,1,66.4999982242585,2|0,0:0|0:0,0:0:0:0:
204,0,78002,1,2,0:0:0:0:
346,181,78318,2,0,B|362:335|362:335|313:291,1,210,12|2,0:0|0:0,0:0:0:0:
269,288,78870,1,8,0:0:0:0:
266,270,78949,6,0,L|257:180,1,70,2|0,0:0|0:0,0:0:0:0:
310,33,79265,1,8,0:0:0:0:
279,133,79423,1,0,0:0:0:0:
425,68,79581,1,8,0:0:0:0:
425,68,79739,1,2,0:0:0:0:
473,188,79897,2,0,P|477:238|455:283,1,70,12|0,0:0|0:0,0:0:0:0:
259,200,80212,5,4,0:0:0:0:
89,251,80370,1,0,0:0:0:0:
78,264,80448,1,0,0:0:0:0:
67,277,80527,1,8,0:0:0:0:
53,244,80606,1,8,0:0:0:0:
55,208,80686,2,0,P|70:165|96:123,1,70,8|2,0:0|0:0,0:0:0:0:
228,44,81002,1,2,0:0:0:0:
251,36,81080,1,2,0:0:0:0:
275,34,81159,5,8,0:0:0:0:
270,68,81238,1,8,0:0:0:0:
245,91,81317,1,8,0:0:0:0:
210,95,81396,1,8,0:0:0:0:
181,76,81476,6,0,P|171:30|180:-1,2,70,4|0|2,0:0|0:0|0:0,0:0:0:0:
231,249,81949,2,0,P|240:294|231:326,2,70,8|2|0,0:0|0:0|0:0,0:0:0:0:
375,110,82423,2,0,L|378:26,2,70,8|2|0,0:0|0:0|0:0,0:0:0:0:
249,271,82897,2,0,B|213:276|213:276|180:271,1,70,8|8,0:0|0:0,0:0:0:0:
26,168,83212,1,0,0:0:0:0:
83,328,83370,5,8,0:0:0:0:
110,177,83528,1,2,0:0:0:0:
95,318,83686,1,12,0:0:0:0:
189,169,83844,1,2,0:0:0:0:
285,312,84002,6,0,L|385:315,2,77.0000023498536,12|2|0,0:0|0:0|0:0,0:0:0:0:
137,248,84476,2,0,L|37:251,2,77.0000023498536,12|2|0,0:0|0:0|0:0,0:0:0:0:
327,147,84949,2,0,P|363:139|427:144,2,77.0000023498536,12|2|0,0:0|0:0|0:0,0:0:0:0:
133,73,85423,1,12,0:0:0:0:
204,163,85581,1,2,0:0:0:0:
251,57,85739,1,2,0:0:0:0:
85,151,85897,6,0,B|74:262|74:262|97:252|120:235|120:235|143:266|206:259,1,232.749993784905,10|0,1:0|2:0,2:0:0:0:
180,260,86528,6,4,B|248:282|308:229|308:229|311:284|350:316|386:315|386:315|414:291|428:236|409:206,1,367.500014019013,4|2,2:0|2:0,2:0:0:0:
417,203,87712,1,2,0:0:0:0:
420,185,87791,5,8,0:0:0:0:
323,145,87949,1,0,0:0:0:0:
445,183,88107,1,8,0:0:0:0:
354,80,88265,1,2,0:0:0:0:
472,189,88423,5,8,0:0:0:0:
399,21,88581,1,12,0:0:0:0:
472,189,89055,5,2,0:0:0:0:
472,189,89212,1,2,0:0:0:0:
461,84,89370,1,0,0:0:0:0:
403,249,89528,1,0,0:0:0:0:
312,128,89686,2,0,L|307:55,1,70,2|0,0:0|0:0,0:0:0:0:
290,264,90002,2,0,L|285:333,1,70,2|0,0:0|0:0,0:0:0:0:
241,174,90318,5,2,0:0:0:0:
241,174,90476,1,0,0:0:0:0:
343,197,90634,1,0,0:0:0:0:
169,224,90791,1,2,0:0:0:0:
160,201,90869,1,2,0:0:0:0:
156,176,90949,2,0,L|163:89,1,70,8|0,0:0|0:0,0:0:0:0:
313,5,91265,2,0,L|318:74,1,70,2|0,0:0|0:0,0:0:0:0:
281,248,91581,5,2,0:0:0:0:
281,248,91739,2,0,P|284:201|278:162,1,70
193,70,92055,1,0,0:0:0:0:
313,5,92212,1,2,0:0:0:0:
270,97,92370,1,0,0:0:0:0:
434,78,92528,2,0,L|461:75,3,23.3333333333333,2|0|0|0,0:0|0:0|0:0|0:0,0:0:0:0:
384,212,92844,5,2,0:0:0:0:
384,212,93002,1,2,0:0:0:0:
290,260,93160,1,0,0:0:0:0:
334,123,93318,1,0,0:0:0:0:
276,266,93476,2,0,L|180:260,1,70,2|0,0:0|0:0,0:0:0:0:
202,149,93791,1,2,0:0:0:0:
202,149,93870,1,2,0:0:0:0:
202,149,93949,1,0,0:0:0:0:
202,149,94028,1,0,0:0:0:0:
202,149,94107,6,0,P|237:127|359:134,1,140,4|0,0:0|0:0,0:0:0:0:
333,122,94581,1,0,0:0:0:0:
249,240,94739,2,0,L|255:335,1,70,2|0,0:0|0:0,0:0:0:0:
123,206,95055,2,0,P|116:157|124:115,1,70,2|0,0:0|0:0,0:0:0:0:
286,10,95370,6,0,L|292:165,1,140,2|0,0:0|0:0,0:0:0:0:
291,149,95844,1,0,0:0:0:0:
423,214,96002,1,2,0:0:0:0:
423,214,96160,1,0,0:0:0:0:
310,33,96318,1,2,0:0:0:0:
411,63,96476,1,2,0:0:0:0:
200,189,96634,6,0,B|175:144|195:82|195:82|208:121,1,140,2|0,0:0|0:0,0:0:0:0:
171,258,97107,1,0,0:0:0:0:
292,131,97265,2,0,P|345:125|395:129,1,70,2|0,0:0|0:0,0:0:0:0:
295,295,97581,2,0,P|336:328|369:366,1,70,2|0,0:0|0:0,0:0:0:0:
139,351,97897,6,0,P|115:310|138:213,1,140,2|0,0:0|0:0,0:0:0:0:
264,151,98370,1,2,0:0:0:0:
198,282,98528,1,0,0:0:0:0:
130,222,98686,1,0,0:0:0:0:
332,207,98844,2,0,L|414:202,1,70,2|0,0:0|0:0,0:0:0:0:
486,78,99160,5,2,0:0:0:0:
486,78,99318,1,0,0:0:0:0:
423,181,99476,1,0,0:0:0:0:
463,44,99634,1,2,0:0:0:0:
347,115,99791,2,0,P|293:120|252:109,1,70,2|0,0:0|0:0,0:0:0:0:
122,160,100107,2,0,L|45:133,1,70,2|0,0:0|0:0,0:0:0:0:
162,240,100423,5,2,0:0:0:0:
162,240,100581,1,0,0:0:0:0:
144,125,100739,1,2,0:0:0:0:
246,176,100897,1,0,0:0:0:0:
74,193,101055,1,2,0:0:0:0:
282,342,101370,1,2,0:0:0:0:
71,320,101686,6,0,P|138:302|207:308,1,140,2|0,0:0|0:0,0:0:0:0:
288,206,102160,1,0,0:0:0:0:
293,67,102318,2,0,L|288:224,1,140,2|0,0:0|0:0,0:0:0:0:
216,123,102791,1,0,0:0:0:0:
370,195,102949,6,0,B|468:207|468:207|517:191,1,140,2|0,0:0|0:0,0:0:0:0:
507,194,103423,1,0,0:0:0:0:
385,320,103581,2,0,B|286:309|286:309|242:283,1,140,2|0,0:0|0:0,0:0:0:0:
251,288,104055,1,0,0:0:0:0:
370,195,104212,6,0,P|391:149|350:65,1,140,2|0,0:0|0:0,0:0:0:0:
221,89,104686,1,0,0:0:0:0:
338,212,104844,2,0,L|240:217,1,70,2|0,0:0|0:0,0:0:0:0:
105,310,105160,2,0,L|203:315,1,70,2|0,0:0|0:0,0:0:0:0:
403,232,105476,6,0,B|356:240|356:240|242:208,1,140,2|0,0:0|0:0,0:0:0:0:
267,215,105949,1,0,0:0:0:0:
361,126,106107,2,0,P|370:83|360:34,1,70,2|0,0:0|0:0,0:0:0:0:
188,181,106423,2,0,B|177:148|177:148|179:97,1,70,2|0,0:0|0:0,0:0:0:0:
70,9,106739,6,0,B|57:44|72:75|72:75|85:106|67:171,1,140,2|0,0:0|0:0,0:0:0:0:
33,243,107212,1,0,0:0:0:0:
155,151,107370,2,0,P|205:139|250:146,1,70,2|0,0:0|0:0,0:0:0:0:
381,270,107686,2,0,P|335:245|290:240,1,70,2|0,0:0|0:0,0:0:0:0:
228,120,108002,6,0,L|236:44,2,70,2|0|2,0:0|0:0|0:0,0:0:0:0:
62,187,108476,1,0,0:0:0:0:
181,248,108634,2,0,P|221:235|332:246,1,140,2|2,0:0|0:0,0:0:0:0:
305,120,109107,1,0,0:0:0:0:
428,191,109265,5,2,0:0:0:0:
428,191,109423,2,0,L|426:97,1,70,0|2,0:0|0:0,0:0:0:0:
475,253,109739,1,0,0:0:0:0:
395,170,109897,2,0,L|390:24,1,140,2|2,0:0|0:0,0:0:0:0:
350,238,110370,1,0,0:0:0:0:
274,129,110528,5,2,0:0:0:0:
274,129,110686,1,0,0:0:0:0:
160,228,110844,1,2,0:0:0:0:
151,102,111002,1,0,0:0:0:0:
176,260,111160,2,0,P|235:265|273:261,1,70,2|0,0:0|0:0,0:0:0:0:
394,209,111476,2,0,B|405:176|405:176|404:117,1,70,2|0,0:0|0:0,0:0:0:0:
279,21,111791,6,0,L|286:178,1,140,2|0,0:0|0:0,0:0:0:0:
229,357,112265,1,0,0:0:0:0:
229,357,112423,2,0,P|249:304|219:206,1,140,2|0,0:0|0:0,0:0:0:0:
81,195,112897,1,0,0:0:0:0:
185,146,113055,6,0,L|268:140,1,70,2|0,0:0|0:0,0:0:0:0:
367,245,113370,2,0,P|416:262|437:204,1,105,2|0,0:0|0:0,0:0:0:0:
364,192,113686,2,0,L|373:333,1,140,2|0,0:0|0:0,0:0:0:0:
359,113,114318,5,2,0:0:0:0:
229,128,118423,5,0,0:0:0:0:
348,22,118581,1,0,0:0:0:0:
348,22,118660,1,0,0:0:0:0:
348,22,118739,2,0,P|344:69|353:99,1,70,0|0,3:0|0:0,0:0:0:0:
297,172,119055,2,0,L|303:282,1,105,8|0,0:0|0:0,0:0:0:0:
335,323,119370,5,4,0:0:0:0:
335,323,119528,1,0,0:0:0:0:
392,165,119686,2,0,P|393:120|373:73,1,70,8|0,0:0|0:0,0:0:0:0:
234,39,120002,1,2,0:0:0:0:
234,39,120160,1,0,0:0:0:0:
321,141,120318,1,8,0:0:0:0:
321,141,120476,1,0,0:0:0:0:
217,242,120634,6,0,B|174:268|174:268|126:248|126:248|95:252|57:284,1,167.999994873047,2|8,0:0|0:0,0:0:0:0:
101,176,121107,1,0,0:0:0:0:
122,331,121265,1,2,0:0:0:0:
122,331,121423,1,0,0:0:0:0:
31,206,121581,1,8,0:0:0:0:
31,206,121739,1,0,0:0:0:0:
217,242,121897,6,0,B|260:268|260:268|308:248|308:248|339:252|377:284,1,167.999994873047,4|8,0:0|0:0,0:0:0:0:
184,254,122370,1,0,0:0:0:0:
264,152,122528,2,0,P|272:111|266:53,1,70,2|0,0:0|0:0,0:0:0:0:
291,254,122844,1,8,0:0:0:0:
291,254,123002,1,0,0:0:0:0:
366,171,123160,6,0,L|453:161,1,70,4|0,0:0|0:0,0:0:0:0:
214,235,123476,2,0,B|189:262|189:262|140:290,1,70,8|0,0:0|0:0,0:0:0:0:
249,94,123791,2,0,P|247:46|261:10,1,70,12|0,0:0|0:0,0:0:0:0:
292,1,124028,1,2,0:0:0:0:
292,1,124107,1,10,0:0:0:0:
170,87,124265,1,8,0:0:0:0:
170,87,124344,1,8,0:0:0:0:
170,87,124423,5,2,0:0:0:0:
154,89,129476,5,4,0:0:0:0:
274,111,129634,1,0,0:0:0:0:
134,201,129791,2,0,P|127:247|141:295,1,70,8|0,0:0|0:0,0:0:0:0:
272,338,130107,1,2,0:0:0:0:
272,338,130265,1,0,0:0:0:0:
210,242,130423,1,8,0:0:0:0:
210,242,130581,1,0,0:0:0:0:
350,185,130739,6,0,L|355:88,1,70,2|0,0:0|0:0,0:0:0:0:
410,249,131055,2,0,P|399:301|407:341,1,70,8|0,0:0|0:0,0:0:0:0:
269,224,131370,1,2,0:0:0:0:
269,224,131528,1,0,0:0:0:0:
431,168,131686,1,8,0:0:0:0:
431,168,131844,1,0,0:0:0:0:
288,102,131967,5,4,0:0:0:0:
179,243,132124,2,0,L|189:342,1,70,0|2,0:0|0:0,0:0:0:0:
288,102,132467,5,2,0:0:0:0:
179,243,132634,1,8,0:0:0:0:
146,107,132791,1,8,0:0:0:0:
141,83,132869,1,8,0:0:0:0:
136,59,132948,1,8,0:0:0:0:
53,177,133107,1,8,0:0:0:0:
57,153,133185,1,8,0:0:0:0:
62,129,133265,6,0,L|43:29,1,70,4|0,0:0|0:0,0:0:0:0:
179,243,133581,2,0,L|192:311,1,70,8|0,0:0|0:0,0:0:0:0:
235,95,133897,1,8,0:0:0:0:
148,154,134055,1,2,0:0:0:0:
279,252,134212,1,8,0:0:0:0:
192,311,134370,1,2,0:0:0:0:
299,159,134528,6,0,P|347:134|390:133,2,70,12|2|0,0:0|0:0|0:0,0:0:0:0:
192,311,135002,2,0,P|144:336|101:337,2,70,12|2|0,0:0|0:0|0:0,0:0:0:0:
201,130,135476,2,0,B|193:85|193:85|200:31,2,70,12|2|0,0:0|0:0|0:0,0:0:0:0:
329,312,135949,2,0,B|337:357|337:357|330:411,2,70,12|2|0,0:0|0:0|0:0,0:0:0:0:
315,140,136423,5,12,0:0:0:0:
351,289,136581,1,0,0:0:0:0:
309,134,136739,1,12,0:0:0:0:
357,294,136897,1,2,0:0:0:0:
219,206,137055,5,8,0:0:0:0:
371,182,137212,1,8,0:0:0:0:
265,275,137528,5,8,0:0:0:0:
320,82,137686,1,8,0:0:0:0:
181,279,138002,5,8,0:0:0:0:
118,42,138160,1,8,0:0:0:0:
256,179,138318,5,2,0:0:0:0:
290,180,138396,1,8,0:0:0:0:
325,182,138476,2,0,P|343:151|343:96,1,70,8|2,0:0|0:0,0:0:0:0:
261,262,138791,5,8,0:0:0:0:
272,294,138869,1,8,0:0:0:0:
262,327,138949,2,0,L|175:332,1,70,8|0,0:0|0:0,0:0:0:0:
51,229,139265,6,0,L|93:226,1,35,2|0,0:0|0:0,0:0:0:0:
212,159,139423,2,0,L|177:161,1,35
51,229,139580,6,0,B|75:191|81:153|73:106|40:40|40:40|101:23|148:33|178:48|178:83|188:100|185:139|139:149|135:154|135:154|137:165|174:189|167:247,1,542.5,2|0,2:0|2:0,0:1:0:0:
216,320,142107,6,0,P|246:294|225:173,1,167.999994873047,4|8,0:0|0:0,0:0:0:0:
4,247,142581,2,0,B|71:266|71:266|187:238,1,167.999994873047,2|0,0:0|0:0,0:0:0:0:
71,340,143055,1,8,0:0:0:0:
105,179,143212,6,0,B|138:129|109:76|109:76|52:33,1,167.999994873047,4|0,0:0|0:0,0:0:0:0:
224,63,143686,1,8,0:0:0:0:
205,187,143844,1,2,0:0:0:0:
205,187,143923,1,2,0:0:0:0:
205,187,144002,2,0,P|214:227|206:268,1,83.9999974365235
354,364,144318,2,0,P|346:322|355:282,1,83.9999974365235,8|0,0:0|0:0,0:0:0:0:
461,173,144634,5,4,0:0:0:0:
370,206,144791,1,0,0:0:0:0:
446,31,144949,1,8,0:0:0:0:
502,108,145107,1,0,0:0:0:0:
370,206,145265,2,0,L|267:200,1,83.9999974365235,2|0,0:0|0:0,0:0:0:0:
141,102,145581,1,8,0:0:0:0:
115,234,145739,1,0,0:0:0:0:
250,100,145897,5,2,0:0:0:0:
250,100,146055,2,0,P|257:169|208:280,1,167.999994873047
191,332,146449,1,0,0:0:0:0:
191,332,146528,2,0,L|107:335,1,83.9999974365235,8|0,0:0|0:0,0:0:0:0:
159,195,146844,1,12,0:0:0:0:
259,349,147002,1,8,0:0:0:0:
292,324,147080,1,8,0:0:0:0:
311,287,147159,5,2,0:0:0:0:
211,118,147318,1,2,0:0:0:0:
137,303,147634,5,8,0:0:0:0:
376,189,147949,5,8,0:0:0:0:
112,51,148265,6,0,B|114:109|114:109|138:158|138:158|142:223,1,167.999994873047,4|0,0:0|0:0,0:0:0:0:
232,315,148739,1,8,0:0:0:0:
272,323,148817,1,2,0:0:0:0:
314,315,148896,1,0,0:0:0:0:
432,362,149055,2,0,L|427:255,1,83.9999974365235,2|0,0:0|0:0,0:0:0:0:
341,197,149370,1,8,0:0:0:0:
475,49,149528,6,0,P|517:101|472:209,1,167.999994873047,2|0,0:0|0:0,0:0:0:0:
447,164,149923,1,8,0:0:0:0:
405,162,150001,1,8,0:0:0:0:
363,161,150080,1,8,0:0:0:0:
321,160,150159,1,8,0:0:0:0:
233,101,150318,5,8,0:0:0:0:
210,136,150396,1,8,0:0:0:0:
207,177,150475,1,8,0:0:0:0:
296,245,150634,1,2,0:0:0:0:
213,334,150791,6,0,B|167:350|130:330|130:330|86:306|40:338,1,167.999994873047,4|0,0:0|0:0,0:0:0:0:
43,187,151265,1,8,0:0:0:0:
174,264,151423,1,2,0:0:0:0:
174,264,151502,1,8,0:0:0:0:
174,264,151581,1,8,0:0:0:0:
215,137,151739,5,2,0:0:0:0:
193,117,151817,1,2,0:0:0:0:
175,99,151896,5,8,0:0:0:0:
200,68,151975,1,8,0:0:0:0:
189,29,152054,1,8,0:0:0:0:
151,16,152133,1,8,0:0:0:0:
119,39,152212,6,0,P|125:98|220:137,1,167.999994873047,4|8,0:0|0:0,0:0:0:0:
305,85,152686,1,0,0:0:0:0:
222,169,152844,2,0,L|216:272,1,83.9999974365235,8|0,0:0|0:0,0:0:0:0:
226,271,153081,1,2,0:0:0:0:
230,292,153160,1,8,0:0:0:0:
121,369,153318,1,8,0:0:0:0:
121,369,153397,1,2,0:0:0:0:
121,369,153476,6,0,P|115:331|119:261,1,83.9999974365235,8|2,0:0|0:0,0:0:0:0:
237,149,153791,2,0,P|242:111|239:41,1,83.9999974365235,8|2,0:0|0:0,0:0:0:0:
51,183,154107,2,0,L|161:178,1,83.9999974365235,8|2,0:0|0:0,0:0:0:0:
279,264,154423,2,0,L|362:267,1,83.9999974365235,8|2,0:0|0:0,0:0:0:0:
430,307,154660,1,2,0:0:0:0:
430,307,154739,6,0,P|439:255|421:215,1,83.9999974365235,12|0,0:0|0:0,0:0:0:0:
303,106,155055,1,8,0:0:0:0:
367,29,155212,1,0,0:0:0:0:
399,188,155370,1,8,0:0:0:0:
283,142,155528,1,2,0:0:0:0:
281,129,155607,1,0,0:0:0:0:
278,116,155686,2,0,P|238:114|170:134,1,83.9999974365235,8|0,0:0|0:0,0:0:0:0:
157,139,155923,1,2,0:0:0:0:
118,156,156002,6,0,B|97:202|97:202|112:336,1,167.999994873047,4|2,0:0|0:0,0:0:0:0:
110,318,156476,2,0,P|152:303|297:318,1,167.999994873047,8|0,0:0|0:0,0:0:0:0:
273,308,156949,2,0,P|246:271|310:216,1,125.999996154785,8|0,0:0|0:0,0:0:0:0:
310,184,157265,6,0,L|305:117,2,52.5000020027161,4|8|2,0:0|0:0|0:0,0:0:0:0:
188,270,157897,2,0,B|135:259|97:294|97:294|54:282|39:235,1,168,12|0,0:0|0:0,0:0:0:0:
85,146,158528,6,0,P|121:132|161:136,2,56,4|2|2,0:0|0:0|0:0,0:0:0:0:
228,194,159160,2,0,P|243:161|180:32,1,178.500003404617,12|2,0:0|0:0,0:0:0:0:
274,81,159712,1,8,0:0:0:0:
274,81,159791,6,0,B|308:88|308:88|352:84,1,59.5000011348725,4|8,0:0|0:0,0:0:0:0:
468,56,160107,1,2,0:0:0:0:
353,187,160423,2,0,L|209:195,1,125.999996154785,12|2,0:0|0:0,0:0:0:0:
100,260,160897,1,2,0:0:0:0:
100,260,160976,1,2,0:0:0:0:
100,260,161055,6,0,P|90:314|103:345,1,70,2|0,0:0|3:0,0:0:0:0:
155,159,161370,2,0,P|165:105|154:79,1,70,2|0,0:0|3:0,0:0:0:0:
217,254,161686,1,12,0:0:0:0:
135,168,161844,1,2,0:0:0:0:
119,166,161922,1,2,0:0:0:0:
103,164,162001,1,0,3:0:0:0:
229,119,162160,1,2,0:0:0:0:
238,117,162238,1,2,0:0:0:0:
247,115,162318,6,0,L|328:113,2,59.5000011348725,4|2|2,0:0|0:0|0:0,0:0:0:0:
125,222,162949,2,0,B|66:273|66:273|127:281|143:356,1,188.999994232178,12|0,0:0|0:0,0:0:0:0:
31,204,163581,5,8,0:0:0:0:
48,190,163659,1,8,0:0:0:0:
65,176,163738,1,8,0:0:0:0:
82,163,163817,1,8,0:0:0:0:
100,149,163897,2,0,L|108:60,1,62.9999980773926,2|0,0:0|0:0,0:0:0:0:
169,217,164212,5,8,0:0:0:0:
228,298,164370,2,0,B|276:305|276:305|310:328|310:328|378:336,1,132.999996448517,2|8,0:0|0:0,0:0:0:0:
150,293,164844,6,0,L|137:376,2,66.4999982242585,4|2|2,0:0|0:0|0:0,0:0:0:0:
245,200,165318,1,8,0:0:0:0:
113,151,165476,2,0,B|102:116|102:116|104:67,1,70,2|0,0:0|0:0,0:0:0:0:
286,136,165791,2,0,P|321:183|300:248,1,105,8|0,0:0|2:0,0:0:0:0:
310,244,166107,5,2,0:0:0:0:
364,101,166265,1,0,0:0:0:0:
245,200,166423,2,0,P|211:203|148:207,1,70,8|0,0:0|0:0,0:0:0:0:
37,91,166739,2,0,P|70:96|132:109,1,70,8|0,0:0|0:0,0:0:0:0:
123,101,166976,1,2,0:0:0:0:
140,99,167055,1,12,0:0:0:0:
347,291,167370,6,0,L|431:284,2,77.0000023498536,4|2|8,0:0|0:0|0:0,0:0:0:0:
175,205,167844,2,0,L|91:198,1,77.0000023498536,2|8,0:0|0:0,0:0:0:0:
44,88,168160,1,2,0:0:0:0:
46,69,168238,1,2,0:0:0:0:
49,52,168318,5,8,0:0:0:0:
70,69,168396,1,8,0:0:0:0:
94,80,168475,1,8,0:0:0:0:
121,84,168554,1,8,0:0:0:0:
148,80,168634,6,0,B|196:75|196:75|258:76,2,77.0000023498536,4|2|0,0:0|0:0|0:0,0:0:0:0:
359,174,169107,2,0,B|313:156|313:156|253:141,2,77.0000023498536,12|2|0,0:0|0:0|0:0,0:0:0:0:
143,243,169581,2,0,B|182:214|182:214|236:184,2,77.0000023498536,12|2|0,0:0|0:0|0:0,0:0:0:0:
97,371,170055,1,10,0:0:0:0:
206,295,170212,1,0,0:0:0:0:
68,243,170370,1,2,0:0:0:0:
195,137,170528,6,0,P|252:118|305:120,1,77.0000023498536,8|0,0:0|0:0,0:0:0:0:
206,295,170844,2,0,P|259:321|295:360,1,77.0000023498536,8|0,0:0|0:0,0:0:0:0:
346,348,171081,1,2,0:0:0:0:
346,348,171160,6,0,L|352:246,1,77.0000023498536,4|0,0:0|0:0,0:0:0:0:
360,120,171476,1,2,0:0:0:0:
272,332,171634,6,0,L|286:230,1,77.0000023498536,8|0,0:0|0:0,0:0:0:0:
300,115,171950,1,2,0:0:0:0:
194,290,172107,6,0,L|224:199,1,77.0000023498536,12|0,3:0|3:0,3:0:0:0:
260,82,172423,1,0,3:0:0:0:
414,224,172581,1,12,0:0:0:0:
244,134,172739,1,2,0:0:0:0:
244,134,172897,1,0,0:0:0:0:
250,325,173054,6,0,B|210:301|210:301|161:310|161:310|156:256|197:220|267:231,1,232.749993784905,8|0,2:1|2:1,2:1:0:0:
247,230,173686,6,0,B|276:232|316:220|316:220|370:241|410:209|410:209|450:265|418:318|418:318|377:299|324:313,1,367.500014019013,4|2,2:1|2:1,2:1:0:0:
319,313,174870,1,2,0:0:0:0:
294,323,174949,5,8,0:0:0:0:
172,245,175107,1,0,0:0:0:0:
267,339,175265,1,8,0:0:0:0:
207,178,175423,1,2,0:0:0:0:
240,357,175581,1,8,0:0:0:0:
127,305,175739,5,8,0:0:0:0:
108,285,175817,1,8,0:0:0:0:
98,260,175896,1,8,0:0:0:0:
97,233,175975,1,8,0:0:0:0:
106,208,176055,5,2,0:0:0:0:
144,206,176133,1,2,0:0:0:0:
182,205,176212,6,0,L|279:200,1,83.9999974365235,4|0,0:0|0:0,0:0:0:0:
312,229,176449,1,8,0:0:0:0:
316,240,176528,1,10,0:0:0:0:
391,169,176686,1,8,0:0:0:0:
392,156,176764,1,8,0:0:0:0:
393,143,176843,1,12,0:0:0:0:
322,62,177002,2,8,L|319:20,2,41.9999987182618,8|8|12,0:0|0:0|0:0,0:0:0:0:
266,200,177318,1,2,0:0:0:0:
144,107,177476,6,0,P|135:62|139:10,2,77.0000023498536,4|0|2,0:0|0:0|0:0,0:0:0:0:
266,200,177949,2,0,B|308:184|308:184|344:204|344:204|374:187|428:202,1,154.000004699707,8|0,0:0|0:0,0:0:0:0:
286,348,178423,2,0,L|181:354,2,77.0000023498536,12|0|2,0:0|0:0|0:0,0:0:0:0:
266,200,178897,6,0,B|283:152|251:113|251:113|263:82|263:82|242:28,1,154.000004699707,8|0,0:0|0:0,0:0:0:0:
197,166,179370,2,0,L|97:171,1,77.0000023498536,8|0,0:0|0:0,0:0:0:0:
110,162,179607,1,8,0:0:0:0:
101,153,179686,1,8,0:0:0:0:
195,240,179844,1,2,0:0:0:0:
201,91,180002,6,0,P|238:81|286:83,2,77.0000023498536,4|0|2,0:0|0:0|0:0,0:0:0:0:
57,215,180476,2,0,B|43:258|61:299|61:299|48:302|48:302|69:344|35:378,1,154.000004699707,8|0,0:0|0:0,0:0:0:0:
136,222,180949,2,0,P|120:166|82:146,1,77.0000023498536,12|0,0:0|0:0,0:0:0:0:
0,56,181265,2,0,L|99:47,1,77.0000023498536,2|0,0:0|0:0,0:0:0:0:
87,45,181502,1,0,0:0:0:0:
97,39,181581,5,8,0:0:0:0:
128,59,181659,1,8,0:0:0:0:
142,94,181738,1,8,0:0:0:0:
133,131,181817,1,8,0:0:0:0:
107,155,181897,2,0,L|104:256,1,77.0000023498536,4|2,0:0|0:0,0:0:0:0:
116,256,182134,1,8,0:0:0:0:
137,271,182212,1,8,0:0:0:0:
267,237,182370,1,2,0:0:0:0:
267,237,182449,1,2,0:0:0:0:
267,237,182528,6,0,L|276:128,1,77.0000023498536,4|0,0:0|0:0,0:0:0:0:
331,300,182844,1,8,0:0:0:0:
234,210,183002,2,0,B|243:113|243:113|274:44,1,154.000004699707,4|2,0:0|0:0,0:0:0:0:
173,265,183476,2,0,P|135:272|67:265,1,77.0000023498536,12|0,0:0|0:0,0:0:0:0:
256,298,183791,5,2,0:0:0:0:
182,147,184002,1,8,0:0:0:0:
258,111,184107,2,8,P|266:65|263:23,2,51.3333348999024
173,265,184423,2,8,P|165:311|168:353,2,51.3333348999024
290,200,184739,1,8,0:0:0:0:
334,189,184844,1,8,0:0:0:0:
380,191,184949,1,8,0:0:0:0:
422,212,185055,6,0,L|498:211,1,77.0000023498536,12|0,0:0|0:0,0:0:0:0:
344,289,185370,1,2,0:0:0:0:
202,221,185528,2,0,B|159:248|159:248|146:280|144:313|144:313|108:351,1,154.000004699707,12|0,0:0|0:0,0:0:0:0:
248,356,186002,1,12,0:0:0:0:
202,221,186160,1,0,0:0:0:0:
334,249,186318,1,2,0:0:0:0:
146,269,186476,6,0,P|129:210|224:152,1,154.000004699707,12|0,0:0|0:0,0:0:0:0:
286,326,186949,2,0,L|385:328,1,77.0000023498536,8|0,0:0|0:0,0:0:0:0:
461,141,187265,6,0,B|419:153|419:153|372:138|372:138|307:177|249:135,1,210.000008010865,4|2,0:0|0:0,0:0:0:0:
95,168,192634,5,4,0:0:0:0:
338,203,192949,1,2,0:0:0:0:
112,334,193265,1,2,0:0:0:0:
247,146,193581,2,0,L|251:53,1,70,2|8,0:0|0:0,0:0:0:0:
214,228,193897,5,4,0:0:0:0:
438,357,194212,1,2,0:0:0:0:
328,118,194528,1,2,0:0:0:0:
212,313,194844,2,0,B|175:318|175:318|113:301,1,70,2|0,0:0|0:0,0:0:0:0:
45,155,195160,5,2,0:0:0:0:
257,53,195476,1,2,0:0:0:0:
165,326,195791,1,2,0:0:0:0:
276,145,196107,2,0,L|280:54,1,70,2|0,0:0|0:0,0:0:0:0:
274,251,196423,5,2,0:0:0:0:
480,84,196739,1,2,0:0:0:0:
89,129,197055,1,2,0:0:0:0:
378,321,197370,2,0,P|426:325|462:318,1,70,2|0,0:0|0:0,0:0:0:0:
265,363,197686,5,12,0:0:0:0:
246,281,197844,1,0,0:0:0:0:
286,207,198002,1,2,0:0:0:0:
184,340,198160,6,0,P|135:345|93:328,2,70,12|0|2,0:0|0:0|0:0,0:0:0:0:
330,274,198634,2,0,B|366:268|366:268|423:274,1,70,8|0,0:0|0:0,0:0:0:0:
284,175,198949,5,12,0:0:0:0:
364,118,199107,1,0,0:0:0:0:
272,81,199265,1,2,0:0:0:0:
224,240,199423,6,0,L|229:332,2,70,12|0|2,0:0|0:0|0:0,0:0:0:0:
272,81,199897,2,0,P|276:36|268:6,1,70,4|0,0:0|0:0,0:0:0:0:
342,195,200195,5,8,0:0:0:0:
113,116,200352,1,8,0:0:0:0:
104,126,200668,1,8,0:0:0:0:
96,137,200984,1,8,0:0:0:0:
240,253,201300,6,0,P|298:256|341:179,1,140,4|2,0:0|0:0,0:0:0:0:
254,77,201765,1,8,0:0:0:0:
204,172,201923,1,2,0:0:0:0:
182,161,202001,1,2,0:0:0:0:
164,144,202080,1,8,0:0:0:0:
151,123,202159,1,0,0:0:0:0:
146,99,202238,1,2,0:0:0:0:
165,245,202396,1,12,0:0:0:0:
165,245,202737,6,0,L|250:249,1,62.9999980773926,2|0,0:0|0:0,0:0:0:0:
321,197,203052,2,0,P|364:190|390:193,1,48.9999985046387,2|0,0:0|0:0,0:0:0:0:
418,328,203368,2,0,B|415:288|415:288|425:242,1,62.9999980773926,2|2,0:0|0:0,0:0:0:0:
457,145,203684,2,0,L|450:83,1,48.9999985046387,2|0,0:0|0:0,0:0:0:0:
299,37,204000,6,0,P|305:91|301:116,1,62.9999980773926,2|0,0:0|0:0,0:0:0:0:
229,208,204315,2,0,L|167:214,1,48.9999985046387,2|0,0:0|0:0,0:0:0:0:
55,286,204631,2,0,P|46:244|61:198,1,62.9999980773926,2|0,0:0|0:0,0:0:0:0:
124,105,204947,2,0,L|129:169,1,48.9999985046387,2|0,0:0|0:0,0:0:0:0:
192,287,205263,6,0,L|263:294,1,62.9999980773926,2|0,0:0|0:0,0:0:0:0:
336,200,205579,2,0,P|374:194|398:198,1,48.9999985046387,2|0,0:0|0:0,0:0:0:0:
254,295,205894,2,0,B|291:291|291:291|342:301,1,62.9999980773926,2|0,0:0|0:0,0:0:0:0:
384,195,206210,2,0,L|455:201,1,48.9999985046387,2|0,0:0|0:0,0:0:0:0:
301,80,206526,6,0,P|290:114|300:153,1,62.9999980773926,2|0,0:0|0:0,0:0:0:0:
348,269,206842,2,0,L|277:272,1,48.9999985046387,2|0,0:0|0:0,0:0:0:0:
158,156,207158,2,0,P|188:150|233:157,1,62.9999980773926,2|0,0:0|0:0,0:0:0:0:
416,225,207473,2,0,L|411:163,1,48.9999985046387,2|0,0:0|0:0,0:0:0:0:
163,219,207789,6,0,B|115:187|121:119|181:91|181:91|220:112|220:112|219:163,1,245,12|2,2:1|2:1,2:1:0:0:
225,321,209052,6,0,B|175:356|98:306|98:306|94:369|37:383|37:383|-16:358|3:283,1,342.999989532471,12|2,2:1|2:1,2:1:0:0:
189,112,210315,6,0,L|293:107,1,77.0000023498536,12|0,0:0|0:0,0:0:0:0:
234,287,210631,2,0,L|157:283,1,77.0000023498536,2|0,0:0|0:0,0:0:0:0:
190,97,210947,6,0,L|290:101,1,77.0000023498536,2|0,0:0|0:0,0:0:0:0:
232,303,211263,2,0,L|148:291,1,77.0000023498536,2|0,0:0|0:0,0:0:0:0:
192,82,211579,6,0,L|301:96,1,77.0000023498536,8|0,0:0|0:0,0:0:0:0:
229,320,211895,2,0,L|138:299,1,77.0000023498536,8|0,0:0|0:0,0:0:0:0:
198,66,212210,6,0,L|290:87,1,77.0000023498536,8|0,0:0|0:0,0:0:0:0:
226,339,212526,2,0,L|128:307,1,77.0000023498536,8|0,0:0|0:0,0:0:0:0:
96,130,212825,6,0,L|198:124,1,83.9999974365235,12|2,0:0|0:0,0:0:0:0:
230,102,213062,1,8,0:0:0:0:
230,102,213141,1,8,0:0:0:0:
57,151,213298,6,0,L|158:171,1,83.9999974365235,4|0,0:0|0:0,0:0:0:0:
223,186,213535,1,2,0:0:0:0:
223,186,213614,1,8,0:0:0:0:
31,229,213772,1,2,0:0:0:0:
129,62,213930,1,2,0:0:0:0:
129,62,214009,1,2,0:0:0:0:
148,74,214088,5,4,0:0:0:0:
218,181,215351,6,0,B|305:172|305:172|328:150|310:95|275:73|229:46|167:89|151:132|155:186|164:250|230:264|262:263|292:290|339:246,1,542.5,2|0,2:0|2:0,2:1:0:0:
400,288,217897,6,0,B|496:292|496:292|460:256|456:192,1,167.999994873047,4|8,0:0|0:0,0:0:0:0:
335,344,218370,2,0,P|283:349|202:264,1,167.999994873047,2|0,0:0|0:0,0:0:0:0:
270,141,218844,1,8,0:0:0:0:
400,288,219002,6,0,L|409:112,1,167.999994873047,4|0,0:0|0:0,0:0:0:0:
478,291,219476,1,8,0:0:0:0:
332,181,219634,2,0,P|281:168|229:178,1,83.9999974365235
162,258,219949,1,2,0:0:0:0:
226,98,220107,1,8,0:0:0:0:
259,266,220265,1,2,0:0:0:0:
266,307,220343,1,2,0:0:0:0:
274,348,220423,6,0,L|359:352,1,83.9999974365235,4|0,0:0|0:0,0:0:0:0:
162,258,220739,2,0,P|105:252|64:263,1,83.9999974365235,8|0,0:0|0:0,0:0:0:0:
207,175,221055,1,2,0:0:0:0:
109,96,221212,1,0,0:0:0:0:
163,257,221370,1,8,0:0:0:0:
223,146,221528,1,0,0:0:0:0:
50,160,221686,6,0,P|28:127|37:53,1,83.9999974365235,2|0,0:0|0:0,0:0:0:0:
176,28,222002,1,8,0:0:0:0:
223,146,222160,2,0,P|276:160|364:93,1,167.999994873047,2|0,0:0|0:0,0:0:0:0:
223,146,222634,1,12,0:0:0:0:
270,48,222791,1,0,0:0:0:0:
303,198,222949,5,2,0:0:0:0:
99,73,223107,1,2,0:0:0:0:
151,287,223423,5,8,0:0:0:0:
362,98,223739,5,8,0:0:0:0:
426,301,224055,6,0,L|243:308,1,167.999994873047,4|0,0:0|0:0,0:0:0:0:
165,191,224528,1,8,0:0:0:0:
165,191,224686,1,0,0:0:0:0:
85,316,224844,2,0,P|28:324|-13:305,1,83.9999974365235,2|0,0:0|0:0,0:0:0:0:
161,360,225160,1,12,0:0:0:0:
54,247,225318,1,2,0:0:0:0:
206,295,225476,5,8,0:0:0:0:
247,290,225554,1,8,0:0:0:0:
282,267,225633,1,8,0:0:0:0:
303,232,225712,1,8,0:0:0:0:
307,190,225791,1,8,0:0:0:0:
210,110,225949,1,2,0:0:0:0:
219,216,226107,5,8,0:0:0:0:
244,249,226185,1,8,0:0:0:0:
282,267,226264,1,8,0:0:0:0:
423,292,226423,1,2,0:0:0:0:
307,190,226581,6,8,B|298:79|298:79|241:26,1,167.999994873047,4|2,0:0|0:0,0:0:0:0:
123,146,227055,2,0,L|128:249,1,83.9999974365235,8|0,0:0|0:0,0:0:0:0:
134,240,227291,1,8,0:0:0:0:
142,249,227370,1,8,0:0:0:0:
301,218,227528,1,8,0:0:0:0:
341,208,227607,1,8,0:0:0:0:
374,234,227686,1,8,0:0:0:0:
374,276,227765,1,8,0:0:0:0:
341,303,227844,1,8,0:0:0:0:
301,293,227923,1,8,0:0:0:0:
282,255,228002,6,8,B|275:157|275:157|186:97,1,167.999994873047,4|8,0:0|0:0,0:0:0:0:
110,48,228476,1,0,0:0:0:0:
194,195,228634,2,0,L|284:190,1,83.9999974365235,8|2,0:0|0:0,0:0:0:0:
126,318,228949,2,0,P|75:329|25:318,1,83.9999974365235,8|2,0:0|0:0,0:0:0:0:
88,135,229265,6,0,B|106:175|106:175|99:243,1,83.9999974365235,12|2,0:0|0:0,0:0:0:0:
291,350,229581,2,0,P|294:290|309:244,1,83.9999974365235,8|2,0:0|0:0,0:0:0:0:
386,83,229897,2,0,L|279:77,1,83.9999974365235,8|2,0:0|0:0,0:0:0:0:
87,295,230212,2,0,B|86:255|86:255|101:214,1,83.9999974365235,8|2,0:0|0:0,0:0:0:0:
176,58,230528,5,8,0:0:0:0:
251,159,230686,1,0,0:0:0:0:
12,195,230844,1,8,0:0:0:0:
87,295,231002,1,2,0:0:0:0:
171,141,231160,2,0,L|176:50,1,83.9999974365235,8|0,0:0|0:0,0:0:0:0:
210,23,231397,1,8,0:0:0:0:
210,23,231476,1,8,0:0:0:0:
251,159,231634,1,2,0:0:0:0:
258,178,231712,1,2,0:0:0:0:
266,197,231791,6,0,B|396:206|396:206|350:167,1,167.999994873047,4|2,0:0|0:0,0:0:0:0:
239,215,232265,2,0,P|214:265|286:350,1,167.999994873047,8|0,0:0|0:0,0:0:0:0:
251,176,232739,2,0,P|232:138|130:80,1,125.999996154785,8|0,0:0|0:0,0:0:0:0:
97,73,233055,6,0,B|59:72|59:72|39:78,2,52.5000020027161,4|8|2,0:0|0:0|0:0,0:0:0:0:
197,201,233686,2,0,P|238:211|257:114,1,168,12|0,0:0|0:0,0:0:0:0:
310,199,234239,1,8,0:0:0:0:
310,199,234318,6,0,P|364:206|390:203,2,56,4|8|2,0:0|0:0|0:0,0:0:0:0:
161,120,234949,2,0,B|137:181|137:181|169:313,1,178.500003404617,12|2,0:0|0:0,0:0:0:0:
187,309,235502,1,8,0:0:0:0:
213,322,235581,6,0,P|250:324|290:317,2,59.5000011348725,4|2|2,0:0|0:0|0:0,0:0:0:0:
116,213,236212,2,0,L|112:128,1,62.9999980773926,12|0,0:0|0:0,0:0:0:0:
123,120,236449,1,2,0:0:0:0:
137,115,236527,1,8,0:0:0:0:
152,110,236606,1,8,0:0:0:0:
167,105,236685,1,8,0:0:0:0:
182,100,236764,1,8,0:0:0:0:
197,95,236844,6,0,P|202:48|199:18,1,62.9999980773926,4|8,0:0|0:0,0:0:0:0:
243,30,237081,1,8,0:0:0:0:
256,22,237160,1,8,0:0:0:0:
268,13,237239,1,0,0:0:0:0:
281,6,237318,1,2,0:0:0:0:
279,182,237476,2,0,L|269:99,1,62.9999980773926,4|0,0:0|0:0,0:0:0:0:
147,284,237791,2,0,L|157:201,1,62.9999980773926,4|0,0:0|0:0,0:0:0:0:
179,61,238107,5,2,0:0:0:0:
286,30,238265,1,8,0:0:0:0:
259,138,238423,1,2,0:0:0:0:
11,221,238739,2,0,B|26:153|26:153|6:108|6:108|26:27,1,178.500003404617,12|4,0:0|0:0,0:0:0:0:
117,236,239370,6,0,P|158:232|195:236,2,59.5000011348725,2|8|2,0:0|0:0|0:0,0:0:0:0:
261,328,239844,1,0,0:0:0:0:
261,328,239923,1,0,0:0:0:0:
261,328,240002,2,0,B|318:361|318:361|299:282|342:240,1,188.999994232178,12|2,0:0|0:0,0:0:0:0:
397,311,240555,1,8,0:0:0:0:
397,311,240634,6,0,P|437:314|471:300,1,62.9999980773926,4|0,0:0|0:0,0:0:0:0:
337,244,240949,2,0,L|333:151,1,62.9999980773926,2|8,0:0|0:0,0:0:0:0:
256,27,241265,2,0,P|250:76|265:114,1,62.9999980773926,2|0,0:0|0:0,0:0:0:0:
374,180,241581,1,8,0:0:0:0:
374,180,241739,1,0,0:0:0:0:
242,188,241897,5,8,0:0:0:0:
485,49,242212,2,0,L|481:142,1,62.9999980773926,4|8,0:0|0:0,0:0:0:0:
478,127,242449,1,2,0:0:0:0:
473,142,242528,1,0,0:0:0:0:
414,248,242686,1,2,0:0:0:0:
374,180,242844,2,0,L|376:117,1,62.9999980773926,12|0,0:0|0:0,0:0:0:0:
219,20,243160,6,0,P|211:69|228:115,1,70,8|0,0:0|0:0,0:0:0:0:
298,204,243476,1,8,0:0:0:0:
306,237,243554,1,8,0:0:0:0:
301,272,243634,2,0,P|259:280|211:271,1,70,2|0,0:0|0:0,0:0:0:0:
115,293,243949,1,2,0:0:0:0:
116,310,244027,1,2,0:0:0:0:
118,327,244106,5,8,0:0:0:0:
84,332,244185,1,8,0:0:0:0:
54,315,244264,1,8,0:0:0:0:
40,283,244343,1,8,0:0:0:0:
48,250,244423,6,0,P|82:221|121:215,2,70,4|2|0,0:0|0:0|0:0,0:0:0:0:
175,173,244897,2,0,P|141:143|102:137,2,70,12|2|0,0:0|0:0|0:0,0:0:0:0:
271,293,245370,2,0,L|276:374,2,70,12|2|0,0:0|0:0|0:0,0:0:0:0:
176,172,245844,1,12,0:0:0:0:
279,191,246002,1,0,0:0:0:0:
158,188,246160,1,2,0:0:0:0:
292,98,246318,6,0,B|333:87|333:87|389:92,1,70,12|0,0:0|0:0,0:0:0:0:
195,80,246634,1,8,0:0:0:0:
279,191,246791,1,2,0:0:0:0:
374,64,246949,6,0,P|380:20|372:-14,2,70,12|2|0,0:0|0:0|0:0,0:0:0:0:
261,218,247423,2,0,P|256:252|262:286,2,70,12|2|0,0:0|0:0|0:0,0:0:0:0:
406,182,247897,1,12,0:0:0:0:
304,153,248055,1,0,0:0:0:0:
352,286,248212,1,2,0:0:0:0:
423,154,248370,2,0,L|426:60,1,70,12|0,0:0|0:0,0:0:0:0:
420,254,248686,1,2,0:0:0:0:
340,117,248844,6,0,B|299:93|230:83|189:112|189:112|222:150|209:201,1,232.749993784905,12|0,0:0|2:0,0:0:0:0:
212,180,249476,6,0,P|166:180|264:109,1,367.500014019013,4|2,2:1|2:1,2:1:0:0:
231,109,250660,1,2,0:0:0:0:
193,113,250739,5,8,0:0:0:0:
68,55,250897,1,0,0:0:0:0:
135,208,251055,1,8,0:0:0:0:
143,61,251212,1,2,0:0:0:0:
45,246,251370,1,8,0:0:0:0:
45,246,251528,1,4,0:0:0:0:
173,360,252002,5,2,0:0:0:0:
176,354,252160,1,2,0:0:0:0:
243,176,252476,1,2,0:0:0:0:
146,134,252634,2,0,L|144:54,1,70
103,209,252949,2,0,L|94:238,3,23.3333333333333,2|0|0|0,0:0|0:0|0:0|0:0,0:0:0:0:
245,168,253265,5,2,0:0:0:0:
243,176,253423,1,2,0:0:0:0:
420,288,253739,2,0,L|455:308,3,23.3333333333333,2|0|0|0,0:0|0:0|0:0|0:0,0:0:0:0:
386,181,254055,1,2,0:0:0:0:
330,278,254212,2,0,P|292:282|250:271,1,70,0|2,0:0|0:0,0:0:0:0:
164,144,254528,6,0,B|129:136|86:134|66:178|14:184|5:130|17:77|57:84|94:120|107:148,1,210.000008010865,4|0,3:0|0:0,0:0:0:0:
