osu file format v14

[General]
AudioFilename: audio.mp3
AudioLeadIn: 0
PreviewTime: -1
Countdown: 0
SampleSet: Soft
StackLeniency: 0.7
Mode: 3
LetterboxInBreaks: 0
SpecialStyle: 0
WidescreenStoryboard: 1

[Editor]
Bookmarks: -31,6994,11968,22073,32100,37389,42284,47415,54836,88942,93994,104099,114284,124389,141994,177442,187626,197889,202705,217863,255442
DistanceSpacing: 1
BeatDivisor: 4
GridSize: 16
TimelineZoom: 0.6999999

[Metadata]
Title:Redo
TitleUnicode:Redo
Artist:Suzuki Konomi
ArtistUnicode:鈴木このみ
Creator:Gabeh
Version:Ram & Rem - 6K Hard
Source:Re: Zero Kara Hajimeru Isekai Seikatsu
Tags:
BeatmapID:1448486
BeatmapSetID:647126

[Difficulty]
HPDrainRate:7
CircleSize:6
OverallDifficulty:6
ApproachRate:5
SliderMultiplier:1.4
SliderTickRate:1

[Events]
//Background and Video events
0,0,"emilia.jpg",0,0
//Break Periods
2,88905,92873
2,177326,186978
//Storyboard Layer 0 (Background)
//Storyboard Layer 1 (Fail)
//Storyboard Layer 2 (Pass)
//Storyboard Layer 3 (Foreground)
//Storyboard Sound Samples

[TimingPoints]
1863,315.789473684211,4,2,0,100,1,0
54915,-100,4,2,0,100,0,1
88941,-100,4,2,0,100,0,0
142075,-100,4,2,0,100,0,1
177441,-100,4,2,0,100,0,0
217863,-100,4,2,0,100,0,1
251962,-100,4,2,0,100,0,0

[HitObjects]
298,192,11968,128,0,12441:0:0:0:0:
469,192,11968,128,0,12441:0:0:0:0:
384,192,12599,128,0,13073:0:0:0:0:
213,192,12599,128,0,13073:0:0:0:0:
298,192,13231,128,0,13547:0:0:0:0:
128,192,13231,128,0,13547:0:0:0:0:
298,192,13863,1,0,0:0:0:0:
213,192,14020,1,0,0:0:0:0:
298,192,14178,1,0,0:0:0:0:
213,192,14336,1,0,0:0:0:0:
384,192,14494,128,0,14968:0:0:0:0:
298,192,15126,128,0,15599:0:0:0:0:
128,192,15757,128,0,15994:0:0:0:0:
213,192,16231,1,0,0:0:0:0:
298,192,16389,1,0,0:0:0:0:
298,192,16705,128,0,16863:0:0:0:0:
213,192,17178,1,0,0:0:0:0:
128,192,17336,1,0,0:0:0:0:
213,192,17494,1,0,0:0:0:0:
384,192,17652,128,0,17810:0:0:0:0:
298,192,17968,1,0,0:0:0:0:
213,192,18126,1,0,0:0:0:0:
384,192,18284,128,0,18441:0:0:0:0:
298,192,18599,1,0,0:0:0:0:
213,192,18757,1,0,0:0:0:0:
128,192,18915,128,0,19073:0:0:0:0:
298,192,19231,128,0,19389:0:0:0:0:
213,192,19547,128,2,19941:0:0:0:0:
298,192,20178,128,2,20573:0:0:0:0:
128,192,20810,128,2,21284:0:0:0:0:
384,192,21441,128,2,21836:0:0:0:0:
469,192,22073,128,0,22547:0:0:0:0:
213,192,22705,128,0,23178:0:0:0:0:
298,192,23336,128,0,23810:0:0:0:0:
213,192,23968,1,0,0:0:0:0:
213,192,24126,1,0,0:0:0:0:
128,192,24284,1,0,0:0:0:0:
384,192,24599,128,0,25073:0:0:0:0:
213,192,25231,128,0,25705:0:0:0:0:
128,192,25863,1,0,0:0:0:0:
128,192,26494,128,0,26652:0:0:0:0:
384,192,26494,128,0,26652:0:0:0:0:
298,192,26810,1,0,0:0:0:0:
213,192,26810,1,0,0:0:0:0:
213,192,27284,1,0,0:0:0:0:
298,192,27441,1,0,0:0:0:0:
213,192,27599,1,0,0:0:0:0:
384,192,27757,128,0,27915:0:0:0:0:
298,192,28073,1,0,0:0:0:0:
128,192,28231,1,0,0:0:0:0:
128,192,28389,1,0,0:0:0:0:
213,192,28547,1,0,0:0:0:0:
298,192,28705,1,0,0:0:0:0:
298,192,28863,1,0,0:0:0:0:
213,192,29020,128,0,29178:0:0:0:0:
128,192,29336,128,0,29494:0:0:0:0:
213,192,29652,128,0,29968:0:0:0:0:
128,192,29652,128,0,29968:0:0:0:0:
298,192,30284,128,0,30599:0:0:0:0:
384,192,30284,128,0,30599:0:0:0:0:
298,192,30757,1,0,0:0:0:0:
298,192,30915,128,0,31073:0:0:0:0:
213,192,30915,128,0,31073:0:0:0:0:
128,192,31231,128,0,31389:0:0:0:0:
298,192,31231,128,0,31389:0:0:0:0:
213,192,31547,128,0,31863:0:0:0:0:
384,192,31547,128,0,31863:0:0:0:0:
469,192,32178,128,2,32336:0:0:0:0:
384,192,32494,1,2,0:0:0:0:
298,192,32652,128,2,32968:0:0:0:0:
213,192,33126,1,2,0:0:0:0:
128,192,33284,1,2,0:0:0:0:
298,192,33441,128,2,33599:0:0:0:0:
213,192,33757,1,2,0:0:0:0:
384,192,33915,128,2,34231:0:0:0:0:
298,192,34705,128,2,34863:0:0:0:0:
298,192,35020,1,2,0:0:0:0:
213,192,35178,128,2,35336:0:0:0:0:
384,192,35494,128,2,35652:0:0:0:0:
298,192,35810,1,2,0:0:0:0:
469,192,35968,128,2,36126:0:0:0:0:
298,192,36284,1,2,0:0:0:0:
213,192,36441,128,2,36599:0:0:0:0:
213,192,36757,128,2,37073:0:0:0:0:
384,192,37547,128,0,37705:0:0:0:0:
469,192,37547,128,0,37705:0:0:0:0:
298,192,37863,128,0,38020:0:0:0:0:
213,192,37863,128,0,38020:0:0:0:0:
213,192,38178,1,0,0:0:0:0:
128,192,38178,1,0,0:0:0:0:
298,192,38336,128,0,38494:0:0:0:0:
213,192,38336,128,0,38494:0:0:0:0:
384,192,38652,128,0,38810:0:0:0:0:
298,192,38968,1,0,0:0:0:0:
128,192,39126,1,0,0:0:0:0:
213,192,39284,128,0,39599:0:0:0:0:
384,192,40073,128,0,40231:0:0:0:0:
469,192,40073,128,0,40231:0:0:0:0:
298,192,40389,128,0,40547:0:0:0:0:
213,192,40389,128,0,40547:0:0:0:0:
128,192,40705,128,0,40863:0:0:0:0:
213,192,40705,128,0,40863:0:0:0:0:
128,192,41020,128,4,41494:0:0:0:0:
384,192,41020,128,4,41494:0:0:0:0:
298,192,41652,128,4,42126:0:0:0:0:
42,192,41652,128,4,42126:0:0:0:0:
384,192,42284,128,2,42441:0:0:0:0:
384,192,42599,1,2,0:0:0:0:
213,192,42757,128,2,43073:0:0:0:0:
298,192,43231,1,2,0:0:0:0:
384,192,43389,1,2,0:0:0:0:
469,192,43547,128,2,44020:0:0:0:0:
298,192,44178,128,2,44336:0:0:0:0:
384,192,44494,128,2,44652:0:0:0:0:
469,192,44810,128,2,45284:0:0:0:0:
298,192,45757,1,2,0:0:0:0:
384,192,45757,1,2,0:0:0:0:
384,192,46073,128,2,46547:0:0:0:0:
469,192,46705,128,2,47178:0:0:0:0:
384,192,47652,1,0,0:0:0:0:
213,192,47652,1,0,0:0:0:0:
298,192,47968,1,0,0:0:0:0:
128,192,47968,1,0,0:0:0:0:
213,192,48284,1,0,0:0:0:0:
213,192,48441,1,0,0:0:0:0:
298,192,48757,128,0,48915:0:0:0:0:
213,192,49073,1,0,0:0:0:0:
298,192,49231,1,0,0:0:0:0:
384,192,49389,1,0,0:0:0:0:
469,192,49705,1,0,0:0:0:0:
469,192,49863,128,0,50020:0:0:0:0:
128,192,50178,1,0,0:0:0:0:
213,192,50494,1,0,0:0:0:0:
384,192,50494,1,0,0:0:0:0:
469,192,50810,1,0,0:0:0:0:
384,192,50810,1,0,0:0:0:0:
213,192,50810,1,0,0:0:0:0:
469,192,51126,128,0,51599:0:0:0:0:
298,192,51126,128,0,51599:0:0:0:0:
384,192,51757,128,0,52231:0:0:0:0:
128,192,51757,128,0,52231:0:0:0:0:
298,192,52547,1,0,0:0:0:0:
213,192,52547,1,0,0:0:0:0:
298,192,52863,1,0,0:0:0:0:
213,192,53020,128,0,53178:0:0:0:0:
128,192,53336,1,0,0:0:0:0:
128,192,53573,1,0,0:0:0:0:
213,192,53652,1,0,0:0:0:0:
298,192,53968,1,0,0:0:0:0:
384,192,53968,1,0,0:0:0:0:
298,192,54126,128,0,54441:0:0:0:0:
384,192,54126,128,0,54441:0:0:0:0:
298,192,54915,128,0,55073:0:0:0:0:
469,192,54915,128,0,55073:0:0:0:0:
298,192,55231,1,0,0:0:0:0:
213,192,55231,1,0,0:0:0:0:
213,192,55389,1,0,0:0:0:0:
298,192,55389,1,0,0:0:0:0:
213,192,55705,1,0,0:0:0:0:
298,192,56020,128,0,56178:0:0:0:0:
469,192,56020,128,0,56178:0:0:0:0:
213,192,56336,128,0,56494:0:0:0:0:
213,192,56652,128,0,56810:0:0:0:0:
128,192,56968,128,0,57126:0:0:0:0:
42,192,57284,1,0,0:0:0:0:
298,192,57441,1,0,0:0:0:0:
213,192,57599,1,0,0:0:0:0:
213,192,57757,1,0,0:0:0:0:
128,192,57915,1,0,0:0:0:0:
298,192,58073,1,0,0:0:0:0:
213,192,58231,1,0,0:0:0:0:
128,192,58389,1,0,0:0:0:0:
213,192,58547,1,0,0:0:0:0:
298,192,58705,1,0,0:0:0:0:
384,192,58863,128,0,59020:0:0:0:0:
469,192,59178,128,0,59810:0:0:0:0:
298,192,60284,128,0,60441:0:0:0:0:
213,192,60284,128,0,60441:0:0:0:0:
298,192,60599,128,0,60757:0:0:0:0:
384,192,60599,128,0,60757:0:0:0:0:
128,192,60915,1,0,0:0:0:0:
298,192,60915,1,0,0:0:0:0:
384,192,61073,128,0,61626:0:0:0:0:
469,192,61073,128,0,61626:0:0:0:0:
469,192,61863,128,0,62020:0:0:0:0:
298,192,61863,128,0,62020:0:0:0:0:
213,192,62178,1,0,0:0:0:0:
384,192,62336,128,0,63284:0:0:0:0:
213,192,62336,128,0,63284:0:0:0:0:
298,192,63915,1,0,0:0:0:0:
42,192,64073,1,0,0:0:0:0:
213,192,64231,1,0,0:0:0:0:
469,192,64389,1,0,0:0:0:0:
384,192,64547,128,4,64705:0:0:0:0:
298,192,65020,128,0,65178:0:0:0:0:
469,192,65020,128,0,65178:0:0:0:0:
213,192,65336,1,0,0:0:0:0:
298,192,65336,1,0,0:0:0:0:
213,192,65494,128,0,65652:0:0:0:0:
298,192,65810,128,0,65968:0:0:0:0:
298,192,66126,128,0,66284:0:0:0:0:
384,192,66126,128,0,66284:0:0:0:0:
213,192,66441,128,0,66599:0:0:0:0:
298,192,66757,128,0,66915:0:0:0:0:
128,192,66757,128,0,66915:0:0:0:0:
42,192,67073,128,0,67231:0:0:0:0:
42,192,67389,1,0,0:0:0:0:
213,192,67547,1,0,0:0:0:0:
42,192,67705,1,0,0:0:0:0:
128,192,67863,1,0,0:0:0:0:
213,192,68020,1,0,0:0:0:0:
128,192,68178,1,0,0:0:0:0:
384,192,68336,1,0,0:0:0:0:
213,192,68494,1,0,0:0:0:0:
128,192,68652,1,0,0:0:0:0:
213,192,68810,128,4,69126:0:0:0:0:
384,192,68810,128,4,69126:0:0:0:0:
469,192,69284,128,4,69599:0:0:0:0:
298,192,69284,128,4,69599:0:0:0:0:
469,192,69757,128,4,69915:0:0:0:0:
384,192,69757,128,4,69915:0:0:0:0:
42,192,70073,128,0,71099:0:0:0:0:
128,192,70073,128,0,71099:0:0:0:0:
213,192,71336,128,0,72047:0:0:0:0:
128,192,71336,128,0,72047:0:0:0:0:
298,192,72441,1,0,0:0:0:0:
298,192,72599,128,0,73705:0:0:0:0:
128,192,72599,128,0,73705:0:0:0:0:
384,192,73863,128,0,74889:0:0:0:0:
213,192,73863,128,0,74889:0:0:0:0:
384,192,75126,128,0,76152:0:0:0:0:
298,192,75126,128,0,76152:0:0:0:0:
469,192,76389,128,0,77336:0:0:0:0:
384,192,76389,128,0,77336:0:0:0:0:
298,192,77494,1,0,0:0:0:0:
213,192,77652,128,0,78678:0:0:0:0:
469,192,79231,1,0,0:0:0:0:
298,192,79231,1,0,0:0:0:0:
213,192,79231,1,0,0:0:0:0:
42,192,79231,1,0,0:0:0:0:
384,192,79547,1,0,0:0:0:0:
298,192,79547,1,0,0:0:0:0:
213,192,79547,1,0,0:0:0:0:
128,192,79547,1,0,0:0:0:0:
469,192,79863,1,0,0:0:0:0:
298,192,79863,1,0,0:0:0:0:
213,192,79863,1,0,0:0:0:0:
42,192,79863,1,0,0:0:0:0:
469,192,80178,128,4,80968:0:0:0:0:
128,192,80178,128,4,80968:0:0:0:0:
384,192,80178,128,4,80968:0:0:0:0:
42,192,80178,128,4,80968:0:0:0:0:
128,192,81441,1,0,0:0:0:0:
42,192,81599,1,0,0:0:0:0:
213,192,81757,1,0,0:0:0:0:
298,192,81915,128,0,82073:0:0:0:0:
128,192,82231,1,0,0:0:0:0:
213,192,82389,1,0,0:0:0:0:
128,192,82547,1,0,0:0:0:0:
213,192,82705,1,0,0:0:0:0:
298,192,82863,128,0,83020:0:0:0:0:
213,192,83178,1,0,0:0:0:0:
469,192,83336,128,4,83494:0:0:0:0:
384,192,83652,128,4,83810:0:0:0:0:
42,192,83968,1,0,0:0:0:0:
213,192,84126,1,0,0:0:0:0:
298,192,84284,1,0,0:0:0:0:
213,192,84441,128,0,84599:0:0:0:0:
128,192,84757,1,0,0:0:0:0:
213,192,84915,1,0,0:0:0:0:
298,192,85073,1,0,0:0:0:0:
213,192,85231,1,0,0:0:0:0:
298,192,85389,1,0,0:0:0:0:
469,192,85547,1,0,0:0:0:0:
298,192,85705,1,0,0:0:0:0:
384,192,85863,128,4,86099:0:0:0:0:
42,192,86494,128,0,88705:0:0:0:0:
128,192,86494,128,0,88705:0:0:0:0:
469,192,87126,128,0,88705:0:0:0:0:
298,192,87126,128,0,88705:0:0:0:0:
213,192,87757,128,0,88705:0:0:0:0:
384,192,88389,128,0,88705:0:0:0:0:
213,192,94073,132,0,94547:0:0:0:0:
384,192,94073,128,0,94547:0:0:0:0:
213,192,94705,128,0,95178:0:0:0:0:
128,192,94705,128,0,95178:0:0:0:0:
42,192,95336,128,0,95652:0:0:0:0:
128,192,95336,128,0,95652:0:0:0:0:
128,192,95968,1,0,0:0:0:0:
213,192,96126,1,0,0:0:0:0:
42,192,96284,1,0,0:0:0:0:
298,192,96441,1,0,0:0:0:0:
384,192,96599,128,0,97073:0:0:0:0:
213,192,97231,128,0,97705:0:0:0:0:
42,192,97863,128,0,98020:0:0:0:0:
128,192,98336,1,0,0:0:0:0:
128,192,98494,1,0,0:0:0:0:
213,192,98810,128,0,98968:0:0:0:0:
213,192,99284,1,0,0:0:0:0:
298,192,99441,1,0,0:0:0:0:
128,192,99599,1,0,0:0:0:0:
213,192,99757,1,0,0:0:0:0:
213,192,99915,1,0,0:0:0:0:
298,192,100073,1,0,0:0:0:0:
213,192,100231,1,0,0:0:0:0:
42,192,100389,1,0,0:0:0:0:
128,192,100547,1,0,0:0:0:0:
213,192,100705,1,0,0:0:0:0:
298,192,100863,1,0,0:0:0:0:
469,192,101020,128,0,101178:0:0:0:0:
213,192,101336,128,0,101494:0:0:0:0:
384,192,101652,128,2,102126:0:0:0:0:
298,192,102284,128,2,102757:0:0:0:0:
213,192,102915,128,2,103389:0:0:0:0:
469,192,103547,128,2,104020:0:0:0:0:
384,192,104178,128,0,104652:0:0:0:0:
128,192,104178,128,0,104652:0:0:0:0:
213,192,104810,128,0,105126:0:0:0:0:
213,192,105284,1,0,0:0:0:0:
42,192,105441,128,0,105915:0:0:0:0:
298,192,106073,1,0,0:0:0:0:
298,192,106231,1,0,0:0:0:0:
298,192,106389,1,0,0:0:0:0:
298,192,106705,128,0,107178:0:0:0:0:
469,192,106705,128,0,107178:0:0:0:0:
298,192,107336,128,0,107810:0:0:0:0:
128,192,107336,128,0,107810:0:0:0:0:
42,192,107968,128,0,108441:0:0:0:0:
128,192,107968,128,0,108441:0:0:0:0:
213,192,108599,128,4,108757:0:0:0:0:
298,192,108599,128,4,108757:0:0:0:0:
298,192,108915,128,4,109073:0:0:0:0:
213,192,108915,128,4,109073:0:0:0:0:
42,192,109389,1,0,0:0:0:0:
213,192,109547,1,0,0:0:0:0:
298,192,109705,1,0,0:0:0:0:
128,192,109863,1,0,0:0:0:0:
213,192,110020,1,0,0:0:0:0:
298,192,110178,1,0,0:0:0:0:
128,192,110336,1,0,0:0:0:0:
298,192,110494,1,0,0:0:0:0:
213,192,110652,1,0,0:0:0:0:
384,192,110810,1,0,0:0:0:0:
384,192,110968,1,0,0:0:0:0:
469,192,111126,128,0,111284:0:0:0:0:
298,192,111441,128,0,111599:0:0:0:0:
384,192,111757,128,2,112231:0:0:0:0:
298,192,112389,128,2,112863:0:0:0:0:
213,192,113020,128,2,113178:0:0:0:0:
384,192,113336,128,2,113494:0:0:0:0:
298,192,113652,128,2,114126:0:0:0:0:
42,192,114284,128,0,114441:0:0:0:0:
469,192,114284,128,0,114441:0:0:0:0:
213,192,114599,1,0,0:0:0:0:
384,192,114757,128,0,115073:0:0:0:0:
298,192,115231,1,0,0:0:0:0:
213,192,115389,1,0,0:0:0:0:
384,192,115547,128,0,115705:0:0:0:0:
298,192,115863,1,0,0:0:0:0:
469,192,116020,128,0,116494:0:0:0:0:
469,192,116810,128,0,116968:0:0:0:0:
42,192,116810,128,0,116968:0:0:0:0:
298,192,117126,1,0,0:0:0:0:
213,192,117284,128,0,117441:0:0:0:0:
298,192,117599,128,0,117757:0:0:0:0:
213,192,117915,1,0,0:0:0:0:
469,192,118073,128,0,118231:0:0:0:0:
298,192,118389,1,0,0:0:0:0:
298,192,118547,1,0,0:0:0:0:
384,192,118863,128,0,119178:0:0:0:0:
128,192,119494,1,0,0:0:0:0:
298,192,119652,1,0,0:0:0:0:
213,192,119810,1,0,0:0:0:0:
298,192,119968,1,0,0:0:0:0:
42,192,120284,1,0,0:0:0:0:
469,192,120599,1,4,0:0:0:0:
384,192,120599,1,4,0:0:0:0:
298,192,120599,1,4,0:0:0:0:
128,192,120757,1,0,0:0:0:0:
298,192,120915,1,0,0:0:0:0:
213,192,121073,1,0,0:0:0:0:
298,192,121231,1,0,0:0:0:0:
42,192,121547,1,0,0:0:0:0:
298,192,121863,1,4,0:0:0:0:
384,192,121863,1,4,0:0:0:0:
469,192,121863,1,4,0:0:0:0:
298,192,122020,1,0,0:0:0:0:
213,192,122178,1,0,0:0:0:0:
128,192,122336,1,0,0:0:0:0:
298,192,122494,1,0,0:0:0:0:
469,192,122810,1,0,0:0:0:0:
469,192,123126,1,4,0:0:0:0:
42,192,123126,1,4,0:0:0:0:
128,192,123441,1,4,0:0:0:0:
384,192,123441,1,4,0:0:0:0:
213,192,123757,1,4,0:0:0:0:
42,192,123757,1,4,0:0:0:0:
298,192,123757,1,4,0:0:0:0:
469,192,123757,1,4,0:0:0:0:
384,192,123757,1,4,0:0:0:0:
128,192,123757,1,4,0:0:0:0:
384,192,124389,128,2,124547:0:0:0:0:
213,192,124705,1,2,0:0:0:0:
298,192,124863,128,2,125020:0:0:0:0:
298,192,125336,1,2,0:0:0:0:
298,192,125494,1,2,0:0:0:0:
469,192,125652,128,2,126126:0:0:0:0:
128,192,126284,128,2,126441:0:0:0:0:
298,192,126599,128,2,126757:0:0:0:0:
469,192,126915,128,2,127389:0:0:0:0:
42,192,127863,128,2,128020:0:0:0:0:
213,192,128178,128,2,128652:0:0:0:0:
469,192,128810,128,2,129284:0:0:0:0:
469,192,129441,1,0,0:0:0:0:
213,192,129441,1,0,0:0:0:0:
128,192,129599,1,0,0:0:0:0:
384,192,129599,1,0,0:0:0:0:
298,192,129757,128,0,130231:0:0:0:0:
42,192,129757,128,0,130231:0:0:0:0:
128,192,130073,128,4,130547:0:0:0:0:
384,192,130073,128,4,130547:0:0:0:0:
469,192,130705,1,0,0:0:0:0:
213,192,130705,1,0,0:0:0:0:
384,192,130863,1,0,0:0:0:0:
128,192,130863,1,0,0:0:0:0:
298,192,131020,128,0,131494:0:0:0:0:
42,192,131020,128,0,131494:0:0:0:0:
128,192,131336,128,4,131810:0:0:0:0:
384,192,131336,128,4,131810:0:0:0:0:
469,192,131968,1,0,0:0:0:0:
213,192,131968,1,0,0:0:0:0:
384,192,132126,1,0,0:0:0:0:
128,192,132126,1,0,0:0:0:0:
469,192,132284,128,0,132915:0:0:0:0:
213,192,132284,128,0,132915:0:0:0:0:
128,192,132599,128,4,133073:0:0:0:0:
384,192,132599,128,4,133073:0:0:0:0:
469,192,133231,128,4,133389:0:0:0:0:
42,192,133231,128,4,133389:0:0:0:0:
469,192,133547,128,4,133705:0:0:0:0:
384,192,133547,128,4,133705:0:0:0:0:
128,192,133547,128,4,133705:0:0:0:0:
42,192,133547,128,4,133705:0:0:0:0:
42,192,133863,128,4,134336:1:0:0:0:
128,192,133863,128,4,134336:1:0:0:0:
213,192,133863,128,4,134336:1:0:0:0:
298,192,133863,128,4,134336:1:0:0:0:
384,192,133863,128,4,134336:1:0:0:0:
469,192,133863,128,4,134336:1:0:0:0:
384,192,137178,128,0,137336:0:0:0:0:
469,192,137178,128,0,137336:0:0:0:0:
298,192,137494,1,0,0:0:0:0:
213,192,137494,1,0,0:0:0:0:
384,192,137652,1,0,0:0:0:0:
298,192,137652,1,0,0:0:0:0:
469,192,137968,1,0,0:0:0:0:
384,192,137968,1,0,0:0:0:0:
213,192,138126,1,0,0:0:0:0:
298,192,138284,1,0,0:0:0:0:
213,192,138441,1,0,0:0:0:0:
298,192,138599,1,0,0:0:0:0:
384,192,138757,128,0,139389:0:0:0:0:
298,192,142073,128,0,142231:0:0:0:0:
469,192,142073,128,0,142231:0:0:0:0:
213,192,142389,1,0,0:0:0:0:
298,192,142547,128,0,142705:0:0:0:0:
128,192,142863,128,0,143020:0:0:0:0:
384,192,143178,128,4,143336:0:0:0:0:
213,192,143494,128,0,143652:0:0:0:0:
42,192,143810,128,0,143968:0:0:0:0:
213,192,144126,128,0,144284:0:0:0:0:
298,192,144441,1,0,0:0:0:0:
298,192,144599,1,0,0:0:0:0:
213,192,144757,1,0,0:0:0:0:
128,192,144915,1,0,0:0:0:0:
128,192,145073,1,0,0:0:0:0:
298,192,145231,1,0,0:0:0:0:
298,192,145389,1,0,0:0:0:0:
213,192,145547,1,0,0:0:0:0:
128,192,145705,1,0,0:0:0:0:
42,192,145863,1,0,0:0:0:0:
298,192,146020,128,0,146178:0:0:0:0:
128,192,146336,128,0,146968:0:0:0:0:
213,192,147441,128,0,147599:0:0:0:0:
384,192,147441,128,0,147599:0:0:0:0:
384,192,147757,128,0,147915:0:0:0:0:
213,192,147757,128,0,147915:0:0:0:0:
384,192,148073,1,0,0:0:0:0:
469,192,148231,128,4,148863:0:0:0:0:
298,192,148231,128,4,148863:0:0:0:0:
469,192,149020,128,0,149178:0:0:0:0:
298,192,149336,1,0,0:0:0:0:
384,192,149494,128,4,150757:0:0:0:0:
298,192,151073,1,0,0:0:0:0:
213,192,151231,1,0,0:0:0:0:
213,192,151389,1,0,0:0:0:0:
469,192,151547,1,0,0:0:0:0:
298,192,151705,128,0,151863:0:0:0:0:
384,192,151705,128,0,151863:0:0:0:0:
298,192,152178,128,0,152336:0:0:0:0:
213,192,152494,1,0,0:0:0:0:
213,192,152652,128,0,152810:0:0:0:0:
469,192,152968,128,0,153126:0:0:0:0:
384,192,153284,128,0,153441:0:0:0:0:
213,192,153599,128,0,153757:0:0:0:0:
128,192,153915,128,0,154073:0:0:0:0:
42,192,154231,128,0,154389:0:0:0:0:
213,192,154547,1,0,0:0:0:0:
213,192,154705,1,0,0:0:0:0:
128,192,154863,1,0,0:0:0:0:
42,192,155020,1,0,0:0:0:0:
128,192,155178,1,0,0:0:0:0:
42,192,155336,1,0,0:0:0:0:
128,192,155494,1,0,0:0:0:0:
128,192,155652,1,0,0:0:0:0:
213,192,155810,1,0,0:0:0:0:
298,192,155968,128,4,156284:0:0:0:0:
384,192,156441,128,4,156757:0:0:0:0:
469,192,156915,128,4,157073:0:0:0:0:
213,192,157231,128,0,158020:0:0:0:0:
298,192,158494,128,0,159441:0:0:0:0:
298,192,159599,1,0,0:0:0:0:
213,192,159757,128,0,160863:0:0:0:0:
298,192,161020,128,0,162126:0:0:0:0:
384,192,162284,128,0,163389:0:0:0:0:
469,192,163547,128,4,164494:0:0:0:0:
384,192,164652,1,0,0:0:0:0:
213,192,164810,128,4,165757:0:0:0:0:
469,192,166389,1,0,0:0:0:0:
298,192,166389,1,0,0:0:0:0:
213,192,166705,1,0,0:0:0:0:
384,192,166705,1,0,0:0:0:0:
298,192,167020,1,0,0:0:0:0:
128,192,167020,1,0,0:0:0:0:
298,192,167336,128,4,168126:0:0:0:0:
469,192,167336,128,4,168126:0:0:0:0:
128,192,168599,1,0,0:0:0:0:
42,192,168757,1,0,0:0:0:0:
213,192,168915,1,0,0:0:0:0:
298,192,169073,128,0,169231:0:0:0:0:
128,192,169389,1,0,0:0:0:0:
42,192,169547,1,0,0:0:0:0:
213,192,169705,1,0,0:0:0:0:
298,192,169863,1,0,0:0:0:0:
213,192,170020,128,0,170178:0:0:0:0:
213,192,170336,1,0,0:0:0:0:
384,192,170494,128,4,170652:0:0:0:0:
298,192,170810,128,4,170968:0:0:0:0:
469,192,171126,1,0,0:0:0:0:
298,192,171284,1,0,0:0:0:0:
213,192,171441,1,0,0:0:0:0:
384,192,171599,128,0,171757:0:0:0:0:
128,192,171915,1,0,0:0:0:0:
213,192,172073,1,0,0:0:0:0:
213,192,172231,1,0,0:0:0:0:
298,192,172389,1,0,0:0:0:0:
213,192,172547,1,0,0:0:0:0:
298,192,172705,1,0,0:0:0:0:
298,192,172863,1,0,0:0:0:0:
469,192,173020,128,0,173257:0:0:0:0:
298,192,173652,128,4,174126:0:0:0:0:
128,192,173652,128,4,174126:0:0:0:0:
213,192,174284,128,4,174757:0:0:0:0:
384,192,174284,128,4,174757:0:0:0:0:
213,192,174915,128,4,175389:0:0:0:0:
42,192,174915,128,4,175389:0:0:0:0:
128,192,175547,128,4,176020:0:0:0:0:
469,192,175547,128,4,176020:0:0:0:0:
469,192,176810,1,0,0:0:0:0:
42,192,176810,1,0,0:0:0:0:
469,192,177126,1,0,0:0:0:0:
42,192,177126,1,0,0:0:0:0:
298,192,188178,5,2,0:0:0:0:
298,192,188494,1,2,0:0:0:0:
384,192,188810,1,2,0:0:0:0:
213,192,188810,1,2,0:0:0:0:
384,192,189126,1,2,0:0:0:0:
298,192,189441,1,2,0:0:0:0:
213,192,189757,1,2,0:0:0:0:
42,192,190073,128,2,190389:0:0:0:0:
213,192,190547,1,2,0:0:0:0:
128,192,190705,128,2,191020:0:0:0:0:
128,192,191178,1,2,0:0:0:0:
42,192,191336,128,2,191494:0:0:0:0:
469,192,191968,1,0,0:0:0:0:
298,192,191968,1,0,0:0:0:0:
384,192,192284,1,0,0:0:0:0:
213,192,192284,1,0,0:0:0:0:
298,192,192599,128,0,193705:0:0:0:0:
213,192,193863,128,0,194968:0:0:0:0:
128,192,195126,128,0,196231:0:0:0:0:
298,192,196705,1,0,0:0:0:0:
213,192,196863,1,0,0:0:0:0:
384,192,197020,1,0,0:0:0:0:
298,192,197178,128,0,197494:0:0:0:0:
384,192,197968,1,0,0:0:0:0:
298,192,198126,1,0,0:0:0:0:
213,192,198284,1,0,0:0:0:0:
298,192,198441,128,0,198599:0:0:0:0:
469,192,198757,128,0,199073:0:0:0:0:
298,192,199231,1,0,0:0:0:0:
213,192,199389,128,0,199547:0:0:0:0:
42,192,199705,128,0,199863:0:0:0:0:
469,192,200178,1,0,0:0:0:0:
42,192,200178,1,0,0:0:0:0:
298,192,200336,1,0,0:0:0:0:
213,192,200652,1,0,0:0:0:0:
298,192,200968,1,0,0:0:0:0:
384,192,201284,128,0,202231:0:0:0:0:
384,192,202705,128,0,202863:0:0:0:0:
128,192,203020,1,0,0:0:0:0:
213,192,203178,128,0,203336:0:0:0:0:
213,192,203494,1,0,0:0:0:0:
298,192,203810,128,0,203968:0:0:0:0:
298,192,204126,128,0,204284:0:0:0:0:
213,192,204441,128,0,204599:0:0:0:0:
42,192,204757,128,0,204915:0:0:0:0:
128,192,205073,1,0,0:0:0:0:
213,192,205231,1,0,0:0:0:0:
298,192,205389,1,0,0:0:0:0:
213,192,205547,1,0,0:0:0:0:
128,192,205705,1,0,0:0:0:0:
384,192,205863,1,0,0:0:0:0:
213,192,206020,1,0,0:0:0:0:
128,192,206178,1,0,0:0:0:0:
213,192,206336,1,0,0:0:0:0:
469,192,206494,1,0,0:0:0:0:
42,192,206652,128,0,206810:0:0:0:0:
213,192,206968,128,0,207284:0:0:0:0:
298,192,207757,128,4,208863:0:0:0:0:
213,192,207757,128,4,208863:0:0:0:0:
469,192,209020,128,4,209968:0:0:0:0:
42,192,209020,128,4,209968:0:0:0:0:
384,192,210126,1,0,0:0:0:0:
128,192,210126,1,0,0:0:0:0:
384,192,210284,128,4,212652:0:0:0:0:
128,192,210284,128,4,212652:0:0:0:0:
469,192,214389,128,0,214547:0:0:0:0:
298,192,214389,128,0,214547:0:0:0:0:
384,192,214705,128,0,214863:0:0:0:0:
213,192,214705,128,0,214863:0:0:0:0:
298,192,215020,128,0,215178:0:0:0:0:
128,192,215020,128,0,215178:0:0:0:0:
213,192,215336,128,4,217389:0:0:0:0:
42,192,215336,128,4,217389:0:0:0:0:
469,192,217863,128,4,218020:0:0:0:0:
298,192,217863,128,4,218020:0:0:0:0:
213,192,218178,1,0,0:0:0:0:
298,192,218336,128,0,218494:0:0:0:0:
128,192,218652,128,0,218810:0:0:0:0:
384,192,218968,128,4,219126:0:0:0:0:
213,192,219284,128,0,219441:0:0:0:0:
128,192,219599,128,0,219757:0:0:0:0:
42,192,219915,128,0,220073:0:0:0:0:
298,192,220231,1,0,0:0:0:0:
469,192,220389,1,0,0:0:0:0:
213,192,220547,1,0,0:0:0:0:
128,192,220705,1,0,0:0:0:0:
42,192,220863,1,0,0:0:0:0:
298,192,221020,1,0,0:0:0:0:
298,192,221178,1,0,0:0:0:0:
213,192,221336,1,0,0:0:0:0:
128,192,221494,1,0,0:0:0:0:
42,192,221652,1,0,0:0:0:0:
128,192,221810,128,0,221968:0:0:0:0:
298,192,222126,128,4,222757:0:0:0:0:
469,192,223231,128,0,223389:0:0:0:0:
128,192,223231,128,0,223389:0:0:0:0:
384,192,223547,128,0,223705:0:0:0:0:
42,192,223547,128,0,223705:0:0:0:0:
384,192,223863,1,0,0:0:0:0:
298,192,224020,128,4,224652:0:0:0:0:
469,192,224020,128,4,224652:0:0:0:0:
469,192,224810,128,0,224968:0:0:0:0:
298,192,225126,1,0,0:0:0:0:
384,192,225284,128,4,226547:0:0:0:0:
213,192,226863,1,0,0:0:0:0:
128,192,227020,1,0,0:0:0:0:
213,192,227178,1,0,0:0:0:0:
469,192,227336,1,0,0:0:0:0:
298,192,227494,128,0,227652:0:0:0:0:
384,192,227494,128,0,227652:0:0:0:0:
298,192,227968,128,0,228126:0:0:0:0:
213,192,228284,1,0,0:0:0:0:
213,192,228441,128,0,228599:0:0:0:0:
384,192,228757,128,0,228915:0:0:0:0:
469,192,229073,128,0,229231:0:0:0:0:
213,192,229389,128,0,229547:0:0:0:0:
42,192,229705,128,0,229863:0:0:0:0:
298,192,230020,128,0,230178:0:0:0:0:
213,192,230336,1,0,0:0:0:0:
213,192,230494,1,0,0:0:0:0:
128,192,230652,1,0,0:0:0:0:
42,192,230810,1,0,0:0:0:0:
128,192,230968,1,0,0:0:0:0:
42,192,231126,1,0,0:0:0:0:
128,192,231284,1,0,0:0:0:0:
128,192,231441,1,0,0:0:0:0:
213,192,231599,1,0,0:0:0:0:
298,192,231757,128,4,232073:0:0:0:0:
384,192,232231,128,4,232547:0:0:0:0:
469,192,232705,128,4,232863:0:0:0:0:
213,192,233020,128,0,234126:0:0:0:0:
298,192,234284,128,0,235231:0:0:0:0:
213,192,235389,1,0,0:0:0:0:
213,192,235547,128,0,236652:0:0:0:0:
298,192,236810,128,0,237915:0:0:0:0:
384,192,238073,128,0,239178:0:0:0:0:
469,192,239336,128,4,240284:0:0:0:0:
384,192,240441,1,0,0:0:0:0:
213,192,240599,128,4,241705:0:0:0:0:
469,192,242178,1,0,0:0:0:0:
298,192,242178,1,0,0:0:0:0:
213,192,242494,1,0,0:0:0:0:
384,192,242494,1,0,0:0:0:0:
298,192,242810,1,0,0:0:0:0:
128,192,242810,1,0,0:0:0:0:
298,192,243126,128,4,243915:0:0:0:0:
469,192,243126,128,4,243915:0:0:0:0:
128,192,244389,1,0,0:0:0:0:
42,192,244547,1,0,0:0:0:0:
213,192,244705,1,0,0:0:0:0:
298,192,244863,128,0,245020:0:0:0:0:
128,192,245178,1,0,0:0:0:0:
42,192,245336,1,0,0:0:0:0:
213,192,245494,1,0,0:0:0:0:
298,192,245652,1,0,0:0:0:0:
213,192,245810,128,0,245968:0:0:0:0:
213,192,246126,1,0,0:0:0:0:
469,192,246284,128,4,246441:0:0:0:0:
298,192,246599,128,4,246757:0:0:0:0:
469,192,246915,1,0,0:0:0:0:
298,192,247073,1,0,0:0:0:0:
213,192,247231,1,0,0:0:0:0:
384,192,247389,128,0,247547:0:0:0:0:
128,192,247705,1,0,0:0:0:0:
298,192,247863,1,0,0:0:0:0:
298,192,248020,1,0,0:0:0:0:
42,192,248178,1,0,0:0:0:0:
213,192,248336,1,0,0:0:0:0:
298,192,248494,1,0,0:0:0:0:
213,192,248652,1,0,0:0:0:0:
469,192,248810,128,4,249047:0:0:0:0:
469,192,249441,128,0,251810:0:0:0:0:
213,192,250073,128,0,251810:0:0:0:0:
384,192,250073,128,0,251810:0:0:0:0:
128,192,250705,128,0,251810:0:0:0:0:
298,192,250705,128,0,251810:0:0:0:0:
42,192,251336,128,0,251810:0:0:0:0:
