osu file format v14

[General]
AudioFilename: audio.mp3
AudioLeadIn: 0
PreviewTime: -1
Countdown: 0
SampleSet: Soft
StackLeniency: 0.7
Mode: 3
LetterboxInBreaks: 0
SpecialStyle: 0
WidescreenStoryboard: 1

[Editor]
Bookmarks: -31,6994,11968,22073,32100,37389,42284,47415,54836,88942,93994,104099,114284,124389,141994,177442,187626,197889,202705,217863,255442
DistanceSpacing: 1
BeatDivisor: 4
GridSize: 16
TimelineZoom: 0.6999999

[Metadata]
Title:Redo
TitleUnicode:Redo
Artist:Suzuki Konomi
ArtistUnicode:鈴木このみ
Creator:Gabeh
Version:Felt - 4K Easy
Source:Re: Zero Kara Hajimeru Isekai Seikatsu
Tags:
BeatmapID:1370944
BeatmapSetID:647126

[Difficulty]
HPDrainRate:6
CircleSize:4
OverallDifficulty:7
ApproachRate:5
SliderMultiplier:1.4
SliderTickRate:1

[Events]
//Background and Video events
0,0,"emilia.jpg",0,0
//Break Periods
2,32378,35557
2,42326,46136
2,89141,92873
2,114326,117189
2,123957,128241
2,177326,186978
2,201642,206557
//Storyboard Layer 0 (Background)
//Storyboard Layer 1 (Fail)
//Storyboard Layer 2 (Pass)
//Storyboard Layer 3 (Foreground)
//Storyboard Sound Samples

[TimingPoints]
1863,315.789473684211,4,2,0,100,1,0
54915,-100,4,2,0,100,0,1
88941,-100,4,2,0,100,0,0
142075,-100,4,2,0,100,0,1
177441,-100,4,2,0,100,0,0
217863,-100,4,2,0,100,0,1
251962,-100,4,2,0,100,0,0

[HitObjects]
320,192,1863,5,0,0:0:0:0:
320,192,3126,1,0,0:0:0:0:
192,192,4389,1,0,0:0:0:0:
192,192,5652,5,0,0:0:0:0:
192,192,6915,1,0,0:0:0:0:
320,192,6915,1,0,0:0:0:0:
320,192,8178,1,0,0:0:0:0:
192,192,8178,1,0,0:0:0:0:
192,192,9441,1,0,0:0:0:0:
320,192,9441,1,0,0:0:0:0:
192,192,10705,1,0,0:0:0:0:
320,192,10705,1,0,0:0:0:0:
320,192,11968,1,0,0:0:0:0:
192,192,12599,1,0,0:0:0:0:
64,192,13231,1,0,0:0:0:0:
64,192,13863,1,0,0:0:0:0:
320,192,14178,1,0,0:0:0:0:
448,192,14494,1,0,0:0:0:0:
320,192,15126,1,0,0:0:0:0:
192,192,15757,1,0,0:0:0:0:
320,192,16231,1,0,0:0:0:0:
192,192,16389,1,0,0:0:0:0:
320,192,16705,1,0,0:0:0:0:
192,192,17020,1,0,0:0:0:0:
448,192,17020,1,0,0:0:0:0:
64,192,17652,5,0,0:0:0:0:
320,192,17652,1,0,0:0:0:0:
192,192,18284,1,0,0:0:0:0:
320,192,18284,1,0,0:0:0:0:
448,192,18915,1,0,0:0:0:0:
64,192,18915,1,0,0:0:0:0:
448,192,19231,1,0,0:0:0:0:
64,192,19231,1,0,0:0:0:0:
64,192,19547,128,2,19941:0:0:0:0:
192,192,20178,128,2,20573:0:0:0:0:
320,192,20810,128,2,21205:0:0:0:0:
448,192,21441,128,2,21915:0:0:0:0:
192,192,22073,1,0,0:0:0:0:
192,192,22705,1,0,0:0:0:0:
64,192,23336,1,0,0:0:0:0:
192,192,23968,1,0,0:0:0:0:
320,192,24284,1,0,0:0:0:0:
448,192,24599,1,0,0:0:0:0:
64,192,25231,1,0,0:0:0:0:
320,192,25863,1,0,0:0:0:0:
192,192,26494,1,0,0:0:0:0:
64,192,26810,1,0,0:0:0:0:
192,192,27284,1,0,0:0:0:0:
320,192,27441,1,0,0:0:0:0:
448,192,27599,1,0,0:0:0:0:
320,192,27757,1,0,0:0:0:0:
64,192,28073,1,0,0:0:0:0:
448,192,28389,1,0,0:0:0:0:
192,192,28705,1,0,0:0:0:0:
320,192,29020,1,0,0:0:0:0:
64,192,29336,1,0,0:0:0:0:
64,192,29652,128,2,30126:0:0:0:0:
448,192,30284,128,2,30757:0:0:0:0:
64,192,30915,128,2,31547:0:0:0:0:
448,192,31231,1,2,0:0:0:0:
320,192,31547,1,2,0:0:0:0:
448,192,32178,1,0,0:0:0:0:
448,192,36757,5,0,1:0:0:0:
64,192,36757,1,0,1:0:0:0:
448,192,36915,1,0,1:0:0:0:
64,192,36915,1,0,1:0:0:0:
192,192,37231,1,4,0:0:0:0:
320,192,37231,1,4,0:0:0:0:
448,192,37547,1,0,0:0:0:0:
64,192,37547,1,0,0:0:0:0:
320,192,37863,1,0,0:0:0:0:
192,192,37863,1,0,0:0:0:0:
192,192,38178,1,0,0:0:0:0:
448,192,38336,1,0,0:0:0:0:
320,192,38652,1,0,0:0:0:0:
192,192,38968,1,0,0:0:0:0:
320,192,39126,1,0,0:0:0:0:
64,192,39284,1,0,0:0:0:0:
320,192,39757,1,0,0:0:0:0:
192,192,40073,1,0,0:0:0:0:
64,192,40389,1,0,0:0:0:0:
192,192,40705,1,0,0:0:0:0:
448,192,41020,128,0,41336:0:0:0:0:
64,192,41652,128,0,42126:0:0:0:0:
448,192,47336,5,0,0:0:0:0:
64,192,47336,1,0,0:0:0:0:
448,192,47652,1,0,0:0:0:0:
192,192,47968,1,0,0:0:0:0:
64,192,48284,1,0,0:0:0:0:
64,192,48599,1,0,0:0:0:0:
320,192,48915,1,0,0:0:0:0:
64,192,49073,1,0,0:0:0:0:
192,192,49231,1,0,0:0:0:0:
320,192,49389,1,0,0:0:0:0:
320,192,49705,1,0,0:0:0:0:
192,192,49705,1,0,0:0:0:0:
192,192,49863,1,0,0:0:0:0:
320,192,49863,1,0,0:0:0:0:
64,192,50178,1,0,0:0:0:0:
320,192,50494,1,0,0:0:0:0:
192,192,50810,1,0,0:0:0:0:
448,192,51126,1,0,0:0:0:0:
64,192,51441,1,0,0:0:0:0:
448,192,51757,1,0,0:0:0:0:
192,192,52073,1,0,0:0:0:0:
64,192,52389,1,0,0:0:0:0:
448,192,52389,1,0,0:0:0:0:
320,192,52784,1,0,0:0:0:0:
192,192,52941,1,0,0:0:0:0:
192,192,53257,1,0,0:0:0:0:
320,192,53415,1,0,0:0:0:0:
320,192,53731,1,0,0:0:0:0:
192,192,53889,1,0,0:0:0:0:
448,192,54284,1,0,0:0:0:0:
64,192,54284,1,0,0:0:0:0:
192,192,54599,1,4,0:0:0:0:
320,192,54599,1,4,0:0:0:0:
64,192,54915,1,0,0:0:0:0:
448,192,54915,1,0,0:0:0:0:
192,192,55231,1,0,0:0:0:0:
320,192,55389,1,0,0:0:0:0:
320,192,55705,1,0,0:0:0:0:
448,192,56020,1,0,0:0:0:0:
320,192,56336,1,0,0:0:0:0:
320,192,56652,1,0,0:0:0:0:
192,192,56968,1,0,0:0:0:0:
320,192,57284,1,0,0:0:0:0:
448,192,57441,1,0,0:0:0:0:
64,192,57757,1,0,0:0:0:0:
448,192,58073,1,0,0:0:0:0:
64,192,58389,1,0,0:0:0:0:
448,192,58705,1,0,0:0:0:0:
64,192,59020,1,0,0:0:0:0:
448,192,59336,1,0,0:0:0:0:
64,192,59652,1,0,0:0:0:0:
448,192,59968,1,0,0:0:0:0:
64,192,60284,1,0,0:0:0:0:
192,192,60599,1,0,0:0:0:0:
192,192,60915,1,0,0:0:0:0:
192,192,61073,1,0,0:0:0:0:
64,192,61784,1,0,0:0:0:0:
192,192,61784,1,0,0:0:0:0:
192,192,62178,1,0,0:0:0:0:
320,192,62336,1,0,0:0:0:0:
448,192,62968,1,4,0:0:0:0:
64,192,62968,1,4,0:0:0:0:
64,192,63284,1,4,0:0:0:0:
448,192,63284,1,4,0:0:0:0:
192,192,63599,1,4,0:0:0:0:
320,192,63599,1,4,0:0:0:0:
192,192,63915,1,0,0:0:0:0:
320,192,64073,1,0,0:0:0:0:
448,192,64231,1,0,0:0:0:0:
320,192,64389,1,0,0:0:0:0:
192,192,64547,1,0,0:0:0:0:
448,192,65020,1,0,0:0:0:0:
192,192,65336,1,0,0:0:0:0:
320,192,65652,1,0,0:0:0:0:
448,192,65652,1,0,0:0:0:0:
64,192,65968,1,0,0:0:0:0:
192,192,65968,1,0,0:0:0:0:
448,192,66284,1,0,0:0:0:0:
192,192,66599,1,0,0:0:0:0:
320,192,66915,1,0,0:0:0:0:
192,192,67231,1,0,0:0:0:0:
64,192,67547,1,0,0:0:0:0:
320,192,67863,1,0,0:0:0:0:
64,192,68178,1,0,0:0:0:0:
192,192,68494,1,0,0:0:0:0:
320,192,68810,1,0,0:0:0:0:
448,192,69284,1,0,0:0:0:0:
448,192,69757,1,0,0:0:0:0:
320,192,70073,128,0,71257:0:0:0:0:
64,192,71336,128,0,72441:0:0:0:0:
192,192,72599,128,0,73705:0:0:0:0:
320,192,73863,128,0,74968:0:0:0:0:
448,192,75126,128,0,76231:0:0:0:0:
320,192,76389,128,0,77494:0:0:0:0:
192,192,77652,128,0,78757:0:0:0:0:
448,192,79231,1,0,0:0:0:0:
320,192,79547,1,0,0:0:0:0:
448,192,79863,1,0,0:0:0:0:
320,192,80178,1,4,0:0:0:0:
320,192,80652,1,4,0:0:0:0:
320,192,81126,1,4,0:0:0:0:
320,192,81441,1,0,0:0:0:0:
192,192,81757,1,0,0:0:0:0:
64,192,82073,1,0,0:0:0:0:
192,192,82389,1,0,0:0:0:0:
320,192,82705,1,0,0:0:0:0:
448,192,83020,1,0,0:0:0:0:
320,192,83336,1,0,0:0:0:0:
192,192,83652,1,0,0:0:0:0:
64,192,83968,1,0,0:0:0:0:
320,192,84441,1,0,0:0:0:0:
64,192,84915,1,0,0:0:0:0:
192,192,85389,1,0,0:0:0:0:
448,192,85863,1,0,0:0:0:0:
64,192,86494,128,0,88941:0:0:0:0:
448,192,87126,128,0,88941:0:0:0:0:
192,192,87757,128,0,88941:0:0:0:0:
320,192,88389,128,0,88941:0:0:0:0:
64,192,94073,132,0,94626:0:0:0:0:
448,192,94705,128,0,95099:0:0:0:0:
192,192,95336,128,0,95731:0:0:0:0:
192,192,95968,1,0,0:0:0:0:
192,192,96284,1,0,0:0:0:0:
320,192,96599,128,0,97152:0:0:0:0:
192,192,97231,128,0,97784:0:0:0:0:
64,192,97863,128,0,98257:0:0:0:0:
320,192,98336,1,0,0:0:0:0:
320,192,98494,1,0,0:0:0:0:
192,192,98810,1,0,0:0:0:0:
448,192,99441,1,0,0:0:0:0:
192,192,99757,1,0,0:0:0:0:
320,192,100073,1,0,0:0:0:0:
64,192,100389,1,0,0:0:0:0:
448,192,100389,1,0,0:0:0:0:
64,192,100705,1,0,0:0:0:0:
192,192,100705,1,0,0:0:0:0:
320,192,101020,1,0,0:0:0:0:
448,192,101020,1,0,0:0:0:0:
448,192,101336,1,0,0:0:0:0:
192,192,101336,1,0,0:0:0:0:
320,192,101652,128,2,102205:0:0:0:0:
192,192,102284,128,2,102836:0:0:0:0:
320,192,102915,128,2,103468:0:0:0:0:
192,192,103547,128,2,104020:0:0:0:0:
448,192,104178,1,0,0:0:0:0:
192,192,104494,1,0,0:0:0:0:
320,192,104810,1,0,0:0:0:0:
64,192,105126,1,0,0:0:0:0:
320,192,105441,1,0,0:0:0:0:
192,192,105757,1,0,0:0:0:0:
64,192,106073,1,0,0:0:0:0:
448,192,106389,1,0,0:0:0:0:
192,192,106705,1,0,0:0:0:0:
320,192,107020,1,0,0:0:0:0:
64,192,107336,1,0,0:0:0:0:
320,192,107652,1,0,0:0:0:0:
448,192,107968,1,0,0:0:0:0:
192,192,108284,1,0,0:0:0:0:
448,192,108599,1,0,0:0:0:0:
448,192,108915,1,0,0:0:0:0:
64,192,109231,1,0,0:0:0:0:
192,192,109547,1,0,0:0:0:0:
320,192,109547,1,0,0:0:0:0:
320,192,109863,1,0,0:0:0:0:
448,192,109863,1,0,0:0:0:0:
320,192,110178,1,0,0:0:0:0:
448,192,110178,1,0,0:0:0:0:
64,192,110494,1,0,0:0:0:0:
320,192,110494,1,0,0:0:0:0:
192,192,110810,1,0,0:0:0:0:
448,192,110810,1,0,0:0:0:0:
64,192,111126,1,0,0:0:0:0:
448,192,111126,1,0,0:0:0:0:
64,192,111441,1,0,0:0:0:0:
448,192,111441,1,0,0:0:0:0:
192,192,111757,128,2,112310:0:0:0:0:
320,192,112389,128,2,112941:0:0:0:0:
192,192,113020,1,2,0:0:0:0:
192,192,113336,1,2,0:0:0:0:
448,192,113652,128,2,114126:0:0:0:0:
448,192,118389,5,0,0:0:0:0:
64,192,118547,1,0,0:0:0:0:
192,192,118863,1,0,0:0:0:0:
64,192,119020,1,4,0:0:0:0:
448,192,119020,1,4,0:0:0:0:
64,192,120599,1,4,0:0:0:0:
448,192,120599,1,4,0:0:0:0:
64,192,121863,1,4,0:0:0:0:
448,192,121863,1,4,0:0:0:0:
192,192,123126,1,0,0:0:0:0:
320,192,123441,1,0,0:0:0:0:
448,192,123757,1,4,0:0:0:0:
64,192,123757,1,4,0:0:0:0:
64,192,129441,5,0,0:0:0:0:
192,192,129599,1,0,0:0:0:0:
320,192,129757,1,0,0:0:0:0:
448,192,130073,1,4,0:0:0:0:
64,192,130705,1,0,0:0:0:0:
192,192,130863,1,0,0:0:0:0:
320,192,131020,1,0,0:0:0:0:
448,192,131336,1,4,0:0:0:0:
448,192,131968,1,0,0:0:0:0:
320,192,132126,1,0,0:0:0:0:
448,192,132284,1,0,0:0:0:0:
320,192,132599,1,4,0:0:0:0:
448,192,133231,1,0,0:0:0:0:
320,192,133547,1,0,0:0:0:0:
448,192,133547,1,0,0:0:0:0:
64,192,133863,1,4,0:0:0:0:
192,192,133863,1,4,0:0:0:0:
448,192,134494,1,0,1:0:0:0:
192,192,134494,1,0,1:0:0:0:
192,192,134968,1,0,1:0:0:0:
64,192,134968,1,0,1:0:0:0:
320,192,135441,1,0,1:0:0:0:
448,192,135441,1,0,1:0:0:0:
320,192,135915,1,0,1:0:0:0:
64,192,135915,1,0,1:0:0:0:
448,192,136389,1,0,1:0:0:0:
64,192,136389,1,0,1:0:0:0:
64,192,136705,1,0,1:0:0:0:
448,192,136705,1,0,1:0:0:0:
192,192,137020,1,0,0:0:0:0:
320,192,137020,1,0,0:0:0:0:
320,192,137415,1,0,0:0:0:0:
64,192,137573,1,0,0:0:0:0:
320,192,137968,1,0,0:0:0:0:
448,192,138284,1,0,0:0:0:0:
192,192,138599,1,0,0:0:0:0:
320,192,138915,1,0,0:0:0:0:
448,192,139231,1,0,0:0:0:0:
448,192,142073,1,0,0:0:0:0:
64,192,142073,1,0,0:0:0:0:
192,192,142389,1,0,0:0:0:0:
320,192,142705,1,0,0:0:0:0:
64,192,143020,1,0,0:0:0:0:
192,192,143020,1,0,0:0:0:0:
320,192,143336,1,0,0:0:0:0:
448,192,143336,1,0,0:0:0:0:
64,192,143652,1,0,0:0:0:0:
192,192,143968,1,0,0:0:0:0:
64,192,144284,1,0,0:0:0:0:
320,192,144284,1,0,0:0:0:0:
448,192,144599,1,0,0:0:0:0:
64,192,144915,1,0,0:0:0:0:
448,192,145231,1,0,0:0:0:0:
64,192,145547,1,0,0:0:0:0:
448,192,145863,1,0,0:0:0:0:
64,192,146178,1,0,0:0:0:0:
448,192,146494,1,0,0:0:0:0:
64,192,146810,1,0,0:0:0:0:
448,192,147126,1,0,0:0:0:0:
320,192,147441,1,0,0:0:0:0:
192,192,147757,1,0,0:0:0:0:
192,192,148073,1,0,0:0:0:0:
448,192,148231,1,0,0:0:0:0:
448,192,148941,1,0,0:0:0:0:
192,192,148941,1,0,0:0:0:0:
64,192,149336,1,0,0:0:0:0:
192,192,149494,1,0,0:0:0:0:
320,192,149494,1,0,0:0:0:0:
192,192,151073,1,0,0:0:0:0:
64,192,151389,1,0,0:0:0:0:
448,192,151705,1,0,0:0:0:0:
192,192,152178,1,0,0:0:0:0:
64,192,152494,1,0,0:0:0:0:
320,192,152810,1,0,0:0:0:0:
448,192,153126,1,0,0:0:0:0:
320,192,153441,1,0,0:0:0:0:
64,192,153441,1,0,0:0:0:0:
192,192,153757,1,0,0:0:0:0:
448,192,153757,1,0,0:0:0:0:
320,192,154073,1,0,0:0:0:0:
192,192,154073,1,0,0:0:0:0:
448,192,154389,1,0,0:0:0:0:
64,192,154389,1,0,0:0:0:0:
448,192,154705,1,0,0:0:0:0:
192,192,155020,1,0,0:0:0:0:
320,192,155336,1,0,0:0:0:0:
192,192,155652,1,0,0:0:0:0:
448,192,155968,1,4,0:0:0:0:
64,192,155968,1,4,0:0:0:0:
64,192,156441,1,4,0:0:0:0:
320,192,156441,1,4,0:0:0:0:
448,192,156441,1,4,0:0:0:0:
448,192,156915,1,4,0:0:0:0:
64,192,156915,1,4,0:0:0:0:
192,192,156915,1,4,0:0:0:0:
64,192,157231,128,0,157784:0:0:0:0:
320,192,158494,128,0,159047:0:0:0:0:
192,192,159757,128,0,160310:0:0:0:0:
64,192,161020,128,0,161573:0:0:0:0:
320,192,162284,128,0,162836:0:0:0:0:
448,192,163547,128,0,164099:0:0:0:0:
192,192,164810,128,0,165363:0:0:0:0:
64,192,166389,1,0,0:0:0:0:
448,192,166389,1,0,0:0:0:0:
448,192,166705,1,0,0:0:0:0:
64,192,166705,1,0,0:0:0:0:
192,192,167020,1,0,0:0:0:0:
320,192,167020,1,0,0:0:0:0:
64,192,167336,1,4,0:0:0:0:
448,192,167336,1,4,0:0:0:0:
192,192,167810,1,4,0:0:0:0:
320,192,167810,1,4,0:0:0:0:
320,192,168284,1,4,0:0:0:0:
192,192,168284,1,4,0:0:0:0:
64,192,168599,1,0,0:0:0:0:
64,192,169073,1,0,0:0:0:0:
192,192,169547,1,0,0:0:0:0:
64,192,170020,1,0,0:0:0:0:
320,192,170494,1,0,0:0:0:0:
448,192,170810,1,0,0:0:0:0:
192,192,171126,1,0,0:0:0:0:
320,192,171599,1,0,0:0:0:0:
64,192,172073,1,0,0:0:0:0:
192,192,172547,1,0,0:0:0:0:
320,192,173020,1,0,0:0:0:0:
448,192,173336,1,0,0:0:0:0:
192,192,173652,128,0,176099:0:0:0:0:
64,192,176810,1,0,0:0:0:0:
192,192,176810,1,0,0:0:0:0:
320,192,177126,1,0,0:0:0:0:
448,192,177126,1,0,0:0:0:0:
448,192,188178,5,2,0:0:0:0:
448,192,190073,1,2,0:0:0:0:
448,192,191178,1,2,0:0:0:0:
448,192,191336,1,2,0:0:0:0:
320,192,191968,1,0,0:0:0:0:
192,192,192284,1,0,0:0:0:0:
192,192,192599,128,0,193152:0:0:0:0:
320,192,193863,128,0,194415:0:0:0:0:
64,192,195126,128,0,195678:0:0:0:0:
64,192,196626,1,0,0:0:0:0:
320,192,196626,1,0,0:0:0:0:
64,192,196941,1,0,0:0:0:0:
192,192,196941,1,0,0:0:0:0:
192,192,197257,1,0,0:0:0:0:
448,192,197257,1,0,0:0:0:0:
320,192,197968,1,0,0:0:0:0:
64,192,198284,1,0,0:0:0:0:
192,192,198599,1,0,0:0:0:0:
320,192,198915,1,0,0:0:0:0:
448,192,199231,1,0,0:0:0:0:
448,192,199547,1,0,0:0:0:0:
320,192,199863,1,0,0:0:0:0:
64,192,200178,1,0,0:0:0:0:
192,192,200494,1,0,0:0:0:0:
64,192,200810,1,0,0:0:0:0:
320,192,201126,1,0,0:0:0:0:
448,192,201441,1,0,0:0:0:0:
192,192,207757,132,0,208863:0:0:0:0:
320,192,209020,128,0,210126:0:0:0:0:
448,192,210284,128,0,212731:0:0:0:0:
192,192,214389,1,0,0:0:0:0:
448,192,214389,1,0,0:0:0:0:
448,192,214705,1,0,0:0:0:0:
64,192,214705,1,0,0:0:0:0:
320,192,215020,1,0,0:0:0:0:
64,192,215020,1,0,0:0:0:0:
64,192,215336,1,4,0:0:0:0:
448,192,215336,1,4,0:0:0:0:
448,192,217863,1,0,0:0:0:0:
64,192,217863,1,0,0:0:0:0:
192,192,218178,1,0,0:0:0:0:
192,192,218494,1,0,0:0:0:0:
320,192,218810,1,0,0:0:0:0:
64,192,219126,1,0,0:0:0:0:
320,192,219441,1,0,0:0:0:0:
64,192,219757,1,0,0:0:0:0:
448,192,220073,1,0,0:0:0:0:
320,192,220389,1,0,0:0:0:0:
192,192,220705,1,0,0:0:0:0:
64,192,221020,1,0,0:0:0:0:
320,192,221336,1,0,0:0:0:0:
192,192,221652,1,0,0:0:0:0:
448,192,221968,1,0,0:0:0:0:
320,192,222284,1,0,0:0:0:0:
320,192,222599,1,0,0:0:0:0:
64,192,222915,1,0,0:0:0:0:
320,192,223231,1,0,0:0:0:0:
448,192,223231,1,0,0:0:0:0:
64,192,223547,1,0,0:0:0:0:
192,192,223547,1,0,0:0:0:0:
192,192,223863,1,0,0:0:0:0:
64,192,224178,128,0,224652:0:0:0:0:
192,192,224810,1,0,0:0:0:0:
192,192,225126,1,0,0:0:0:0:
192,192,225441,128,0,226626:0:0:0:0:
64,192,226784,1,0,0:0:0:0:
192,192,226941,1,0,0:0:0:0:
320,192,227099,1,0,0:0:0:0:
448,192,227257,1,0,0:0:0:0:
320,192,227415,1,0,0:0:0:0:
448,192,227968,1,0,0:0:0:0:
320,192,228284,1,0,0:0:0:0:
192,192,228599,1,0,0:0:0:0:
320,192,228915,1,0,0:0:0:0:
192,192,229231,1,0,0:0:0:0:
64,192,229547,1,0,0:0:0:0:
192,192,229863,1,0,0:0:0:0:
448,192,230178,1,0,0:0:0:0:
64,192,230494,1,0,0:0:0:0:
192,192,230810,1,0,0:0:0:0:
192,192,231126,1,0,0:0:0:0:
64,192,231441,1,0,0:0:0:0:
448,192,231757,128,4,232152:0:0:0:0:
192,192,232231,128,4,232626:0:0:0:0:
320,192,232705,128,4,232941:0:0:0:0:
64,192,233020,128,0,233573:0:0:0:0:
192,192,234284,128,0,234836:0:0:0:0:
320,192,235547,128,0,236099:0:0:0:0:
192,192,236810,128,0,237363:0:0:0:0:
320,192,238073,128,0,238626:0:0:0:0:
448,192,239336,128,0,239889:0:0:0:0:
64,192,240441,1,0,0:0:0:0:
448,192,240599,128,0,241152:0:0:0:0:
320,192,242178,1,0,0:0:0:0:
64,192,242494,1,0,0:0:0:0:
192,192,242810,1,0,0:0:0:0:
320,192,243126,1,4,0:0:0:0:
448,192,243126,1,0,0:0:0:0:
448,192,244389,1,0,0:0:0:0:
64,192,244705,1,0,0:0:0:0:
448,192,245020,1,0,0:0:0:0:
64,192,245336,1,0,0:0:0:0:
448,192,245652,1,0,0:0:0:0:
64,192,245968,1,0,0:0:0:0:
448,192,246284,1,0,0:0:0:0:
64,192,246599,1,0,0:0:0:0:
448,192,246915,1,0,0:0:0:0:
64,192,247231,1,0,0:0:0:0:
448,192,247547,1,0,0:0:0:0:
64,192,247863,1,0,0:0:0:0:
448,192,248178,1,0,0:0:0:0:
64,192,248494,1,0,0:0:0:0:
448,192,248810,1,0,0:0:0:0:
64,192,249126,1,0,0:0:0:0:
64,192,249441,128,0,249994:0:0:0:0:
320,192,250073,128,0,250626:0:0:0:0:
192,192,250705,128,0,251257:0:0:0:0:
448,192,251336,128,0,251889:0:0:0:0:
