osu file format v14

[General]
AudioFilename: audio.mp3
AudioLeadIn: 0
PreviewTime: -1
Countdown: 0
SampleSet: Soft
StackLeniency: 0.7
Mode: 3
LetterboxInBreaks: 0
SpecialStyle: 0
WidescreenStoryboard: 1

[Editor]
Bookmarks: -31,6994,11968,22073,32100,37389,42284,47415,54836,88942,93994,104099,114284,124389,141994,177442,187626,197889,202705,217863,255442
DistanceSpacing: 1
BeatDivisor: 4
GridSize: 16
TimelineZoom: 0.6999999

[Metadata]
Title:Redo
TitleUnicode:Redo
Artist:Suzuki Konomi
ArtistUnicode:鈴木このみ
Creator:Gabeh
Version:Emilia - 4K Hard
Source:Re: Zero Kara Hajimeru Isekai Seikatsu
Tags:
BeatmapID:1370946
BeatmapSetID:647126

[Difficulty]
HPDrainRate:7
CircleSize:4
OverallDifficulty:7
ApproachRate:5
SliderMultiplier:1.4
SliderTickRate:1

[Events]
//Background and Video events
0,0,"emilia.jpg",0,0
//Break Periods
2,32378,35557
2,89141,92873
2,114484,115610
2,123957,125715
2,177326,186978
2,214273,216663
//Storyboard Layer 0 (Background)
//Storyboard Layer 1 (Fail)
//Storyboard Layer 2 (Pass)
//Storyboard Layer 3 (Foreground)
//Storyboard Sound Samples

[TimingPoints]
1863,315.789473684211,4,2,0,100,1,0
54915,-100,4,2,0,100,0,1
89020,-100,4,2,0,100,0,0
142073,-100,4,2,0,100,0,1
177441,-100,4,2,0,100,0,0
217863,-100,4,2,0,100,0,1
251942,-100,4,2,0,100,0,0

[HitObjects]
64,192,1863,5,0,0:0:0:0:
448,192,1863,5,0,0:0:0:0:
64,192,2020,1,0,0:0:0:0:
448,192,2020,1,0,0:0:0:0:
448,192,3126,1,0,0:0:0:0:
64,192,3126,1,0,0:0:0:0:
64,192,3284,1,0,0:0:0:0:
448,192,3284,1,0,0:0:0:0:
64,192,4389,1,0,0:0:0:0:
448,192,4389,1,0,0:0:0:0:
64,192,4547,1,0,0:0:0:0:
448,192,4547,1,0,0:0:0:0:
448,192,5652,1,0,0:0:0:0:
64,192,5652,1,0,0:0:0:0:
64,192,5810,1,0,0:0:0:0:
448,192,5810,1,0,0:0:0:0:
64,192,6915,1,0,0:0:0:0:
448,192,6915,1,0,0:0:0:0:
64,192,7073,1,0,0:0:0:0:
448,192,7073,1,0,0:0:0:0:
192,192,7231,1,0,0:0:0:0:
320,192,7547,1,0,0:0:0:0:
320,192,7863,1,0,0:0:0:0:
448,192,8178,1,0,0:0:0:0:
64,192,8178,1,0,0:0:0:0:
64,192,8336,1,0,0:0:0:0:
448,192,8336,1,0,0:0:0:0:
192,192,8494,1,0,0:0:0:0:
320,192,8810,1,0,0:0:0:0:
320,192,9126,1,0,0:0:0:0:
64,192,9441,1,0,0:0:0:0:
448,192,9441,1,0,0:0:0:0:
64,192,9599,1,0,0:0:0:0:
448,192,9599,1,0,0:0:0:0:
192,192,9757,1,0,0:0:0:0:
320,192,10073,1,0,0:0:0:0:
320,192,10389,1,0,0:0:0:0:
448,192,10705,1,0,0:0:0:0:
64,192,10705,1,0,0:0:0:0:
64,192,10863,1,0,0:0:0:0:
448,192,10863,1,0,0:0:0:0:
192,192,11020,1,0,0:0:0:0:
320,192,11336,1,0,0:0:0:0:
320,192,11652,1,0,0:0:0:0:
64,192,11968,1,0,0:0:0:0:
448,192,11968,1,0,0:0:0:0:
320,192,12284,1,0,0:0:0:0:
192,192,12599,1,0,0:0:0:0:
320,192,12599,1,0,0:0:0:0:
320,192,12915,1,0,0:0:0:0:
448,192,13231,1,0,0:0:0:0:
64,192,13231,1,0,0:0:0:0:
64,192,13547,1,0,0:0:0:0:
320,192,13863,1,0,0:0:0:0:
192,192,14020,1,0,0:0:0:0:
320,192,14178,1,0,0:0:0:0:
192,192,14336,1,0,0:0:0:0:
448,192,14494,1,0,0:0:0:0:
320,192,14810,1,0,0:0:0:0:
320,192,15126,1,0,0:0:0:0:
320,192,15441,1,0,0:0:0:0:
192,192,15757,1,0,0:0:0:0:
64,192,16073,1,0,0:0:0:0:
320,192,16231,1,0,0:0:0:0:
192,192,16389,1,0,0:0:0:0:
448,192,16705,1,0,0:0:0:0:
320,192,17020,1,0,0:0:0:0:
192,192,17336,1,0,0:0:0:0:
448,192,17652,1,0,0:0:0:0:
64,192,17652,1,0,0:0:0:0:
192,192,17968,1,0,0:0:0:0:
192,192,18284,1,0,0:0:0:0:
448,192,18284,1,0,0:0:0:0:
320,192,18599,1,0,0:0:0:0:
448,192,18915,1,0,0:0:0:0:
64,192,18915,1,0,0:0:0:0:
320,192,19231,1,0,0:0:0:0:
192,192,19231,1,0,0:0:0:0:
64,192,19547,128,0,19941:0:0:0:0:
448,192,19547,1,0,0:0:0:0:
448,192,19863,1,0,0:0:0:0:
192,192,20178,128,0,20573:0:0:0:0:
448,192,20178,1,0,0:0:0:0:
448,192,20494,1,0,0:0:0:0:
320,192,20810,128,0,21205:0:0:0:0:
448,192,20810,1,0,0:0:0:0:
448,192,21126,1,0,0:0:0:0:
448,192,21441,1,0,0:0:0:0:
320,192,21441,128,0,21836:0:0:0:0:
448,192,21757,1,0,0:0:0:0:
192,192,22073,1,0,0:0:0:0:
448,192,22389,1,0,0:0:0:0:
192,192,22705,1,0,0:0:0:0:
320,192,23020,1,0,0:0:0:0:
64,192,23336,1,0,0:0:0:0:
64,192,23652,1,0,0:0:0:0:
192,192,23968,1,0,0:0:0:0:
320,192,24284,1,0,0:0:0:0:
448,192,24599,1,0,0:0:0:0:
192,192,24915,1,0,0:0:0:0:
320,192,25231,1,0,0:0:0:0:
448,192,25547,1,0,0:0:0:0:
192,192,25863,1,0,0:0:0:0:
448,192,25863,1,0,0:0:0:0:
320,192,26494,1,0,0:0:0:0:
192,192,26810,1,0,0:0:0:0:
64,192,27284,1,0,0:0:0:0:
192,192,27441,1,0,0:0:0:0:
320,192,27599,1,0,0:0:0:0:
448,192,27757,1,0,0:0:0:0:
192,192,28073,1,0,0:0:0:0:
64,192,28231,1,0,0:0:0:0:
192,192,28389,1,0,0:0:0:0:
320,192,28547,1,0,0:0:0:0:
192,192,28705,1,0,0:0:0:0:
320,192,28863,1,0,0:0:0:0:
192,192,29020,1,0,0:0:0:0:
64,192,29336,1,0,0:0:0:0:
64,192,29652,1,0,0:0:0:0:
448,192,29652,1,0,0:0:0:0:
448,192,30284,1,0,0:0:0:0:
64,192,30284,1,0,0:0:0:0:
320,192,30757,1,0,0:0:0:0:
192,192,30915,1,0,0:0:0:0:
320,192,30915,1,0,0:0:0:0:
64,192,31231,1,0,0:0:0:0:
320,192,31231,1,0,0:0:0:0:
192,192,31547,1,0,0:0:0:0:
448,192,31547,1,0,0:0:0:0:
448,192,32178,1,4,0:0:0:0:
448,192,36757,5,8,0:0:0:0:
64,192,36757,1,0,0:0:0:0:
448,192,36915,1,8,0:0:0:0:
64,192,36915,1,0,0:0:0:0:
192,192,37231,1,0,0:0:0:0:
320,192,37231,1,0,0:0:0:0:
448,192,37547,1,0,0:0:0:0:
64,192,37547,1,0,0:0:0:0:
320,192,37863,1,0,0:0:0:0:
192,192,37863,1,0,0:0:0:0:
320,192,38178,1,0,0:0:0:0:
192,192,38178,1,0,0:0:0:0:
320,192,38336,1,0,0:0:0:0:
192,192,38336,1,0,0:0:0:0:
448,192,38652,1,0,0:0:0:0:
320,192,38968,1,0,0:0:0:0:
192,192,38968,1,0,0:0:0:0:
448,192,39126,1,0,0:0:0:0:
64,192,39126,1,0,0:0:0:0:
192,192,39284,1,0,0:0:0:0:
320,192,39284,1,0,0:0:0:0:
448,192,40073,1,0,0:0:0:0:
192,192,40389,1,0,0:0:0:0:
64,192,40705,1,0,0:0:0:0:
64,192,41020,1,0,0:0:0:0:
448,192,41020,1,0,0:0:0:0:
448,192,41652,1,0,0:0:0:0:
64,192,41652,1,0,0:0:0:0:
64,192,42284,1,4,0:0:0:0:
64,192,44810,1,4,0:0:0:0:
64,192,46073,1,4,0:0:0:0:
448,192,46705,1,4,0:0:0:0:
448,192,47336,1,0,0:0:0:0:
64,192,47336,1,0,0:0:0:0:
448,192,47652,1,0,0:0:0:0:
64,192,47652,1,0,0:0:0:0:
320,192,47968,1,0,0:0:0:0:
192,192,48284,1,0,0:0:0:0:
64,192,48441,1,0,0:0:0:0:
320,192,48757,1,0,0:0:0:0:
192,192,49073,1,0,0:0:0:0:
192,192,49231,1,0,0:0:0:0:
192,192,49389,1,0,0:0:0:0:
64,192,49705,1,0,0:0:0:0:
448,192,49863,1,0,0:0:0:0:
192,192,50178,1,0,0:0:0:0:
320,192,50494,1,0,0:0:0:0:
192,192,50810,1,0,0:0:0:0:
448,192,51126,1,0,0:0:0:0:
192,192,51126,1,0,0:0:0:0:
64,192,51441,1,0,0:0:0:0:
320,192,51441,1,0,0:0:0:0:
192,192,51757,1,0,0:0:0:0:
448,192,51757,1,0,0:0:0:0:
320,192,52073,1,0,0:0:0:0:
64,192,52073,1,0,0:0:0:0:
448,192,52389,1,0,0:0:0:0:
64,192,52389,1,0,0:0:0:0:
448,192,52547,1,0,0:0:0:0:
64,192,52547,1,0,0:0:0:0:
320,192,52863,1,0,0:0:0:0:
192,192,53020,1,0,0:0:0:0:
192,192,53336,1,0,0:0:0:0:
320,192,53494,1,0,0:0:0:0:
320,192,53810,1,0,0:0:0:0:
192,192,53968,1,0,0:0:0:0:
448,192,54284,1,0,0:0:0:0:
64,192,54284,1,0,0:0:0:0:
64,192,54599,1,4,0:0:0:0:
448,192,54599,1,4,0:0:0:0:
448,192,54915,5,0,0:0:0:0:
64,192,54915,1,0,0:0:0:0:
192,192,55231,1,0,0:0:0:0:
320,192,55389,1,0,0:0:0:0:
320,192,55705,1,0,0:0:0:0:
448,192,56020,1,4,0:0:0:0:
320,192,56336,1,0,0:0:0:0:
320,192,56652,1,0,0:0:0:0:
192,192,56968,1,0,0:0:0:0:
320,192,57284,1,0,0:0:0:0:
448,192,57441,1,0,0:0:0:0:
64,192,57599,1,0,0:0:0:0:
192,192,57757,1,0,0:0:0:0:
320,192,57915,1,0,0:0:0:0:
448,192,58073,1,0,0:0:0:0:
448,192,58231,1,0,0:0:0:0:
64,192,58389,1,0,0:0:0:0:
192,192,58547,1,0,0:0:0:0:
320,192,58705,1,0,0:0:0:0:
448,192,58863,1,0,0:0:0:0:
448,192,59020,1,0,0:0:0:0:
64,192,59178,1,0,0:0:0:0:
192,192,59336,1,0,0:0:0:0:
320,192,59494,1,0,0:0:0:0:
448,192,59652,1,0,0:0:0:0:
64,192,59810,1,0,0:0:0:0:
448,192,59968,1,4,0:0:0:0:
320,192,60284,1,0,0:0:0:0:
192,192,60284,1,0,0:0:0:0:
320,192,60599,1,0,0:0:0:0:
448,192,60599,1,0,0:0:0:0:
192,192,60915,1,0,0:0:0:0:
64,192,60915,1,0,0:0:0:0:
448,192,61073,128,4,61705:0:0:0:0:
320,192,61073,128,4,61705:0:0:0:0:
64,192,61863,128,0,62020:0:0:0:0:
448,192,61863,128,0,62020:0:0:0:0:
192,192,62178,1,0,0:0:0:0:
320,192,62336,128,0,63678:0:0:0:0:
64,192,62968,1,0,0:0:0:0:
64,192,63284,1,0,0:0:0:0:
64,192,63599,1,0,0:0:0:0:
192,192,63915,1,0,0:0:0:0:
64,192,64073,1,0,0:0:0:0:
448,192,64231,1,0,0:0:0:0:
320,192,64389,1,0,0:0:0:0:
320,192,64547,1,0,0:0:0:0:
448,192,65020,1,0,0:0:0:0:
320,192,65336,1,0,0:0:0:0:
192,192,65652,1,0,0:0:0:0:
64,192,65968,1,0,0:0:0:0:
320,192,65968,1,0,0:0:0:0:
192,192,66284,1,0,0:0:0:0:
192,192,66599,1,0,0:0:0:0:
320,192,66915,1,0,0:0:0:0:
192,192,67231,1,0,0:0:0:0:
320,192,67389,1,0,0:0:0:0:
192,192,67547,1,0,0:0:0:0:
448,192,67705,1,0,0:0:0:0:
320,192,67863,1,0,0:0:0:0:
192,192,68020,1,0,0:0:0:0:
64,192,68178,1,0,0:0:0:0:
192,192,68336,1,0,0:0:0:0:
320,192,68494,1,0,0:0:0:0:
320,192,68652,1,0,0:0:0:0:
64,192,68810,1,0,0:0:0:0:
192,192,69284,1,0,0:0:0:0:
320,192,69757,21,0,0:0:0:0:
64,192,70073,128,0,71099:0:0:0:0:
192,192,70705,1,2,0:0:0:0:
320,192,71336,128,0,72441:0:0:0:0:
64,192,71968,1,2,0:0:0:0:
64,192,72441,1,0,0:0:0:0:
192,192,72599,128,0,73705:0:0:0:0:
320,192,73231,1,2,0:0:0:0:
320,192,73863,128,0,74968:0:0:0:0:
192,192,74494,1,2,0:0:0:0:
192,192,75126,128,0,76231:0:0:0:0:
320,192,75757,1,2,0:0:0:0:
448,192,76389,128,0,77336:0:0:0:0:
192,192,77020,1,2,0:0:0:0:
320,192,77494,1,0,0:0:0:0:
448,192,77652,128,0,78678:0:0:0:0:
320,192,78284,1,2,0:0:0:0:
192,192,78915,1,0,0:0:0:0:
448,192,79231,1,0,0:0:0:0:
192,192,79547,1,0,0:0:0:0:
320,192,79863,1,0,0:0:0:0:
192,192,80178,1,0,0:0:0:0:
320,192,80178,1,0,0:0:0:0:
448,192,80652,1,0,0:0:0:0:
64,192,80652,1,0,0:0:0:0:
448,192,81126,1,0,0:0:0:0:
64,192,81126,1,0,0:0:0:0:
320,192,81441,1,0,0:0:0:0:
320,192,81599,1,0,0:0:0:0:
192,192,81757,1,0,0:0:0:0:
192,192,81915,1,0,0:0:0:0:
64,192,82231,1,0,0:0:0:0:
192,192,82389,1,0,0:0:0:0:
192,192,82547,1,0,0:0:0:0:
320,192,82705,1,0,0:0:0:0:
320,192,82863,1,0,0:0:0:0:
448,192,83178,1,0,0:0:0:0:
320,192,83336,128,0,83573:0:0:0:0:
192,192,83652,128,0,83889:0:0:0:0:
64,192,83968,1,0,0:0:0:0:
64,192,84126,1,0,0:0:0:0:
320,192,84284,1,0,0:0:0:0:
320,192,84441,1,0,0:0:0:0:
192,192,84757,1,0,0:0:0:0:
192,192,84915,1,0,0:0:0:0:
320,192,85073,1,0,0:0:0:0:
320,192,85231,1,0,0:0:0:0:
192,192,85389,1,0,0:0:0:0:
192,192,85547,1,0,0:0:0:0:
64,192,85705,1,0,0:0:0:0:
64,192,85863,1,0,0:0:0:0:
320,192,86178,1,0,0:0:0:0:
448,192,86494,1,0,0:0:0:0:
64,192,86494,128,0,88941:0:0:0:0:
448,192,87126,1,0,0:0:0:0:
448,192,87757,1,0,0:0:0:0:
448,192,88389,1,4,0:0:0:0:
448,192,94073,5,0,0:0:0:0:
320,192,94073,1,0,0:0:0:0:
448,192,94389,1,0,0:0:0:0:
448,192,94705,1,0,0:0:0:0:
192,192,94705,1,0,0:0:0:0:
448,192,95020,1,0,0:0:0:0:
448,192,95336,1,0,0:0:0:0:
64,192,95336,1,0,0:0:0:0:
448,192,95652,1,0,0:0:0:0:
192,192,95968,1,0,0:0:0:0:
64,192,96126,1,0,0:0:0:0:
192,192,96284,1,0,0:0:0:0:
320,192,96441,1,0,0:0:0:0:
448,192,96599,1,0,0:0:0:0:
448,192,96915,1,0,0:0:0:0:
448,192,97231,1,0,0:0:0:0:
192,192,97231,1,0,0:0:0:0:
448,192,97547,1,0,0:0:0:0:
448,192,97863,1,0,0:0:0:0:
64,192,97863,1,0,0:0:0:0:
320,192,98336,1,0,0:0:0:0:
192,192,98336,1,0,0:0:0:0:
192,192,98494,1,0,0:0:0:0:
320,192,98494,1,0,0:0:0:0:
320,192,98810,1,0,0:0:0:0:
192,192,98810,1,0,0:0:0:0:
192,192,99126,1,0,0:0:0:0:
320,192,99284,1,0,0:0:0:0:
192,192,99441,1,0,0:0:0:0:
64,192,99599,1,0,0:0:0:0:
192,192,99757,1,0,0:0:0:0:
320,192,99915,1,0,0:0:0:0:
192,192,100073,1,0,0:0:0:0:
448,192,100231,1,0,0:0:0:0:
320,192,100389,1,0,0:0:0:0:
320,192,100547,1,0,0:0:0:0:
448,192,100705,1,0,0:0:0:0:
192,192,100863,1,0,0:0:0:0:
448,192,101020,1,0,0:0:0:0:
320,192,101336,1,0,0:0:0:0:
320,192,101652,128,0,102205:0:0:0:0:
192,192,102284,128,0,102836:0:0:0:0:
320,192,102915,128,0,103468:0:0:0:0:
192,192,103547,128,0,104020:0:0:0:0:
448,192,104178,1,0,0:0:0:0:
320,192,104178,1,2,0:0:0:0:
448,192,104494,1,0,0:0:0:0:
320,192,104810,1,0,0:0:0:0:
192,192,104810,1,2,0:0:0:0:
448,192,105126,1,0,0:0:0:0:
64,192,105441,1,2,0:0:0:0:
192,192,105441,1,0,0:0:0:0:
64,192,106073,1,0,0:0:0:0:
320,192,106231,1,0,0:0:0:0:
192,192,106231,1,0,0:0:0:0:
448,192,106389,1,0,0:0:0:0:
448,192,106705,1,0,0:0:0:0:
64,192,106705,1,2,0:0:0:0:
448,192,107020,1,0,0:0:0:0:
320,192,107336,1,0,0:0:0:0:
192,192,107336,1,2,0:0:0:0:
448,192,107652,1,0,0:0:0:0:
64,192,107968,1,0,0:0:0:0:
320,192,107968,1,2,0:0:0:0:
192,192,108599,1,0,0:0:0:0:
320,192,108757,1,0,0:0:0:0:
192,192,108915,1,0,0:0:0:0:
64,192,109231,1,0,0:0:0:0:
192,192,109389,1,0,0:0:0:0:
320,192,109547,1,0,0:0:0:0:
448,192,109705,1,0,0:0:0:0:
320,192,109863,1,0,0:0:0:0:
192,192,110020,1,0,0:0:0:0:
448,192,110178,1,0,0:0:0:0:
192,192,110336,1,0,0:0:0:0:
320,192,110494,1,0,0:0:0:0:
192,192,110652,1,0,0:0:0:0:
64,192,110810,1,0,0:0:0:0:
192,192,110968,1,0,0:0:0:0:
320,192,111126,1,0,0:0:0:0:
192,192,111441,1,0,0:0:0:0:
448,192,111757,128,0,112310:0:0:0:0:
320,192,112389,128,0,112941:0:0:0:0:
192,192,113020,128,0,113652:0:0:0:0:
320,192,113336,1,0,0:0:0:0:
64,192,113652,1,0,0:0:0:0:
64,192,114284,1,4,0:0:0:0:
448,192,114284,1,4,0:0:0:0:
448,192,116810,5,0,0:0:0:0:
64,192,116810,1,0,0:0:0:0:
448,192,118389,1,0,0:0:0:0:
64,192,118389,1,0,0:0:0:0:
448,192,118547,1,0,0:0:0:0:
64,192,118547,1,0,0:0:0:0:
320,192,118863,1,0,0:0:0:0:
192,192,118863,1,0,0:0:0:0:
448,192,119020,1,4,0:0:0:0:
64,192,119020,1,4,0:0:0:0:
448,192,119336,1,0,0:0:0:0:
64,192,119336,1,0,0:0:0:0:
64,192,120599,1,0,0:0:0:0:
448,192,120599,1,0,0:0:0:0:
448,192,121863,1,0,0:0:0:0:
64,192,121863,1,0,0:0:0:0:
192,192,123126,1,4,0:0:0:0:
320,192,123126,1,4,0:0:0:0:
64,192,123441,1,4,0:0:0:0:
448,192,123441,1,4,0:0:0:0:
448,192,123757,1,4,1:0:0:0:
320,192,123757,1,4,1:0:0:0:
192,192,123757,1,4,1:0:0:0:
64,192,123757,1,4,1:0:0:0:
448,192,126915,5,0,0:0:0:0:
448,192,128178,1,0,0:0:0:0:
448,192,128810,1,0,0:0:0:0:
320,192,129441,1,0,0:0:0:0:
192,192,129599,1,0,0:0:0:0:
320,192,129757,1,0,0:0:0:0:
448,192,130073,128,4,130389:0:0:0:0:
320,192,130705,1,0,0:0:0:0:
192,192,130863,1,0,0:0:0:0:
320,192,131020,1,0,0:0:0:0:
448,192,131336,128,4,131652:0:0:0:0:
320,192,131968,1,0,0:0:0:0:
448,192,132126,1,0,0:0:0:0:
320,192,132284,1,0,0:0:0:0:
448,192,132599,128,4,132915:0:0:0:0:
448,192,133231,1,4,0:0:0:0:
320,192,133231,1,4,0:0:0:0:
448,192,133547,1,4,0:0:0:0:
320,192,133547,1,4,0:0:0:0:
192,192,133547,1,4,0:0:0:0:
448,192,133863,1,4,1:0:0:0:
320,192,133863,1,4,1:0:0:0:
192,192,133863,1,4,1:0:0:0:
64,192,133863,1,4,1:0:0:0:
64,192,134494,1,0,0:0:0:0:
192,192,134494,1,0,0:0:0:0:
320,192,134494,1,0,0:0:0:0:
448,192,134494,1,0,0:0:0:0:
448,192,134968,1,0,0:0:0:0:
320,192,134968,1,0,0:0:0:0:
192,192,134968,1,0,0:0:0:0:
64,192,134968,1,0,0:0:0:0:
320,192,135441,1,0,0:0:0:0:
448,192,135441,1,0,0:0:0:0:
192,192,135441,1,0,0:0:0:0:
64,192,135441,1,0,0:0:0:0:
448,192,135915,1,0,0:0:0:0:
320,192,135915,1,0,0:0:0:0:
192,192,135915,1,0,0:0:0:0:
64,192,135915,1,0,0:0:0:0:
64,192,136389,1,0,0:0:0:0:
192,192,136389,1,0,0:0:0:0:
320,192,136389,1,0,0:0:0:0:
448,192,136389,1,0,0:0:0:0:
448,192,136705,1,0,0:0:0:0:
192,192,137020,1,0,0:0:0:0:
320,192,137178,1,0,0:0:0:0:
320,192,137494,1,0,0:0:0:0:
448,192,137652,1,0,0:0:0:0:
320,192,137968,1,0,0:0:0:0:
448,192,138126,1,0,0:0:0:0:
320,192,138284,1,0,0:0:0:0:
448,192,138441,1,0,0:0:0:0:
320,192,138599,1,0,0:0:0:0:
448,192,138757,1,0,0:0:0:0:
448,192,138915,1,0,0:0:0:0:
320,192,139073,1,0,0:0:0:0:
448,192,139231,1,0,0:0:0:0:
448,192,142073,1,0,0:0:0:0:
64,192,142073,1,0,0:0:0:0:
192,192,142389,1,0,0:0:0:0:
320,192,142547,1,0,0:0:0:0:
192,192,142863,1,0,0:0:0:0:
448,192,143178,1,0,0:0:0:0:
448,192,143494,1,0,0:0:0:0:
320,192,143810,1,0,0:0:0:0:
64,192,144126,1,0,0:0:0:0:
448,192,144441,1,0,0:0:0:0:
64,192,144599,1,0,0:0:0:0:
192,192,144757,1,0,0:0:0:0:
320,192,144915,1,0,0:0:0:0:
448,192,145073,1,0,0:0:0:0:
448,192,145231,1,0,0:0:0:0:
64,192,145389,1,0,0:0:0:0:
192,192,145547,1,0,0:0:0:0:
320,192,145705,1,0,0:0:0:0:
448,192,145863,1,0,0:0:0:0:
448,192,146020,1,0,0:0:0:0:
64,192,146178,1,0,0:0:0:0:
192,192,146336,1,0,0:0:0:0:
320,192,146494,1,0,0:0:0:0:
448,192,146652,1,0,0:0:0:0:
64,192,146810,1,0,0:0:0:0:
448,192,146968,1,0,0:0:0:0:
64,192,147126,1,0,0:0:0:0:
320,192,147441,1,0,0:0:0:0:
192,192,147441,1,0,0:0:0:0:
192,192,147757,1,0,0:0:0:0:
320,192,147757,1,0,0:0:0:0:
192,192,148073,1,0,0:0:0:0:
320,192,148073,1,0,0:0:0:0:
64,192,148231,128,4,148705:0:0:0:0:
448,192,148231,128,4,148705:0:0:0:0:
320,192,148941,1,0,0:0:0:0:
192,192,148941,1,0,0:0:0:0:
448,192,149257,1,0,0:0:0:0:
64,192,149257,1,0,0:0:0:0:
192,192,149494,128,0,150757:0:0:0:0:
320,192,149494,128,0,150757:0:0:0:0:
448,192,150126,1,0,0:0:0:0:
64,192,150126,1,0,0:0:0:0:
448,192,150441,1,0,0:0:0:0:
64,192,150441,1,0,0:0:0:0:
448,192,150757,1,0,0:0:0:0:
64,192,150757,1,0,0:0:0:0:
192,192,151073,1,0,0:0:0:0:
320,192,151231,1,0,0:0:0:0:
448,192,151389,1,0,0:0:0:0:
320,192,151547,1,0,0:0:0:0:
448,192,151705,1,0,0:0:0:0:
320,192,152178,1,2,0:0:0:0:
192,192,152178,1,0,0:0:0:0:
448,192,152494,1,0,0:0:0:0:
64,192,152810,1,0,0:0:0:0:
192,192,152810,1,2,0:0:0:0:
448,192,153126,1,0,0:0:0:0:
320,192,153441,1,0,0:0:0:0:
64,192,153441,1,2,0:0:0:0:
448,192,153757,1,0,0:0:0:0:
192,192,154073,1,0,0:0:0:0:
320,192,154073,1,2,0:0:0:0:
448,192,154389,1,0,0:0:0:0:
448,192,154705,1,2,0:0:0:0:
64,192,154863,1,0,0:0:0:0:
448,192,155020,1,2,0:0:0:0:
64,192,155178,1,0,0:0:0:0:
448,192,155336,1,2,0:0:0:0:
64,192,155494,1,0,0:0:0:0:
448,192,155652,1,2,0:0:0:0:
64,192,155810,1,0,0:0:0:0:
192,192,155968,128,0,156205:0:0:0:0:
320,192,156441,128,0,156678:0:0:0:0:
448,192,156915,128,0,157152:0:0:0:0:
64,192,157231,128,0,158415:0:0:0:0:
192,192,157863,1,2,0:0:0:0:
320,192,158494,128,0,159678:0:0:0:0:
192,192,159126,1,2,0:0:0:0:
192,192,159599,1,0,0:0:0:0:
192,192,159757,128,0,160941:0:0:0:0:
448,192,160389,1,2,0:0:0:0:
64,192,161020,128,0,162205:0:0:0:0:
320,192,161652,1,2,0:0:0:0:
320,192,162284,128,0,163468:0:0:0:0:
192,192,162915,1,2,0:0:0:0:
448,192,163547,128,0,164731:0:0:0:0:
320,192,164178,1,2,0:0:0:0:
192,192,164652,1,0,0:0:0:0:
192,192,164810,128,0,165994:0:0:0:0:
448,192,165441,1,2,0:0:0:0:
320,192,165994,1,4,0:0:0:0:
64,192,167336,1,0,0:0:0:0:
448,192,167336,1,0,0:0:0:0:
448,192,167810,1,0,0:0:0:0:
64,192,167810,1,0,0:0:0:0:
448,192,168284,1,0,0:0:0:0:
64,192,168284,1,0,0:0:0:0:
64,192,168599,1,0,0:0:0:0:
64,192,168757,1,0,0:0:0:0:
192,192,168915,1,0,0:0:0:0:
192,192,169073,1,0,0:0:0:0:
320,192,169389,1,0,0:0:0:0:
320,192,169547,1,0,0:0:0:0:
192,192,169705,1,0,0:0:0:0:
192,192,169863,1,0,0:0:0:0:
64,192,170020,1,0,0:0:0:0:
192,192,170336,1,0,0:0:0:0:
448,192,170494,1,0,0:0:0:0:
448,192,170810,1,0,0:0:0:0:
192,192,171126,1,0,0:0:0:0:
192,192,171284,1,0,0:0:0:0:
320,192,171441,1,0,0:0:0:0:
320,192,171599,1,0,0:0:0:0:
192,192,171915,1,0,0:0:0:0:
192,192,172073,1,0,0:0:0:0:
64,192,172231,1,0,0:0:0:0:
64,192,172389,1,0,0:0:0:0:
192,192,172547,1,0,0:0:0:0:
192,192,172705,1,0,0:0:0:0:
320,192,172863,1,0,0:0:0:0:
320,192,173020,1,0,0:0:0:0:
448,192,173336,1,0,0:0:0:0:
448,192,173652,128,0,174047:0:0:0:0:
64,192,173652,128,0,174047:0:0:0:0:
448,192,174284,128,0,174678:0:0:0:0:
64,192,174284,128,0,174678:0:0:0:0:
448,192,174915,128,0,175310:0:0:0:0:
64,192,174915,128,0,175310:0:0:0:0:
448,192,175547,128,0,175941:0:0:0:0:
64,192,175547,128,0,175941:0:0:0:0:
64,192,176810,1,0,0:0:0:0:
448,192,176810,1,8,0:0:0:0:
448,192,177126,1,8,0:0:0:0:
64,192,177126,1,0,0:0:0:0:
448,192,188178,5,0,0:0:0:0:
448,192,188810,1,0,0:0:0:0:
448,192,189441,1,0,0:0:0:0:
448,192,190073,1,0,0:0:0:0:
320,192,190547,1,0,0:0:0:0:
448,192,190705,1,0,0:0:0:0:
448,192,191178,1,0,0:0:0:0:
320,192,191336,1,0,0:0:0:0:
192,192,191968,1,0,0:0:0:0:
320,192,192284,1,0,0:0:0:0:
448,192,192599,128,0,193784:0:0:0:0:
192,192,193863,128,0,195047:0:0:0:0:
64,192,195126,128,0,196310:0:0:0:0:
448,192,196626,1,0,0:0:0:0:
64,192,196626,1,0,0:0:0:0:
192,192,196784,1,0,0:0:0:0:
320,192,196784,1,0,0:0:0:0:
448,192,196941,1,0,0:0:0:0:
64,192,196941,1,0,0:0:0:0:
320,192,197099,1,0,0:0:0:0:
192,192,197099,1,0,0:0:0:0:
320,192,197968,1,0,0:0:0:0:
192,192,198126,1,0,0:0:0:0:
64,192,198284,1,0,0:0:0:0:
192,192,198441,1,0,0:0:0:0:
448,192,198757,1,0,0:0:0:0:
320,192,199152,1,0,0:0:0:0:
192,192,199152,1,0,0:0:0:0:
192,192,199310,1,0,0:0:0:0:
320,192,199310,1,0,0:0:0:0:
320,192,199626,1,0,0:0:0:0:
192,192,199626,1,0,0:0:0:0:
448,192,200178,1,0,0:0:0:0:
64,192,200178,1,0,0:0:0:0:
320,192,200336,1,0,0:0:0:0:
192,192,200336,1,0,0:0:0:0:
320,192,200652,1,0,0:0:0:0:
192,192,200652,1,0,0:0:0:0:
192,192,200968,1,0,0:0:0:0:
320,192,200968,1,0,0:0:0:0:
64,192,201284,128,0,202231:0:0:0:0:
448,192,201284,128,0,202231:0:0:0:0:
448,192,202705,1,0,0:0:0:0:
192,192,203020,1,0,0:0:0:0:
320,192,203336,1,0,0:0:0:0:
64,192,203652,1,0,0:0:0:0:
448,192,203968,1,0,0:0:0:0:
320,192,204284,1,0,0:0:0:0:
192,192,204599,1,0,0:0:0:0:
64,192,204915,1,0,0:0:0:0:
192,192,205073,1,0,0:0:0:0:
448,192,205231,1,0,0:0:0:0:
320,192,205547,1,0,0:0:0:0:
192,192,205863,1,0,0:0:0:0:
448,192,206178,1,0,0:0:0:0:
192,192,206336,1,0,0:0:0:0:
448,192,206494,1,0,0:0:0:0:
64,192,206810,1,0,0:0:0:0:
448,192,207126,1,0,0:0:0:0:
320,192,207284,1,0,0:0:0:0:
448,192,207441,1,0,0:0:0:0:
192,192,207757,128,0,208784:0:0:0:0:
320,192,208941,128,0,210047:0:0:0:0:
64,192,210126,1,0,0:0:0:0:
320,192,210284,1,0,0:0:0:0:
192,192,210284,128,0,212652:0:0:0:0:
320,192,210441,1,0,0:0:0:0:
320,192,210599,1,0,0:0:0:0:
320,192,210757,1,0,0:0:0:0:
320,192,210915,1,0,0:0:0:0:
320,192,211073,1,0,0:0:0:0:
320,192,211231,1,0,0:0:0:0:
320,192,211389,1,0,0:0:0:0:
320,192,211547,1,0,0:0:0:0:
320,192,211705,1,0,0:0:0:0:
320,192,211863,1,0,0:0:0:0:
320,192,212020,1,0,0:0:0:0:
320,192,212178,1,0,0:0:0:0:
320,192,212336,1,0,0:0:0:0:
320,192,212494,1,0,0:0:0:0:
320,192,212652,1,0,0:0:0:0:
448,192,212810,1,0,0:0:0:0:
320,192,212889,1,0,0:0:0:0:
448,192,212968,1,0,0:0:0:0:
320,192,213047,1,0,0:0:0:0:
448,192,213126,1,0,0:0:0:0:
320,192,213205,1,0,0:0:0:0:
448,192,213284,1,0,0:0:0:0:
320,192,213363,1,0,0:0:0:0:
448,192,213441,1,0,0:0:0:0:
320,192,213520,1,0,0:0:0:0:
448,192,213599,1,0,0:0:0:0:
320,192,213678,1,0,0:0:0:0:
448,192,213757,1,0,0:0:0:0:
320,192,213836,1,0,0:0:0:0:
448,192,213915,1,0,0:0:0:0:
320,192,213994,1,0,0:0:0:0:
448,192,214073,1,4,0:0:0:0:
448,192,217863,5,4,0:0:0:0:
64,192,217863,1,4,0:0:0:0:
320,192,218178,1,0,0:0:0:0:
192,192,218336,1,0,0:0:0:0:
64,192,218652,1,0,0:0:0:0:
448,192,218652,1,0,0:0:0:0:
448,192,218968,1,4,0:0:0:0:
64,192,218968,1,4,0:0:0:0:
448,192,219363,1,0,0:0:0:0:
320,192,219678,1,0,0:0:0:0:
192,192,219994,1,0,0:0:0:0:
64,192,219994,1,0,0:0:0:0:
448,192,220389,1,0,0:0:0:0:
64,192,220547,1,0,0:0:0:0:
192,192,220705,1,0,0:0:0:0:
320,192,220863,1,0,0:0:0:0:
448,192,221020,1,0,0:0:0:0:
448,192,221178,1,0,0:0:0:0:
64,192,221336,1,0,0:0:0:0:
192,192,221494,1,0,0:0:0:0:
320,192,221652,1,0,0:0:0:0:
448,192,221810,1,0,0:0:0:0:
448,192,221968,1,0,0:0:0:0:
64,192,222126,1,0,0:0:0:0:
192,192,222284,1,0,0:0:0:0:
320,192,222441,1,0,0:0:0:0:
448,192,222599,1,0,0:0:0:0:
64,192,222757,1,0,0:0:0:0:
448,192,222915,1,4,0:0:0:0:
448,192,223231,1,0,0:0:0:0:
64,192,223231,1,0,0:0:0:0:
64,192,223547,1,0,0:0:0:0:
448,192,223547,1,0,0:0:0:0:
448,192,223863,1,0,0:0:0:0:
64,192,223863,1,0,0:0:0:0:
64,192,224020,128,0,224415:0:0:0:0:
448,192,224020,128,0,224415:0:0:0:0:
192,192,224810,1,0,0:0:0:0:
320,192,224810,1,0,0:0:0:0:
192,192,225126,1,0,0:0:0:0:
320,192,225126,1,0,0:0:0:0:
192,192,225284,128,0,226547:0:0:0:0:
320,192,225284,128,0,226547:0:0:0:0:
448,192,225915,1,0,0:0:0:0:
64,192,225915,1,0,0:0:0:0:
448,192,226231,1,0,0:0:0:0:
64,192,226231,1,0,0:0:0:0:
64,192,226547,1,0,0:0:0:0:
448,192,226547,1,0,0:0:0:0:
64,192,226784,1,0,0:0:0:0:
192,192,226941,1,0,0:0:0:0:
320,192,227099,1,0,0:0:0:0:
192,192,227257,1,0,0:0:0:0:
320,192,227415,1,0,0:0:0:0:
448,192,227415,1,0,0:0:0:0:
64,192,227968,1,0,0:0:0:0:
448,192,228284,1,0,0:0:0:0:
448,192,228441,1,0,0:0:0:0:
320,192,228757,1,0,0:0:0:0:
448,192,229073,1,0,0:0:0:0:
320,192,229389,1,0,0:0:0:0:
192,192,229705,1,0,0:0:0:0:
64,192,230020,1,0,0:0:0:0:
320,192,230336,1,0,0:0:0:0:
448,192,230494,1,0,0:0:0:0:
64,192,230652,1,0,0:0:0:0:
448,192,230810,1,0,0:0:0:0:
64,192,230968,1,0,0:0:0:0:
448,192,231126,1,0,0:0:0:0:
64,192,231284,1,0,0:0:0:0:
448,192,231441,1,0,0:0:0:0:
64,192,231599,1,0,0:0:0:0:
192,192,231757,128,0,232152:0:0:0:0:
448,192,232231,128,0,232626:0:0:0:0:
192,192,232705,128,0,232941:0:0:0:0:
64,192,233020,128,0,234126:0:0:0:0:
448,192,233020,1,0,0:0:0:0:
192,192,233652,1,2,0:0:0:0:
448,192,234284,1,0,0:0:0:0:
192,192,234284,128,0,235389:0:0:0:0:
320,192,234915,1,2,0:0:0:0:
448,192,235389,1,0,0:0:0:0:
448,192,235547,1,0,0:0:0:0:
320,192,235547,128,0,236652:0:0:0:0:
192,192,236178,1,2,0:0:0:0:
448,192,236810,1,0,0:0:0:0:
192,192,236810,128,0,237915:0:0:0:0:
320,192,237441,1,2,0:0:0:0:
320,192,238073,128,0,239178:0:0:0:0:
448,192,238073,1,0,0:0:0:0:
192,192,238705,1,2,0:0:0:0:
448,192,239336,128,0,240284:0:0:0:0:
320,192,239968,1,2,0:0:0:0:
64,192,240441,1,0,0:0:0:0:
448,192,240599,128,0,241705:0:0:0:0:
320,192,241231,1,2,0:0:0:0:
448,192,241863,1,0,0:0:0:0:
448,192,242178,1,0,0:0:0:0:
320,192,242178,1,0,0:0:0:0:
448,192,242494,1,0,0:0:0:0:
192,192,242494,1,0,0:0:0:0:
448,192,242810,1,0,0:0:0:0:
64,192,242810,1,0,0:0:0:0:
448,192,243126,1,4,0:0:0:0:
192,192,243126,1,0,0:0:0:0:
448,192,243599,1,4,0:0:0:0:
448,192,243994,1,4,0:0:0:0:
64,192,244389,1,0,0:0:0:0:
64,192,244547,1,0,0:0:0:0:
192,192,244705,1,0,0:0:0:0:
192,192,244863,1,0,0:0:0:0:
320,192,245178,1,0,0:0:0:0:
320,192,245336,1,0,0:0:0:0:
192,192,245494,1,0,0:0:0:0:
192,192,245652,1,0,0:0:0:0:
448,192,245810,1,0,0:0:0:0:
448,192,246126,1,0,0:0:0:0:
320,192,246284,1,0,0:0:0:0:
192,192,246599,1,0,0:0:0:0:
192,192,246915,1,0,0:0:0:0:
192,192,247073,1,0,0:0:0:0:
320,192,247231,1,0,0:0:0:0:
320,192,247389,1,0,0:0:0:0:
192,192,247705,1,0,0:0:0:0:
192,192,247863,1,0,0:0:0:0:
64,192,248020,1,0,0:0:0:0:
64,192,248178,1,0,0:0:0:0:
192,192,248336,1,0,0:0:0:0:
192,192,248494,1,0,0:0:0:0:
320,192,248652,1,0,0:0:0:0:
320,192,248810,1,0,0:0:0:0:
320,192,249126,1,0,0:0:0:0:
64,192,249441,128,0,251889:0:0:0:0:
192,192,250073,128,0,251889:0:0:0:0:
320,192,250705,128,0,251889:0:0:0:0:
448,192,251336,128,4,251889:0:0:0:0:
